
//----- song ID: euph -----//
#TITLE:Euphoric Fragmentation;
#ARTIST:DC Mizey;
#BANNER:Euphoric Fragmentation.png;
#BACKGROUND:Euphoric Fragmentation-bg.png;
#CDTITLE:./CDTitles/DDR A3.png;
#MUSIC:Euphoric Fragmentation.ogg;
#SAMPLESTART:86.667;
#SAMPLELENGTH:15;
#BPMS:0=180,195=90,211=180,239=90,240=180;
#STOPS:194=0.167,194.5=0.167,239.25=0.333,239.5=0.042,239.562=0.042,239.625=0.042,239.688=0.042,239.75=0.083,239.875=0.083;
#BGSTAGE:15;
#NOTES:
     dance-single:
     :
     Beginner:
     4:
     :
0000
0000
0000
0000
,
0000
0000
0000
0000
,
0000
0000
0000
0000
,
0000
0000
0000
0000
,
0000
0000
0000
0000
,
1000
0000
0000
0000
,
0100
0000
0000
0000
,
0010
0000
0000
0000
,
0000
0000
0000
0000
,
0002
0000
0000
0000
,
0003
0000
0001
0000
,
0010
0000
0100
0000
,
0010
0000
0000
0000
,
2000
0000
0000
0000
,
3000
0000
1000
0000
,
0010
0000
0100
0000
,
0010
0000
0000
0000
,
1001
0000
0000
0000
,
0000
0000
0010
0010
,
1001
0000
0000
0000
,
0000
0000
0100
0100
,
1001
0000
0000
0000
,
0000
0000
0000
0000
,
0001
0000
0010
0000
,
1000
1000
0010
0000
,
1000
0000
0000
0000
,
0100
0000
1000
1000
,
0100
0000
0000
0000
,
0001
0000
0100
0100
,
0001
0000
0000
0000
,
0010
0000
0001
0001
,
0010
0000
0000
0000
,
0100
0000
0010
0000
,
1001
0000
0000
0000
,
0000
0000
0000
0000
,
2000
0000
0000
0000
,
3000
0000
0000
0000
,
1000
0010
1000
0000
,
0010
0000
0100
0000
,
0100
0001
0100
0000
,
0001
0000
0010
0000
,
1001
0000
0000
0000
,
0000
0000
0000
0000
,
0002
0000
0000
0000
,
0003
0000
0000
0000
,
0001
0010
0001
0000
,
0010
0000
0100
0000
,
0100
1000
0100
0000
,
0100
0000
1001
0000
,
0000
1000
0000
0100
,
0000
0000
0000
0001
,
0000
0010
0000
0100
,
0000
0000
0000
2000
,
0000
0000
0000
3000
,
0000
1000
0000
0200
,
0000
0000
0000
0300
,
0000
0100
0000
0020
,
0000
0000
0000
0030
,
0000
0010
0000
0002
,
0000
0000
0000
0003
,
0000
0000
0001
0000
,
0010
0010
0001
0000
,
1001
0000
0000
0000
,
1001
0000
0000
0000
,
0010
0000
0001
0000
,
0100
0100
1000
0000
,
0100
0000
0010
0000
,
1001
0000
0000
0000
,
0020
0000
0000
0000
,
0030
0000
0010
1000
,
0200
0000
0000
0000
,
0300
0000
0100
0000
,
0001
0001
0010
0000
,
0001
0001
0100
0000
,
1000
0000
1000
0000
,
0010
0000
0000
0000
,
0000
0000
0000
0000
,
1000
0001
1000
0000
,
0000
1001
0000
0000
,
0000
0000
0000
0000
;
#NOTES:
     dance-single:
     :
     Easy:
     8:
     :
0000
0000
0000
0000
,
0000
0000
0000
0000
,
0000
0000
0000
0000
,
0000
0000
0000
0000
,
0000
0000
0000
0000
,
0001
0000
1000
0000
,
0100
0010
0100
0000
,
1000
0010
1000
0000
,
0001
0010
0001
0000
,
2000
0000
0000
3000
,
1000
0100
0010
0000
,
0002
0000
0000
0003
,
0001
0100
0010
0000
,
1000
0001
0100
0010
,
1000
0001
1000
0000
,
0001
0010
0100
1000
,
0001
1000
0001
0000
,
1000
0000
1100
0000
,
0100
0010
0001
0000
,
0001
0000
0101
0000
,
0100
0010
1000
0000
,
0001
0010
1000
0000
,
1000
0010
0001
0000
,
1000
0010
0100
0001
,
2000
0000
0000
3000
,
1010
0000
1100
0000
,
1010
0000
1000
0001
,
0011
0000
0101
0000
,
0011
0000
0001
0010
,
0110
0000
1001
0000
,
0110
0000
1001
0000
,
0001
0010
1000
0010
,
0002
0000
0000
0003
,
0001
0010
0100
1000
,
0010
0100
0001
1000
,
0000
2002
0000
3003
,
0010
0000
0000
0110
0000
0000
0000
0000
,
1000
0010
1000
0000
0100
0000
0010
0000
,
0001
0010
0001
0000
0100
0000
0010
0000
,
1000
0100
0010
0000
0001
0000
1000
0000
,
0001
0100
0010
0000
1000
0000
0001
0000
,
1000
0100
0010
0001
,
0100
0010
1000
0001
,
0000
2002
0000
3003
,
0100
0000
0000
0110
0000
0000
0000
0000
,
0001
0100
0001
0000
0010
0000
0100
0000
,
1000
0100
1000
0000
0010
0000
0100
0000
,
0001
0010
0100
0000
1000
0000
0001
0000
,
1000
0010
0100
0001
1000
0000
1000
0000
,
1000
0010
0000
0001
,
0001
0010
0000
1000
,
0001
0000
0010
0100
0010
0000
0001
0100
,
0001
0000
1000
0100
1000
0000
0002
0000
,
0000
0000
0003
0010
,
0010
0100
0000
2000
,
0000
0000
3000
0010
,
0010
0100
0000
0001
,
0100
0010
1000
0001
,
0010
0000
0100
0000
1000
0000
0001
0010
,
0001
0000
1000
0100
1000
0000
0002
0003
,
0001
0001
0010
0010
,
0001
0001
1001
0000
,
1000
1000
0010
0010
,
1000
1000
1001
0000
,
0001
0100
0010
1000
,
0100
0010
0100
0000
1000
0001
1000
0000
,
0001
0000
0100
0000
0010
1000
0010
0000
,
1000
0100
0010
0000
0002
0000
0003
0000
,
0001
0100
0001
0010
,
0100
1000
0100
1000
0100
0000
0000
0000
,
1000
0010
1000
0100
,
0010
0001
0010
0001
0010
0000
0000
0000
,
0001
0100
1000
0100
,
0001
1000
0001
1000
0001
0000
0000
0000
,
1000
0100
0001
0100
,
1000
0001
1000
0001
1000
0000
0000
0000
,
0010
0100
0110
0000
,
1000
0001
1000
0000
0001
1000
0001
0000
,
0000
1001
0000
0000
,
0000
0000
0000
0000
;
#NOTES:
     dance-single:
     :
     Medium:
     12:
     :
0000
0000
0000
0000
,
0000
0000
0000
0000
,
0000
0000
0000
0000
,
0000
0000
0000
0000
,
0000
0000
0000
0000
,
1000
0000
0000
0000
1100
0000
0000
0000
0100
0000
0000
0010
0000
0000
0001
0000
,
0100
0001
1000
0001
0000
0001
0100
0000
,
0020
0000
2030
0000
3001
0010
0100
1000
,
0001
1000
0001
0000
2002
0000
3003
0000
,
1000
0000
0100
0010
0000
0010
0001
0000
,
0100
0001
0010
0001
0011
0000
1001
0000
,
0001
0000
0000
0100
0000
0000
0100
0000
0010
0000
1000
0000
0010
0000
1000
0000
,
0100
0001
0100
1000
0000
1000
0001
0000
,
0001
0000
0000
0000
0011
0000
0000
0000
0010
0000
0000
0100
0000
0000
0100
0000
,
1000
0010
1000
0001
0000
0001
0010
0000
,
0001
0100
0010
1000
0001
0100
0010
1000
,
0001
1000
0001
0000
1000
0000
0001
0000
1000
0000
0000
0000
0000
0000
0000
0000
,
1100
0110
0011
1100
,
0110
0000
0011
0000
0001
1000
0001
0000
,
0101
0110
1010
0101
,
0001
0100
1000
0100
0001
1000
0001
1000
,
0011
0110
1100
0011
,
0110
0000
1100
0000
1000
0001
1000
0000
,
1010
0000
0010
0100
0001
0100
0010
1000
,
0100
0010
0100
0000
2002
0000
3003
0000
,
1000
0100
0010
0001
0100
0010
1000
0100
,
0010
0001
0010
0001
1000
0010
1000
0000
,
0001
0100
0010
1000
0100
0010
0001
0100
,
0010
1000
0010
1000
0001
0010
0001
0000
,
1000
0010
0100
0010
1000
0001
0010
0100
,
1000
0100
0010
0100
0001
0100
0010
0000
,
0001
0100
0010
0100
0001
1000
0100
0010
,
0001
0010
0100
0010
1000
0010
0100
0000
,
2000
0000
0000
0000
,
3020
0000
0230
0000
,
0301
2002
0000
0000
,
0000
0000
3003
0000
0001
1000
0001
0000
,
1000
0010
0100
0010
1000
0100
0110
0000
,
0001
0010
0100
0010
0001
0100
0110
0000
,
1000
0010
0100
0001
0010
0100
1001
0000
,
0001
0010
0100
1000
0010
0100
1001
0000
,
0002
0000
0000
0000
,
0203
0000
0320
0000
,
1030
2002
0000
0000
,
0000
0000
3003
0000
1000
0001
1000
0000
,
0001
0100
0010
0100
0001
0010
0110
0000
,
1000
0100
0010
0100
1000
0010
0110
0000
,
0001
0100
0010
1000
0100
0010
0001
1000
,
0100
0001
0100
1000
0002
0003
0001
0100
,
0010
1000
0000
0010
1000
0000
0100
0000
0110
0000
0000
0000
0001
0000
0010
0000
,
1000
0000
0010
0000
0001
1000
0001
0000
2000
0000
3000
0000
0001
0000
0011
0000
,
0010
0000
0000
0100
0000
0000
1000
0000
0010
0000
1000
0000
0001
0000
1000
0000
0000
0000
1000
0000
0010
0000
0000
0000
0200
0000
0000
0000
0302
0000
0000
0000
,
1003
0100
0010
0001
1000
0001
1000
0000
2002
0000
3003
0000
1000
0000
0000
0000
,
0100
0010
0000
0010
0001
0000
0100
0010
,
0100
0010
0000
0010
0100
0000
0001
0000
,
0010
0000
1000
0010
0001
0000
1000
0100
,
0001
0100
2000
0000
3000
0000
1000
0000
,
1010
1000
1100
0001
,
0011
0000
0001
0000
0101
0000
0001
0010
,
0100
0000
1000
0000
0001
0000
1000
0000
0001
0000
1000
0000
0002
0003
0000
0000
,
0001
0000
0000
0000
0101
0000
0100
0000
0010
0000
0000
0010
1000
0000
0010
0000
,
1000
0100
0001
0000
0001
0100
1000
0000
,
0001
0010
0001
0010
0100
1000
0100
1000
,
0001
0100
0010
1000
1010
0000
1001
0000
,
1000
0000
0010
0000
0010
0000
0010
0000
1000
0000
0000
1000
0000
0000
1000
0000
,
0001
0100
1000
0100
0000
0100
0001
0000
,
1000
0000
0000
0010
0000
0000
0010
0000
0100
0000
0001
0000
0010
0000
0000
0011
,
0000
0001
0010
0100
2000
0000
3001
0000
,
1000
0000
0000
0000
0010
0000
0000
0000
0100
0000
0000
0001
0000
0000
0001
0000
,
1000
0010
0100
0010
1000
0100
0010
0000
,
0001
0100
0000
0100
0010
1000
0000
1000
,
0001
0010
1000
0010
0000
0001
0001
0000
,
1000
0000
0000
0000
1100
0000
0000
0000
0001
0000
0000
0010
0000
0000
0010
0000
,
0001
0100
0010
0100
0000
0100
0010
0000
,
1000
0000
0100
0000
0001
0100
1000
0010
,
0100
0001
0010
0000
2002
0000
3003
0000
,
0001
0001
1000
1000
,
0001
1000
0001
1000
0001
1000
0001
1000
,
0000
1001
0000
0000
,
0000
0000
0000
0000
;
#NOTES:
     dance-single:
     :
     Hard:
     16:
     :
0000
0000
0000
0000
,
0000
0000
0000
0000
,
0000
0000
0000
0000
,
0000
0000
0000
0000
,
0000
0000
0000
0000
,
0001
0000
0100
0000
0001
0000
0000
0000
1000
0000
0100
1000
0000
0100
1000
0000
,
0010
0100
0001
1000
0000
1000
0010
0000
,
2000
0000
3200
0000
0301
0100
1000
0001
,
0010
0001
0100
0000
2002
0000
3003
0000
,
0001
0000
0010
0000
0100
0000
1000
0001
1000
0001
1000
0000
0010
0100
0010
0100
,
0010
0000
1000
0000
0010
0000
0100
0001
0100
0000
0010
1000
0010
0000
0100
0000
,
0001
0000
0000
0100
0000
0000
0100
0000
1000
0000
0000
0100
0000
0000
0100
0000
,
0001
0000
0010
0000
0001
0000
0100
0000
0000
0000
0001
1000
0001
0000
0000
0000
,
1000
0100
1000
0100
0010
0001
0010
0001
,
1000
0010
1000
0010
0100
0001
0100
0001
,
1000
0010
1000
0010
0100
0010
0100
0000
0001
0010
0001
0010
0100
0010
0100
0000
,
1000
0100
0010
0001
1000
0100
0010
0001
0000
0000
0000
0000
0000
0000
0000
0000
,
1000
0000
1100
0000
0110
0000
0011
0001
,
0000
0000
1010
0000
1000
0000
0001
0100
0001
0000
1000
0000
1001
0000
0000
0000
,
0001
0000
0011
0000
0110
0000
1100
1000
,
0001
0010
0100
0000
1000
0001
0010
0000
0100
1000
0001
0000
0010
0100
1000
0000
,
0001
0000
0101
0000
1100
0000
0001
0100
,
0000
0000
0010
0000
1000
0000
0100
0010
0001
0000
0010
0100
1000
0100
1000
0000
,
0010
0000
1010
0000
0010
0001
0010
1000
,
0010
0100
0110
0000
2002
0000
3003
0000
,
1000
0100
1000
0000
0001
0100
0001
0000
1000
0010
0100
0001
1000
0000
0001
0000
,
0010
0100
1000
0100
0010
0000
0001
0000
0100
0010
1000
0001
0200
0000
0000
0000
,
0310
0000
0000
0000
0110
0000
0000
0000
1000
0010
0100
0001
0010
0000
0100
0000
,
1000
0010
1000
0100
1000
0000
0001
0000
0100
0010
1000
0000
0100
0010
0001
0000
,
2000
0000
0000
0000
3001
0000
0000
0000
0100
0010
0100
0001
0100
0000
0010
0000
,
1000
0100
0010
0001
1000
0000
0100
0000
0010
0001
0100
0001
0010
0000
0100
0000
,
2000
0000
3020
0000
0130
0001
0010
0001
,
1000
0100
0010
0000
0001
0100
0010
0000
1000
0001
1000
0001
1000
0000
0000
0000
,
0001
0000
1000
0010
1000
0000
0001
0000
1000
0100
1000
0000
1001
0000
0000
0000
,
1000
0000
0001
0010
0001
0000
1000
0000
0001
0100
0001
0000
1001
0000
0000
0000
,
0100
0100
0110
0000
0011
0000
1100
0000
,
0001
0100
0001
0100
0001
0000
1000
0100
1000
0100
1000
0000
0002
0000
0000
0000
,
1003
0100
1000
0100
0010
0000
0001
0010
0001
0010
0100
0000
1000
0000
0000
0000
,
0001
0100
0001
0100
0010
0000
1000
0010
1000
0010
0100
0000
0001
0000
0000
0000
,
1000
0100
0010
0001
0010
0000
0001
0100
0010
1000
0010
0000
0100
0000
0000
0000
,
0001
0010
0100
1000
0100
0000
1000
0001
0100
0001
1000
0000
0100
0000
0000
0000
,
0010
0000
0001
0100
0001
0000
0010
0000
0100
1000
0100
0000
0110
0000
0000
0000
,
0100
0000
1000
0010
1000
0000
0100
0000
0010
0001
0010
0000
0110
0000
0000
0000
,
1000
1000
1001
0000
0101
0000
1010
0000
,
1000
0010
1000
0010
1000
0000
0001
0010
0001
0010
0001
0000
1001
0000
0000
0000
,
1000
0100
1000
0001
0100
0000
0010
1000
0100
1000
0010
0000
0100
0001
0000
0000
,
0010
0001
1000
0100
1000
0000
0001
0100
0001
0010
0001
0000
0100
0010
0000
0000
,
1000
0100
0110
0010
0001
0100
0110
0000
,
0001
0010
0100
1000
0001
0010
0100
1000
0002
0003
2000
3000
0002
0000
0000
0000
,
0103
0000
0010
1000
0000
0100
1000
0000
0020
0000
0030
1000
0001
0100
0010
0000
,
1000
0100
0010
0000
0001
0100
0001
0100
0000
0100
0010
0000
1000
0010
1000
0000
,
0001
0000
0010
0001
0000
0010
0001
0000
0100
0000
0010
0000
1000
0000
0001
0000
0000
0000
0001
0000
0100
0000
0000
0000
0002
0000
0000
0000
0023
0000
0000
0000
,
1030
0010
0001
1000
0100
1000
0010
0000
2002
0000
3003
0000
0001
0000
0000
0000
,
0001
0000
0100
0000
0000
0000
0100
0000
0010
1000
0010
1000
0010
0000
0100
0000
,
0010
0000
0100
0000
0001
0000
1000
0100
0010
0000
0001
0100
0010
0000
1000
0000
,
0100
0000
0010
0100
0010
0100
0010
0000
0001
0000
1000
0100
1000
0000
0010
0000
,
1000
0000
0001
1000
0001
1000
0001
0000
0010
0000
0000
0000
0001
0000
0100
0000
,
1000
0100
0001
0100
1000
0100
0001
0010
,
1000
0000
0010
0000
0001
0000
0010
0000
1000
0000
0010
0000
0001
0010
0100
0000
,
1000
0000
0000
0000
0010
0000
0000
0000
0100
0000
0000
0000
0000
0000
0000
0000
0001
0000
0000
0000
1000
0000
0000
0000
0001
0000
0000
0000
1000
0000
0000
0000
0001
0000
0000
0000
1000
0000
0000
0000
0001
0000
0000
0000
1000
0000
0000
0000
0002
0000
0000
0000
0000
0003
0000
0000
0200
0000
0000
0000
0300
0000
0000
0000
,
0110
0000
0010
0000
1010
0000
1000
0000
0001
0100
0000
0001
0100
0000
0010
0000
,
1000
0000
0100
0010
0100
0000
0010
0000
0002
0000
0023
0000
0230
0000
2300
0000
,
3001
0000
1000
0100
1000
0000
0001
0100
0001
0000
0010
0000
0110
0000
0100
0000
,
0010
0000
0001
0000
0100
0000
0001
0000
0010
0100
0010
0100
1000
0001
1000
0001
,
1000
0000
1000
0000
0010
0000
0010
0000
0110
0000
0000
0101
0000
0000
1001
0000
,
0001
0000
0100
0010
1000
0000
0100
0010
0001
0000
1000
0000
0100
0010
0100
0000
,
1000
0000
0000
1010
0000
0000
0010
0000
1000
0000
0100
0000
0010
0000
0001
0100
,
0000
0000
0110
0000
0100
0001
1000
0000
0200
0000
0000
0000
0310
0000
0000
0000
,
0001
0000
0010
0000
0100
0000
1000
0000
0010
0100
0000
0010
1000
0000
0001
0000
,
1000
0100
1000
0000
0001
0010
0001
0000
0100
0010
0100
0000
0001
1000
0001
1000
,
0001
0000
0200
0000
0000
0000
1300
0000
0100
0000
0010
1000
0010
0000
0100
0000
,
0001
0100
0001
0000
1000
0010
1000
0000
0010
0100
0010
0100
0010
0000
1000
0001
,
1000
0000
0000
0000
1010
0000
0000
0000
0101
0000
0000
0001
1000
0000
1000
0000
,
0001
0010
0001
0000
1000
0010
0100
0001
0000
0000
0100
0010
1000
0000
0001
0000
,
0010
0100
1000
0100
0010
0000
0001
0000
0100
0010
0100
0010
1000
0010
1000
0000
,
0001
0100
0001
0100
0010
1000
0010
0000
1000
0100
1000
0100
0010
0001
0010
0000
,
0001
0010
0100
1000
,
0001
0010
0100
1000
0001
0010
0100
1000
0001
1000
0001
1000
0001
1000
0001
1000
,
0000
1001
0000
0000
,
0000
0000
0000
0000
;
#NOTES:
     dance-double:
     :
     Easy:
     8:
     :
00000000
00000000
00000000
00000000
,
00000000
00000000
00000000
00000000
,
00000000
00000000
00000000
00000000
,
00000000
00000000
00000000
00000000
,
00000000
00000000
00000000
00000000
,
00010000
00000000
00001000
00000000
,
00000010
00000100
00000010
00000000
,
00000001
00000100
00000010
00001000
,
00000010
00010000
00001000
00000000
,
00020000
00000000
00000000
00030000
,
00001000
00010000
00100000
00000000
,
20000000
00000000
00000000
30000000
,
10000000
01000000
00100000
00000000
,
00010000
10000000
00010000
00100000
,
00001000
00010000
00011000
00000000
,
00010000
00001000
00000010
00000001
,
00001000
00001000
00001000
00000000
,
00001100
00000000
00000110
00000000
,
00000001
00000010
00000100
00000000
,
00001100
00000000
00010100
00000000
,
00010000
00001000
00010000
00000000
,
00001000
00100000
00010000
00000000
,
00010000
01000000
00100000
00000000
,
10000000
01000000
00100000
00010000
,
20000000
00000000
00000000
30000000
,
11000000
00000000
01100000
00000000
,
00110000
00000000
00100000
00001000
,
00011000
00000000
00001010
00000000
,
00000011
00000000
00000001
00001000
,
00001001
00000000
00000110
00000000
,
00001001
00000000
00000001
00000100
,
00001000
00001000
00010000
00000000
,
00022000
00000000
00000000
00033000
,
00001000
00010000
00001000
00010000
,
00100000
01000000
00100000
01000000
,
00000000
02200000
00000000
03300000
,
00100000
00000000
00000000
10010000
00000000
00000000
00000000
00000000
,
10000000
00100000
10000000
00000000
01000000
00000000
00100000
00000000
,
00010000
01000000
00010000
00000000
00100000
00000000
01000000
00000000
,
10000000
01000000
00100000
00000000
00001000
00000000
00010000
00000000
,
00000100
00001000
00000010
00000000
00001000
00000000
00000100
00000000
,
00010000
00001000
00010000
00001000
,
00000010
00000100
00000010
00000100
,
00000000
00000220
00000000
00000330
,
00000010
00000000
00000000
00001001
00000000
00000000
00000000
00000000
,
00000001
00000010
00000001
00000000
00000100
00000000
00000010
00000000
,
00001000
00000100
00001000
00000000
00000010
00000000
00000100
00000000
,
00000001
00000100
00000010
00000000
00010000
00000000
00001000
00000000
,
01000000
00010000
00100000
00000000
01100000
00000000
10000000
00000000
,
10000000
01000000
00000000
00100000
,
00100000
00000000
00010000
00000000
00000000
00000000
00001000
00000100
,
00001000
00000000
00000100
00000000
00000000
00000000
00000010
00000001
,
00000010
00000001
00000000
00000002
,
00000000
00000000
00000003
00000001
,
00000100
00001000
00000000
00020000
,
00000000
00000000
00030000
00001000
,
00010000
00100000
00000000
10000000
,
01000000
00100000
00010000
10000000
,
01000000
00000000
00100000
00000000
00001000
00000000
00010000
00001000
,
00010000
00000000
00000100
00001000
00000100
00000000
00000220
00000330
,
00000010
00000010
00001001
00001001
,
00000001
00000000
00000100
00000000
00000010
00001000
00000010
00000000
,
00010000
00010000
00011000
00011000
,
00001000
01000000
00001000
00000000
00100000
00000000
00000000
00000000
,
00010000
00010000
01010000
01010000
,
10000000
00100000
10000000
00000000
01000000
00000000
01100000
00000000
,
10000000
01000000
00010000
00001000
,
00000010
00000001
00000010
00000000
00000002
00000000
00000003
00000000
,
00000001
00001000
00000100
00000010
,
00000001
00001000
00000001
00001000
00000001
00000000
00000000
00000000
,
00000001
00000100
00001000
00010000
,
00001000
00010000
00001000
00010000
00001000
00000000
00000000
00000000
,
00001000
01000000
00010000
00100000
,
01000000
00100000
01000000
00100000
01000000
00000000
00000000
00000000
,
10000000
01000000
00100000
00001000
,
00010000
00001000
00010000
00001000
00010000
00000000
00000000
00000000
,
00001000
00001000
00010000
00010000
,
00001000
00010000
00001000
00000000
00010000
00001000
00010000
00000000
,
00000000
00011000
00000000
00000000
,
00000000
00000000
00000000
00000000
;
#NOTES:
     dance-double:
     :
     Medium:
     12:
     :
00000000
00000000
00000000
00000000
,
00000000
00000000
00000000
00000000
,
00000000
00000000
00000000
00000000
,
00000000
00000000
00000000
00000000
,
00000000
00000000
00000000
00000000
,
00001000
00000000
00000000
00000000
00011000
00000000
00000000
00000000
00010000
00000000
00000000
00001000
00000000
00000000
01000000
00000000
,
00010000
01000000
00010000
00100000
00000000
00100000
01000000
00000000
,
20000000
00000000
32000000
00000000
03010000
00001000
00010000
00001000
,
00000010
00000001
00000010
00000000
00000220
00000000
00000330
00000000
,
00000001
00000000
00000100
00000010
00000000
00000010
00001000
00000000
,
00000001
00000100
00000001
00000100
00001000
00000000
00011000
00000000
,
00010000
00000000
00000000
00001000
00000000
00000000
00001000
00000000
01000000
00000000
00010000
00000000
00100000
00000000
00010000
00000000
,
00000000
00010000
01000000
00100000
00000000
00100000
10000000
00000000
,
00010000
00000000
00000000
00000000
00110000
00000000
00000000
00000000
00100000
00000000
00000000
01000000
00000000
00000000
01000000
00000000
,
10000000
01000000
00100000
00010000
00000000
00010000
00100000
00000000
,
00002000
00000000
00023000
00000000
00030100
00001000
00000100
00000010
,
00000001
00000000
00001000
00000000
00000001
00001000
00000001
00001000
00000000
00000000
00000000
00000000
00000000
00000000
00000000
00000000
,
00000011
00000101
00000011
00000101
,
00000011
00000000
00001010
00000000
00011000
00010000
00001000
00000000
,
00101000
01001000
00110000
01010000
,
00010000
00100000
10000000
00100000
00010000
10000000
00010000
00000000
,
10100000
11000000
10100000
11000000
,
10100000
00000000
00110000
00000000
00011000
00001000
00010000
00000000
,
00010010
00010100
00001010
00001100
,
00001000
00000010
00000001
00000010
00002000
00000000
00003000
00000000
,
00000001
00000000
00001001
00000000
00000001
00000100
00000010
00001000
,
00000100
00010000
00001000
00100000
00010000
01000000
00100000
10000000
,
00010000
00000000
10010000
00000000
10000000
01000000
00100000
00010000
,
01000000
00001000
00010000
00000010
00001000
00000100
00000010
00000001
,
00001000
00000000
00001001
00000000
00000001
00000100
00001000
00000100
,
00001000
00010000
00001000
00010000
00100000
00010000
00100000
10000000
,
00020000
00000000
02030000
00000000
13000000
01000000
00010000
10000000
,
01000000
00100000
00001000
00000000
00022000
00000000
00033000
00000000
,
00020000
00000000
00000000
00000000
,
00030200
00000000
00002300
00000000
,
00003010
00002002
00000000
00000000
,
00000000
00000000
00003003
00000000
00001000
00000001
00001000
00000000
,
00000001
00000100
00001000
00000100
00000001
00000000
00000010
00000100
,
00001000
00000100
00010000
00001000
00010000
00000000
00001000
01000000
,
00010000
00100000
01000000
00100000
00010000
00000000
01000000
00100000
,
00010000
00001000
00000100
00000010
00001000
00000000
00000100
00010000
,
00002000
00000000
00000000
00000000
,
02003000
00000000
03020000
00000000
,
00130000
20020000
00000000
00000000
,
00000000
00000000
30030000
00000000
00010000
10000000
00010000
00000000
,
10000000
01000000
00010000
01000000
10000000
00000000
00100000
01000000
,
00010000
01000000
00001000
00010000
00001000
00000000
00010000
00000100
,
00001000
00000010
00000100
00000010
00001000
00000000
00000100
00000010
,
00001000
00010000
01000000
00100000
00020000
00030000
10000000
01000000
,
00100000
00010000
00000000
00100000
00010000
00000000
01000000
00000000
00001000
00010000
00001000
00000000
00010000
00000000
00000010
00000000
,
00000001
00000000
00000010
00000000
00001000
00000001
00001000
00000000
00000002
00000000
00000003
00000000
00000001
00000000
00000101
00000000
,
00000100
00000000
00000000
00000010
00000000
00000000
00001000
00000000
00000100
00000000
00010000
00000000
00000100
00000000
00010000
00000000
00000000
00000000
00010000
00000000
00001000
00000000
00000000
00000000
00020000
00000000
00000000
00000000
02030000
00000000
00000000
00000000
,
13000000
00010000
01000000
00000000
00100000
10000000
00010000
00000000
20020000
00000000
30030000
00000000
10000000
00000000
00000000
00000000
,
00010000
01000000
00000000
01000000
00100000
01000000
00000000
00001000
,
00010000
00000000
00001000
00000000
00100000
00000000
00000000
00000000
01100000
00000000
00000000
00000000
10000000
00000000
00000000
00010000
,
00000000
01000000
00010000
00000000
10000000
01000000
00100000
00001000
,
00010000
00022000
00033000
00010000
,
00011000
00000000
00000000
00000000
00001000
00000000
00000000
00010000
00000000
00000000
00000100
00000000
00001000
00000000
00000100
00000000
,
00001000
00000010
00000000
00000010
00000100
00000000
00000002
00000000
,
00000203
00000000
00000000
00000000
00001300
00000000
00010000
00000000
00001000
00000000
00010000
00000000
00200000
00300000
00000000
00000000
,
10000000
00000000
00100000
00000000
10000000
00000000
01000000
00000000
00100000
00000000
00000000
00100000
00001000
00000000
00010000
00000000
,
00001000
00000010
00001000
00000000
00010000
00100000
00010000
00000000
,
00001000
00010000
00000100
00000000
00000001
00000100
00001000
00000001
,
00000100
00000000
00001100
00000000
00001000
00010000
00001000
00000000
,
00010000
00000000
00100000
00000000
00100000
00000000
00100000
00000000
10000000
00000000
00000000
10000000
00000000
00000000
10000000
00000000
,
00010000
00000000
01000000
10000000
00000000
01000000
00010000
00000000
,
10000000
00000000
00000000
01000000
00000000
00000000
01000000
00000000
00100000
00000000
00010000
00000000
10000000
00000000
00000000
01000000
,
00000000
00010000
00001000
00010000
00002000
00000000
00013000
00000000
,
00001000
00000000
00000000
00000000
00000010
00000000
00000000
00000000
00000001
00000000
00000000
00000100
00000000
00000000
00001000
00000000
,
00000100
00000010
00010000
00000000
00001000
00100000
01000000
00000000
,
10000000
00100000
00000000
00100000
00010000
00001000
00010000
01000000
,
10000000
01000000
00010000
00002000
00000000
00010000
00013000
00000000
,
00011000
00000000
00000000
00000000
00010100
00000000
00000000
00000000
00001100
00000000
00000000
00001000
00000010
00000000
00001000
00000000
,
00000100
00000010
00000001
00001000
00000000
00001000
00000001
00000000
,
00000200
00000000
00002300
00000000
00013000
00100000
10000000
01000000
,
00010000
01000000
10000000
00000000
20020000
00000000
30030000
00000000
,
10000000
10000000
00010000
00010000
,
10000000
01000000
00100000
00001000
00010000
00000100
00000010
00000001
,
00000000
00001001
00000000
00000000
,
00000000
00000000
00000000
00000000
;
#NOTES:
     dance-double:
     :
     Hard:
     16:
     :
00000000
00000000
00000000
00000000
,
00000000
00000000
00000000
00000000
,
00000000
00000000
00000000
00000000
,
00000000
00000000
00000000
00000000
,
00000000
00000000
00000000
00000000
,
00010000
00000000
00000000
00000000
00011000
00000000
00000000
00000000
00001000
00000000
00100000
00010000
00000000
00100000
00010000
00000000
,
01000000
00100000
10000000
01000000
00010000
01000000
10000000
00000000
,
20000000
00000000
30200000
00000000
00310000
00001000
00000100
00000001
,
00000010
00000010
00000100
00000000
00002002
00000000
00003003
00000000
,
00000001
00000000
00000100
00000000
00000001
00000000
00000100
00000000
00000010
00000000
00001000
00000100
00000000
00001000
00000100
00000000
,
00001000
00000010
00001000
00000100
00001000
00000010
00000100
00001000
,
00010000
00000000
00100000
01000000
00000000
00100000
01000000
00000000
00100000
00000000
00010000
00001000
00000000
00010000
00001000
00000000
,
00010000
00000000
01000000
00000000
00100000
00000000
00010000
00000000
00000000
00000000
10000000
00010000
10000000
00000000
00000000
00000000
,
00010000
10000000
01000000
00100000
00010000
10000000
01000000
00100000
,
00001000
00010000
00001000
00010000
00000010
00001000
00000010
00001000
,
00000100
00000010
00000100
00000000
00000010
00000001
00000010
00000000
00000001
00001000
00000001
00000000
00001000
00000100
00001000
00000000
,
00000100
00010000
00000100
00010000
00001000
00010000
00001000
00010000
00000000
00000000
00000000
00000000
00000000
00000000
00000000
00000000
,
00010000
00000000
00011000
00000000
00001000
00010000
00100000
01000000
,
00001000
00010000
01000000
00100000
00010000
01000000
10000000
01000000
,
00010000
00000000
10010000
00000000
10000000
00100000
01000000
00010000
,
00100000
01000000
00100000
00000000
00001000
00010000
00001000
00000000
01000000
00100000
01000000
00000000
00001000
00010000
00001000
00010000
,
00001000
00000000
00011000
00000000
00010000
00001000
00000010
00000100
,
00010000
00001000
00000100
00000010
00001000
00000100
00000001
00000100
,
00001000
00000000
00001001
00000000
00000001
00000010
00000100
00001000
,
00000010
00000100
00000010
00000000
00010000
00001000
00010000
00000000
00000100
00000010
00000100
00000000
00000010
00000000
00000000
00000000
,
00000001
00000000
00000000
00000000
00001001
00000000
00000000
00000000
00001000
00000100
00001000
00000000
00000001
00000100
00000001
00000000
,
00001000
00000010
00001000
00000000
00000010
00010000
00000010
00000000
00010000
00001000
00010000
00001000
00020000
00000000
00000000
00000000
,
00031000
00000000
00000000
00000000
00011000
00000000
00000000
00000000
01000000
00001000
01000000
00000000
00010000
01000000
00010000
00000000
,
00100000
00010000
00100000
00000000
01000000
10000000
01000000
00000000
10000000
00100000
10000000
00010000
10000000
00000000
00100000
00000000
,
02000000
00000000
00000000
00000000
03100000
00000000
00000000
00000000
10000000
00010000
10000000
00000000
00010000
00100000
00010000
00000000
,
00100000
00001000
00100000
00000000
00001000
00010000
00001000
00000000
00010000
00000100
00010000
00000100
00001000
00000000
00000010
00000000
,
00000200
00000000
00002300
00000000
00003100
00000001
00000010
00000100
,
00001000
00000000
00000010
00000100
00000010
00000000
00000100
00001000
00000100
00000000
00001000
00000000
00011000
00000000
00000000
00000000
,
00010000
00000000
00100000
01000000
00100000
00000000
00010000
00000000
00001000
00010000
00001000
00000000
00011000
00000000
00000000
00000000
,
00001000
00000000
00000010
00000100
00000010
00000000
00001000
00000000
00010000
00001000
00010000
00000000
00011000
00000000
00000000
00000000
,
00001000
00010000
00100000
01000000
00001000
00010000
01000000
00010000
,
00001000
00000010
00000100
00010000
00001000
00010000
00011000
00000000
,
00001000
01000000
00001000
01000000
00010000
00000000
00100000
01000000
00100000
01000000
10000000
00000000
00010000
00000000
00000000
00000000
,
10000000
00100000
10000000
00100000
01000000
00000000
00010000
00100000
00010000
00100000
00001000
00000000
00010000
00000000
00000000
00000000
,
00000010
00001000
00000010
00001000
00000100
00000000
00000010
00000001
00000010
00000001
00001000
00000000
00000001
00000000
00000000
00000000
,
00000100
00000010
00000100
00000010
00001000
00000000
00000010
00010000
00000010
00010000
00001000
00000000
00010000
00000000
00000000
00000000
,
00001000
00000000
00000010
00000100
00000010
00000000
00001000
00000000
00010000
00001000
00010000
00000000
00011000
00000000
00000000
00000000
,
00010000
00000000
00100000
01000000
00100000
00000000
00010000
00000000
00001000
00010000
00001000
00000000
00011000
00000000
00000000
00000000
,
00010000
00001000
00000010
00000100
00010000
00001000
00000100
00001000
,
00010000
00100000
01000000
00001000
00010000
00001000
00011000
00000000
,
00010000
00000100
00010000
00000100
00001000
00000000
00000010
00000100
00000010
00000100
00000001
00000000
00001000
00000000
00000000
00000000
,
00000001
00000010
00000001
00000010
00000100
00000000
00001000
00000010
00001000
00000010
00010000
00000000
00001000
00000000
00000000
00000000
,
00100000
00010000
00100000
00000000
00010000
01000000
00010000
00000000
10000000
00100000
10000000
00000000
00010000
01000000
00010000
00000000
,
10000000
00000000
01000000
00000000
00010000
00001000
00010000
00001000
00020000
00030000
00022000
00033000
00020000
00000000
00000000
00000000
,
00030010
00001000
00000000
00000100
00000010
00000000
00000001
00000000
00000100
00001000
00000100
00000000
00000001
00000010
00000100
00000000
,
00010000
00001000
00010000
00000000
00001000
01000000
00010000
00100000
00000000
00100000
01000000
00000000
10000000
00000000
10100000
00000000
,
00010000
00000000
01000000
00010000
00000000
01000000
00010000
00000000
10000000
00000000
01000000
00000000
00010000
00000000
00001000
00000000
00000000
00000000
00001000
00000000
00010000
00000000
00000000
00000000
00200000
00000000
00000000
00000000
00320000
00000000
00000000
00000000
,
00031000
00000100
00000001
00001000
00000100
00000010
00000001
00000000
00002002
00000000
00003003
00000000
00000001
00000000
00000000
00000000
,
00000100
00000000
00000010
00000000
00000000
00000000
00000010
00000000
00010000
00000000
00001000
00010000
00001000
00000000
01000000
00000000
,
00010000
00000000
00100000
00000000
00001000
00000000
01000000
00000000
00010000
00000000
00100000
00000000
00010000
00000000
01000000
00100000
,
00000000
01000000
00100000
00000000
10000000
00000000
01000000
00100000
00000000
01000000
00100000
00000000
00010000
00000000
10000000
00000000
,
01000000
00100000
01000000
00000000
00100000
00000000
00001000
00010000
00001000
00000000
00010000
00000000
00001000
00000000
00000000
00000000
,
00011000
00000000
00000000
00000000
00010000
00000000
00000100
00001000
00000000
00000100
00001000
00000000
00000010
00000000
00000100
00000000
,
00000001
00000010
00001000
00000010
00000001
00000000
00000002
00000000
,
00000203
00000000
00000000
00000000
00001300
00000000
00010000
00000000
00100000
00000000
10000000
00000000
02000000
03000000
20020000
30030000
,
10000000
00000000
00100000
00000000
00010000
00000000
00100000
00000000
10000000
01000000
00000000
10000000
01000000
00000000
00100000
00000000
,
00001000
00000000
00010000
00001000
00010000
00000000
00001000
00000000
00020000
00000000
00230000
00000000
02300000
00000000
03002000
00000000
,
00013000
00000000
00000100
00001000
00000100
00000000
00001000
00000010
00001000
00000000
00000001
00000000
00000100
00000000
00001000
00000000
,
00000100
00000000
00000010
00001000
00000010
00000000
00000100
00000000
00000001
00001000
00000001
00001000
00000001
00000000
00000000
00000000
,
00001000
00000000
00000001
00000000
00000010
00000000
00000100
00000000
00001100
00000000
00000000
00010100
00000000
00000000
00011000
00000000
,
00001000
00000000
01000000
00010000
01000000
00000000
00010000
00100000
00010000
00000000
01000000
00000000
00100000
10000000
00100000
10000000
,
00100000
00000000
00000000
10100000
00000000
00000000
10010000
00000000
00010000
00000000
01000000
00000000
10000000
00000000
01000000
00100000
,
00000000
00000000
10000000
00000000
01000000
00100000
00010000
00100000
00002000
00000000
00000000
00000000
00013000
00000000
00000000
00000000
,
00001000
00000000
00010000
00000000
00001000
00000000
00010000
00000000
00000010
00001000
00000000
00000010
00000100
00000000
00000001
00000000
,
00001000
00000000
00000100
00000010
00000001
00000000
00000100
00000000
00000010
00001000
00000010
00000000
00001000
00000000
00000100
00010000
,
00000100
00010000
00001000
00100000
00010000
01000000
00001000
00010000
,
00100000
00000000
01000000
00000000
10000000
00000000
01000000
00100000
10000000
00000000
01000000
00100000
00010000
00000000
00100000
00001000
,
00100000
00000000
00000000
00000000
00101000
00000000
00000000
00000000
00011000
00000000
00000000
00001000
00010000
00000000
00010000
00000000
,
00000010
00001000
00000010
00000000
00001000
00000000
00000100
00000010
00000001
00000000
00000100
00000010
00001000
00000000
00000001
00000000
,
00000100
00000010
00000100
00000000
00001000
00000100
00001000
00000000
00010000
00001000
00010000
00000000
00001000
01000000
00001000
01000000
,
00010000
00000000
00100000
00010000
00100000
00010000
01000000
00000000
00100000
10000000
00010000
01000000
00100000
00000000
10000000
00000000
,
02000000
00100000
00100000
03100000
,
10000000
01000000
10000000
01000000
00100000
00010000
00100000
00010000
00100000
00001000
00010000
00001000
00010000
00000100
00001000
00000100
,
00000000
00000110
00000000
00000000
,
00000000
00000000
00000000
00000000
;
