
//----- song ID: eonb -----//
#TITLE:Eon Break;
#ARTIST:Virtual Self;
#BANNER:Eon Break.png;
#BACKGROUND:Eon Break-bg.png;
#CDTITLE:./CDTitles/DDR A3.png;
#MUSIC:Eon Break.ogg;
#SAMPLESTART:54.002;
#SAMPLELENGTH:15;
#BPMS:0=180,224=178,252=182,256=178,260=356,388=178;
#STAGE:33;
#NOTES:
     dance-single:
     :
     Beginner:
     4:
     :
0000
0000
0000
0000
,
0000
0000
0000
0000
,
0000
0000
0000
0000
,
0000
0000
0000
0000
,
0000
0000
0000
0000
,
0000
0000
0000
0000
,
0000
0000
0000
0000
,
0000
0000
0000
0000
,
0000
0000
0000
0000
,
1000
0000
0100
0000
,
1000
0000
1000
0000
,
0010
0000
0000
0000
,
0000
0000
0000
0000
,
0001
0000
0100
0000
,
0001
0000
0001
0000
,
0010
0000
0000
0000
,
0000
0000
0000
0000
,
0001
0000
0000
0000
,
0001
0000
0100
0000
,
0010
0000
0000
0000
,
1001
0000
0000
0000
,
1000
0000
0000
0000
,
1000
0000
0100
0000
,
0010
0000
0000
0000
,
0000
0000
0000
0000
,
0001
0000
0000
0000
,
0100
0000
0001
0000
,
0010
0000
0000
0000
,
1001
0000
0000
0000
,
1000
0000
0000
0000
,
0100
0000
1000
0000
,
0010
0000
0000
0000
,
0000
0000
0000
0000
,
1001
0000
0000
0000
,
0001
0000
0010
0000
,
1000
0000
0000
0000
,
1000
0000
0100
0000
,
0001
0000
0000
0000
,
0010
0000
0100
0000
,
0010
0000
0000
0000
,
1001
0000
0000
0000
,
1000
0000
1000
0000
,
0100
0000
0100
0000
,
0010
0000
0000
0000
,
1001
0000
0000
0000
,
0100
0000
0100
0000
,
0010
0000
0010
0000
,
0001
0000
0000
0000
,
0000
0000
0000
0000
,
0001
0000
0001
0000
,
0010
0000
0010
0000
,
0100
0000
0000
0000
,
1001
0000
0000
0000
,
0010
0000
0010
0000
,
0100
0000
0100
0000
,
1000
0000
0000
0000
,
0000
0000
0000
0000
,
2000
0000
0000
0000
,
3000
0000
0000
0000
,
0200
0000
0000
0000
,
0300
0000
0000
0000
,
0020
0000
0000
0000
,
0030
0000
0000
0000
,
0002
0000
0000
0000
,
0003
0000
0000
0000
,
0001
0000
0000
0000
,
0100
0000
0000
0000
,
0001
0000
0000
0000
,
0001
0000
0000
0000
,
0010
0000
0000
0000
,
0100
0000
0000
0000
,
0010
0000
0000
0000
,
0000
0000
0000
0000
,
0001
0000
0000
0000
,
0100
0000
0000
0000
,
0010
0000
0000
0000
,
0100
0000
0000
0000
,
0010
0000
0000
0000
,
1000
0000
0000
0000
,
0010
0000
0000
0000
,
0000
0000
0000
0000
,
1000
0000
0000
0000
,
0010
0000
0000
0000
,
1000
0000
0000
0000
,
1000
0000
0000
0000
,
0100
0000
0000
0000
,
0010
0000
0000
0000
,
0100
0000
0000
0000
,
0000
0000
0000
0000
,
1000
0000
0000
0000
,
0010
0000
0000
0000
,
0100
0000
0000
0000
,
0010
0000
0000
0000
,
0100
0000
0000
0000
,
0001
0000
0000
0000
,
0100
0000
0000
0000
,
0000
0000
0000
0000
,
1001
0000
0000
0000
,
0000
0000
0000
0000
;
#NOTES:
     dance-single:
     :
     Easy:
     8:
     :
0000
0000
0000
0000
,
0000
0000
0000
0000
,
0000
0000
0000
0000
,
0000
0000
0000
0000
,
0000
0000
0000
0000
,
0000
0000
0000
0000
,
0000
0000
0000
0000
,
0000
0000
0000
0000
,
0000
0000
0000
0000
,
0001
0000
1000
0000
,
0100
0010
0100
0000
,
1000
0000
0001
0000
,
0100
0010
0100
0000
,
0001
0100
0010
0000
,
0100
0010
1000
0000
,
0001
0010
0100
1000
,
0010
0000
0000
0010
0000
0000
0110
0000
,
1000
0010
1000
0000
,
1000
0100
1000
0000
,
0001
0010
0001
0100
,
0002
0000
0000
0003
,
0001
0010
0001
0000
,
0001
0100
0001
0000
,
1000
0010
1000
0100
,
1000
1000
1000
0000
,
0001
0100
0010
0000
,
0100
0010
1000
0000
,
1000
0100
0010
0100
,
0020
0000
0000
0030
,
0001
0010
0100
0000
,
0010
0100
1000
0000
,
1000
0010
0100
0001
,
0200
0000
0000
0300
,
1001
0000
0000
0000
,
1000
0100
0001
0100
,
1000
0000
0000
0000
,
0001
0100
1000
0100
,
0001
0000
0000
0000
,
1000
0000
0010
0100
0010
0000
1000
0001
,
1000
0001
0100
0100
,
0110
0000
0000
0000
,
0001
0100
0001
0010
,
0001
0000
0100
0000
0010
0000
1000
0001
,
1000
0100
1000
0010
,
2000
3200
0320
0032
,
1003
0000
0100
0000
1000
0000
0010
0100
,
0010
0000
1000
0000
0100
0000
0010
0001
,
0010
0001
1000
0100
,
1000
0001
1001
1001
,
1000
0010
1000
0100
,
1000
0000
0010
0000
0100
0000
0001
1000
,
0001
0010
0001
0100
,
0002
0023
0230
2300
,
3001
0000
0010
0000
0001
0000
0100
0010
,
0100
0000
0001
0000
0010
0000
0100
1000
,
0100
1000
0001
0010
,
1001
0000
0000
0000
,
1000
0010
0100
0010
,
1000
0100
0000
0010
0001
0000
0000
0000
,
0001
0010
0100
0010
,
0001
0000
0100
0010
1000
0000
0000
0000
,
0001
0000
0001
0000
0100
0010
0100
0000
,
1000
0000
1000
0000
0100
0010
0100
0000
,
0000
0000
0000
0000
,
0000
0000
0000
0000
,
0001
0000
0010
0000
,
0100
1000
0100
0000
,
1000
0000
0010
0000
,
0100
0001
0100
0000
,
0001
0000
0010
0000
,
1000
0000
0010
0000
,
0001
1000
0001
0000
,
0100
0010
0100
0000
,
1010
0000
0000
0000
,
1100
0000
0000
0000
,
0011
0000
0000
0000
,
0101
0000
0000
0000
,
0001
0100
0001
0000
,
1000
0100
1000
0000
,
0010
0000
0010
0000
,
1001
0000
1001
0000
,
1000
0100
0010
0000
,
0011
0000
1000
0000
,
0001
0100
0010
0000
,
1010
0000
0001
0000
,
1000
0010
0100
0000
,
0011
0000
0001
0000
,
1000
0100
0010
0000
,
1100
0000
1001
0000
,
0001
0100
0001
0010
,
0001
0000
1000
0100
,
1000
0010
1000
0000
,
0001
1000
0001
0000
,
1000
0100
0010
0001
,
1000
0000
0001
0100
,
0010
1000
0010
0000
,
0110
0000
0000
0000
,
1001
0000
0000
0000
,
0000
0000
0000
0000
;
#NOTES:
     dance-single:
     :
     Medium:
     13:
     :
0000
0000
0000
0000
,
0000
0000
0000
0000
,
0000
0000
0000
0000
,
0000
0000
0000
0000
,
0000
0000
0000
0000
,
0000
0000
0000
0000
,
0000
0000
0000
0000
,
0000
0000
0000
0000
,
0000
0000
0000
0000
,
0001
0000
0100
0000
0010
1000
0100
0000
,
0010
0001
1000
0001
0100
0000
1001
0000
,
1000
0000
0100
0000
0010
0001
0100
0000
,
0010
1000
0001
1000
0100
0000
1001
0000
,
0001
0000
1000
0100
0001
0000
0100
1000
,
0001
0000
0100
1000
0100
0000
0001
1000
,
0010
1000
0010
0000
0100
0001
0100
0000
,
0010
0010
0000
0010
0010
0000
1001
0000
,
1000
0010
1000
0010
,
0100
0000
0001
0000
0100
0000
0001
0010
,
0001
1000
0001
1000
,
0020
2030
3200
0320
,
0031
0100
0001
0100
,
0010
0000
1000
0000
0010
0000
1000
0100
,
1000
0100
0010
0100
,
0010
0000
0010
0000
0001
1000
0001
1000
,
0001
0010
0001
0010
,
0100
0000
1000
0000
0100
0000
1000
0010
,
1000
0001
1000
0001
,
0020
0032
0203
0320
,
1030
0100
1000
0100
,
0010
0000
0001
0000
0010
0000
0001
0100
,
0001
0100
0010
0100
,
0010
0000
0010
0000
1000
0001
1000
0000
,
2002
0000
0000
3003
,
1000
0100
0000
0010
0001
0000
1000
0000
,
2002
0000
0000
3003
,
0001
0101
1100
1010
,
2002
0000
0000
3003
,
1000
0000
0010
0001
0010
0000
1000
0100
,
0220
0000
0000
0000
,
0330
0000
0000
0000
0001
0100
0010
1000
,
0100
0010
0100
0010
0100
0000
0010
0001
,
0100
0010
0100
0010
0100
0000
0010
1000
,
0001
1000
0001
1000
0100
0010
0100
0010
,
0001
1000
0100
0010
0001
0010
0100
0000
,
1000
0010
1000
0010
1000
0000
0001
0100
,
0001
0010
0001
0010
0001
0000
0100
0010
,
1000
0001
0010
0100
1000
0010
0100
0001
,
1000
0000
1001
0000
1000
0100
0001
0100
,
0010
0100
0010
0100
0010
0000
0100
1000
,
0010
0100
0010
0100
0010
0000
0100
0001
,
1000
0001
1000
0001
0010
0100
0010
0100
,
1000
0001
0010
0100
1000
0100
0010
0000
,
0001
0100
0001
0100
0001
0000
1000
0010
,
1000
0100
1000
0100
1000
0000
0010
0100
,
0001
1000
0100
0010
0001
0100
0010
1000
,
1001
0000
0000
0000
1000
0010
1000
0010
,
0200
1000
0001
1300
,
0001
0010
0100
1000
0001
0010
0100
1000
,
0020
0001
1000
0031
,
1000
0100
0010
0001
1000
0100
0010
0001
,
1000
1000
0100
0000
0001
0001
0100
0000
,
1000
1000
0010
0000
0001
0001
0010
0001
,
0000
0000
0000
0000
,
0000
0000
0000
0000
,
0001
0100
0100
1000
,
0100
0100
0001
1000
,
0001
0010
0010
1000
,
0010
0010
0001
0001
,
1000
0100
0100
0001
,
0100
0100
1000
0001
,
1000
0010
0010
0001
,
0010
0010
1000
0001
,
1000
0000
0010
0100
0001
0000
0100
0000
,
0001
0010
0100
1000
,
0001
0000
0100
0010
1000
0000
0100
0000
,
1000
0010
0100
0001
,
0010
1000
0010
0001
,
1000
0100
0001
0100
,
1000
1000
0001
0001
,
0110
0000
1001
0000
,
0001
0000
0100
0001
0100
0000
0010
0000
,
1000
0000
0000
0000
1000
0000
0100
1000
,
0100
0010
0001
0000
,
0001
0010
1000
0010
,
0001
0000
0010
0001
0010
0000
0100
0000
,
1000
0000
0000
0000
1000
0000
0010
1000
,
0010
0100
0001
0000
,
0001
0100
1000
0100
,
0001
0000
1000
0100
0010
0000
0001
0000
,
0100
0000
0010
0000
1000
0000
0010
0100
,
0001
0010
0100
1000
,
0001
0100
0001
0000
1000
0000
0100
0000
,
0010
0001
0010
0000
0001
0000
0001
0000
,
0100
0000
0100
0000
0010
0100
0010
0000
,
1000
0000
1000
0000
0001
1000
0001
1000
,
0001
0000
0000
0000
,
1001
0000
0000
0000
,
0000
0000
0000
0000
;
#NOTES:
     dance-single:
     :
     Hard:
     16:
     :
0000
0000
0000
0000
,
0000
0000
0000
0000
,
0000
0000
0000
0000
,
0000
0000
0000
0000
,
0000
0000
0000
0000
,
0000
0000
0000
0000
,
0000
0000
0000
0000
,
0000
0000
0000
0000
,
0000
0000
0000
0000
,
0001
0100
0001
0100
0001
1000
0001
1000
,
0100
1000
0100
1000
0001
0010
0100
0000
,
1000
0100
1000
0100
1000
0001
1000
0001
,
0100
0001
0100
0001
1000
0010
0100
0000
,
0001
1000
0100
0010
0001
1000
0010
0100
,
0001
0100
0010
1000
0100
0010
0001
0000
,
1000
0001
0100
0010
1000
0001
0010
0100
,
1000
0100
0000
0010
0001
0000
1001
0000
,
0001
0001
0001
0001
,
1000
0000
1000
0000
1000
0000
1000
0100
,
0010
0010
0010
0010
,
0001
0100
0010
1000
0001
0000
1000
0010
0100
0001
1000
0000
0001
0000
0000
0000
,
1000
0000
1000
0000
1000
0000
1000
0001
,
0100
0000
0100
0000
0100
0000
0100
0001
,
0010
0010
0010
0010
,
0010
0000
0010
0000
0010
0001
0010
0001
,
1000
0010
1000
0010
1000
0010
1000
0010
,
0100
0001
0100
0001
0100
0001
0010
0100
,
1000
0001
1000
0001
1000
0001
1000
0001
,
1000
0010
0100
0001
1000
0000
0001
0100
0010
1000
0001
0000
0100
0000
0000
0000
,
0001
0100
0001
0100
0001
0100
0001
0100
,
0010
1000
0010
1000
0010
1000
0100
0010
,
0001
1000
0001
1000
0001
1000
0001
1000
,
1001
0000
0000
0000
1001
0000
0000
0000
0110
0000
0000
0010
0100
0000
0000
0000
,
2002
0000
0000
3003
,
0011
0001
1000
0010
0100
0001
1000
0000
,
2002
0000
0000
0000
0000
0000
0000
0000
0000
0000
0000
0000
3003
0000
0000
1000
,
0100
0000
0000
0100
0010
0000
0000
0010
0001
0000
1000
0000
0001
0000
0001
0000
,
2002
0000
0000
3003
,
0002
0000
0013
0100
2000
0000
3010
0100
,
0001
0000
0010
0000
0100
0000
1000
0000
0001
1000
0001
1000
0001
0000
0000
0000
,
1001
0000
0010
0000
1000
0100
0010
0001
,
1000
0000
0001
0010
0001
0000
1000
0010
1000
0000
0001
0010
0001
0000
1000
0000
,
0010
0000
1000
0100
1000
0000
0001
0100
0001
0000
1000
0100
1000
0000
0010
0000
,
0100
0000
0001
0010
0001
0000
1000
0100
1000
0000
0001
0010
0001
0000
1000
0000
,
0001
0010
0100
1000
0001
0000
1000
0100
0010
0001
1000
0000
0010
0000
0100
0000
,
0001
0000
1000
0010
1000
0000
0001
0100
0001
0000
1000
0010
1000
0000
0100
0000
,
0010
0000
0001
0100
0001
0000
1000
0010
1000
0000
0001
0010
0001
0000
1000
0000
,
0100
0000
0010
0001
0010
0000
0001
1000
0001
0000
1000
0100
1000
0000
0010
1000
,
0010
0000
0100
0010
0100
0000
0001
1000
0001
0000
0010
0000
0100
0000
1000
0000
,
0010
0000
1000
0001
0100
0000
0001
1000
0100
0000
1000
0001
0100
0000
0010
0000
,
1000
0000
0001
1000
0010
0000
1000
0001
0010
0000
0001
1000
0010
0000
0100
0000
,
0001
0000
1000
0001
0100
0000
0001
1000
0100
0000
1000
0001
0100
0000
0001
0000
,
1000
0010
0100
0001
1000
0000
0001
1000
0010
0100
0001
0000
1000
0000
0100
0000
,
0010
0000
0001
0100
0001
0000
0010
0001
0010
0000
0001
0100
0001
0000
0010
0000
,
0100
0000
1000
0010
1000
0000
0100
1000
0100
0000
1000
0010
1000
0000
0100
0000
,
0010
0000
0001
0100
0010
0000
0100
0010
1000
0000
0100
0010
0001
0000
1000
0000
,
1001
0000
0000
0000
1000
1000
1000
1000
,
0001
0000
0100
0000
0010
1000
0010
1000
0010
0000
0100
0001
0100
0001
0100
0000
,
0001
0000
0010
0000
0100
1000
0100
1000
0100
0000
0010
0001
0010
0001
0010
0000
,
0001
0000
0000
0000
0000
0000
1000
0000
0000
0000
0000
0000
0010
0000
0000
0100
0000
0000
0010
0000
0000
0100
0000
0000
0010
0000
0000
0000
0000
0000
0000
0000
1000
0000
0000
0000
0001
0000
0000
0000
0000
0000
0000
0000
1000
0000
0000
0000
,
0001
0000
0100
0010
0100
0000
0001
0000
0010
0100
0010
0000
0001
0000
1000
0000
,
0100
0000
0010
0000
0001
0000
0010
0000
0100
1000
0100
1000
0001
1000
0001
0000
,
0100
0000
0010
0000
1000
0000
0010
0000
0100
0001
0100
0001
1000
0001
1000
0000
,
0000
0000
0000
0000
,
0002
0023
0230
1300
,
0001
0010
0001
0000
0010
0001
0010
0000
,
0001
0100
0010
1000
0010
0000
0000
0000
,
1000
0100
1000
0000
0100
1000
0100
0000
,
1000
0010
0100
0001
0100
0000
0000
0000
,
0010
1000
0010
0000
1000
0010
1000
0000
,
0100
0010
0001
0010
0001
0000
0000
0000
,
0100
0001
0100
0000
0001
0100
0001
0000
,
0010
0100
1000
0100
1000
0000
0000
0000
,
0001
0000
0100
0010
1000
0000
0001
0000
,
1000
0010
0100
0000
0001
1000
0001
0000
,
1000
0000
0100
0010
0001
0000
1000
0000
,
0001
0010
0100
0000
1000
0001
1000
0000
,
0010
0000
0100
0001
0010
0000
0100
0000
,
0010
0001
0100
0000
0010
1000
0001
0000
,
0100
0000
0010
1000
0100
0000
0010
0000
,
0011
0000
1001
0000
,
0001
0100
0001
0100
0001
0100
0001
0100
,
0001
0000
0000
0000
1000
0100
1000
0100
,
1000
0100
1000
0100
1000
0000
0000
0000
,
0001
0010
0100
0000
1000
0010
0100
0000
,
0001
0010
0001
0010
0001
0010
0001
0010
,
0001
0000
0000
0000
1000
0010
1000
0010
,
1000
0010
1000
0010
1000
0000
0000
0000
,
0001
0001
1000
1000
,
0001
1000
0001
1000
0010
1000
0010
1000
,
0001
0000
0000
0000
1000
0001
1000
0001
,
0100
0001
0100
0001
1000
0000
0000
0000
,
0001
0100
0010
0000
1000
0100
0010
0000
,
0001
0100
0001
0100
0001
1000
0100
1000
,
0100
0000
0000
0000
1000
0010
1000
0010
,
1000
0000
1000
0000
0001
0000
0001
1000
,
0001
0000
0000
0000
,
1001
0000
0000
0000
,
0000
0000
0000
0000
;
#NOTES:
     dance-single:
     :
     Challenge:
     18:
     :
0000
0000
0000
0000
,
0000
0000
0000
0000
,
0000
0000
0000
0000
,
0000
0000
0000
0000
,
0000
0000
0000
0000
,
0000
0000
0000
0000
,
0000
0000
0000
0000
,
0000
0000
0000
0000
,
0000
0000
0000
0000
,
2000
3000
0000
0000
,
0000
0000
0200
0300
,
0020
0030
0000
0000
,
0000
0000
0002
0003
,
2000
3000
0000
0000
,
0000
0000
2000
3000
,
0020
0030
0000
0000
,
0010
0010
0000
0010
0010
0000
0110
0000
,
2000
0100
0100
0100
,
3200
0000
0010
0000
0010
0000
0310
0001
,
0200
0010
0010
0310
,
0001
0100
0001
0100
0010
1000
0100
1000
0100
1000
0001
0010
0001
0000
1000
0000
,
0002
0000
0100
0000
0103
0000
0010
0100
,
0002
0000
1000
0000
1000
0000
1003
0100
,
0020
0100
0100
0100
,
0100
0000
0130
0000
1000
0100
0010
0001
,
1000
1010
0010
1010
,
0001
0000
0101
0000
0100
0000
0101
0001
,
0010
0011
0001
0011
,
1000
0100
1000
0100
0010
0001
0100
0010
0100
0010
1000
0001
0100
0000
0010
0000
,
1000
0000
1100
0000
0100
0000
1100
1000
,
0001
0000
0101
0000
0100
0001
0101
0001
,
0100
0010
0100
0010
0100
0010
0100
0010
0100
0010
0100
0010
0100
0010
0100
0010
,
0100
0000
0000
0000
0110
0000
0000
0000
0100
0000
0000
0100
0010
0000
0000
0000
,
2002
0000
0000
0000
0000
0000
3003
1000
,
1001
0100
0010
0110
0001
1000
1001
0010
,
2002
0000
0000
0000
0000
0000
0000
0000
0000
0000
0000
0000
3003
0000
0000
0001
,
0010
0000
0000
1000
0010
0000
0000
0001
1000
0100
0010
0000
0001
0000
1000
0000
,
2002
0000
0000
3003
,
0002
0000
0103
1000
0002
0000
0013
1000
,
0001
0000
0010
0000
0100
0000
1000
0000
0001
0100
0010
1000
0010
0000
0000
0000
,
1001
0000
0000
0000
,
0001
0010
0001
0010
0100
1000
0100
1000
0001
1000
0100
0010
0001
1000
0001
0010
,
0001
1000
0001
1000
0010
1000
0010
1000
0010
0100
0001
0100
0010
1000
0001
1000
,
0100
0010
0100
0010
0001
0010
0100
0010
0001
1000
0001
1000
0100
0010
0100
1000
,
0001
0010
0100
1000
0010
0100
0001
0010
0100
1000
0010
0100
0001
1000
0001
1000
,
0100
1000
0100
1000
0001
0100
0001
0100
0010
0100
0010
1000
0001
0100
0001
1000
,
0100
0010
0100
0010
0001
0010
0001
0010
0100
1000
0001
0010
0001
1000
0100
1000
,
0001
0100
0001
0100
0010
1000
0010
0100
0001
1000
0001
1000
0100
0010
0100
1000
,
0001
0000
0000
0000
0001
0000
0000
0000
1000
0000
0000
1000
0001
0000
0001
0000
,
1000
0010
1000
0010
0100
0001
0100
0001
1000
0001
0100
0010
1000
0001
1000
0010
,
1000
0001
1000
0001
0010
0001
0010
0001
0010
0100
1000
0100
0010
0001
1000
0001
,
0100
0010
0100
0010
1000
0010
0100
0010
1000
0001
1000
0001
0100
0010
0100
0001
,
1000
0010
0100
0001
0010
0100
1000
0010
0100
0001
0010
0100
1000
0001
1000
0001
,
0100
0001
0100
0001
1000
0100
1000
0100
0010
0100
0010
0001
1000
0100
1000
0001
,
0100
0010
0100
0010
1000
0010
1000
0010
0100
0001
1000
0010
1000
0001
0100
0001
,
1000
0100
1000
0100
0010
0001
0010
0100
1000
0001
1000
0001
0100
0010
0100
0001
,
1000
0000
0000
0000
,
0002
0000
0000
0000
,
0023
0000
0000
0000
,
0230
0000
0000
0000
,
2300
0000
0000
0000
,
3001
0000
0000
0000
0001
0000
0000
0000
0100
0000
0010
0100
0010
0000
0010
0000
,
1000
0000
0000
0000
1000
0000
0000
0000
0100
0000
0010
0100
0010
0000
0010
0000
,
0000
0000
0000
0000
,
0000
0000
0000
0000
,
0001
0010
0001
1000
0010
1000
0100
0010
,
0001
1000
0001
0100
0010
1000
0001
0100
,
0010
0100
0001
0010
0100
1000
0001
0100
,
0010
1000
0100
1000
0010
0100
0001
1000
,
0100
0010
0001
0100
0001
0010
0100
1000
,
0010
0100
0010
1000
0001
0010
0100
0010
,
0100
1000
0001
0100
0010
1000
0100
0010
,
0001
1000
0001
0010
0100
1000
0001
0100
,
0001
0000
0000
1000
0100
1000
0100
0000
0000
0010
0000
0000
,
0001
1000
0001
1000
0000
0000
0010
0000
0000
0100
0001
0100
,
0001
0000
0000
1000
0010
1000
0010
0000
0000
0100
0000
0000
,
0001
1000
0001
1000
0000
0000
0001
0000
0000
0001
0000
0000
,
1000
0010
1000
0010
0000
0000
1000
0000
0000
0001
0010
0001
,
0010
0000
0000
0100
0000
0000
1000
0001
1000
0001
0000
0000
,
0100
0000
0000
0010
0100
0010
0100
0000
0000
0010
0000
0000
,
0110
0000
1001
0000
,
0001
0100
0001
0100
0001
0100
0001
0100
0001
0100
0001
0100
,
0001
0000
0000
0000
0000
0000
1000
0100
1000
0100
1000
0100
,
1000
0100
1000
0100
1000
0100
1000
0000
0000
0000
0000
0000
,
0001
1000
0001
1000
0000
0000
0100
0010
0100
0010
0000
0000
,
0001
0010
0001
0010
0001
0010
0001
0010
0001
0010
0001
0010
,
0001
0000
0000
0000
0000
0000
1000
0010
1000
0010
1000
0010
,
1000
0010
1000
0010
1000
0010
1000
0000
0000
0000
0000
0000
,
0010
0010
0100
0100
,
0001
1000
0001
1000
0001
1000
0001
1000
0001
1000
0001
1000
,
0001
0000
0000
0000
0000
0000
1000
0001
1000
0001
1000
0001
,
1000
0001
1000
0001
1000
0001
1000
0000
0000
0000
0000
0000
,
0001
0000
0100
0000
0001
0000
0100
0000
0000
0000
0000
0000
0010
0000
0000
1000
0000
0000
0010
0000
0000
0000
0000
0000
,
1000
0100
1000
0100
1000
0100
0010
0001
0010
0001
0010
0001
,
0010
0000
0000
0000
0000
0000
0001
0100
0001
1000
0010
1000
,
0010
0010
0010
0010
,
0110
0000
0000
0000
,
1001
0000
0000
0000
,
0000
0000
0000
0000
;
#NOTES:
     dance-double:
     :
     Easy:
     9:
     :
00000000
00000000
00000000
00000000
,
00000000
00000000
00000000
00000000
,
00000000
00000000
00000000
00000000
,
00000000
00000000
00000000
00000000
,
00000000
00000000
00000000
00000000
,
00000000
00000000
00000000
00000000
,
00000000
00000000
00000000
00000000
,
00000000
00000000
00000000
00000000
,
00000000
00000000
00000000
00000000
,
00000001
00000000
00000100
00000000
,
00000001
00000010
00000100
00000000
,
00001000
00000000
00000100
00000000
,
00010000
00001000
00010000
00000000
,
00001000
00000000
01000000
00000000
,
00010000
01000000
00100000
00000000
,
10000000
00010000
10000000
00010000
,
20020000
00000000
00000000
30030000
,
10000000
10000000
10000000
00000000
,
01000000
01000000
01000000
00000000
,
00100000
00100000
00001000
00001000
,
00020000
00000000
00000000
00030000
,
00010000
00010000
00010000
00000000
,
00000010
00000010
00000010
00000000
,
00001000
00001000
00000100
00000100
,
00000110
00000000
00001001
00000000
,
00000001
00000001
00000001
00000000
,
00000010
00000010
00000010
00000000
,
00000100
00000100
00010000
00010000
,
00002000
00000000
00000000
00003000
,
00001000
00001000
00001000
00000000
,
01000000
01000000
01000000
00000000
,
00010000
00010000
00100000
00100000
,
01000000
10000000
00010000
00000000
,
10010000
00000000
00000000
00000000
,
10000000
01000000
00010000
00001000
,
00011000
00000000
00000000
00000000
,
00010000
00001000
00000010
00000001
,
00001001
00000000
00000000
00000000
,
00000001
00000100
00000010
00001000
,
00010000
01000000
00100000
00100000
,
01100000
00000000
00000000
00000000
,
10000000
01000000
00010000
01000000
,
10000000
00000000
01000000
00000000
00100000
00000000
00001000
00010000
,
00001000
00010000
00000100
00001000
,
00000020
00000100
00000100
00000130
,
00000001
00000100
00001000
00000100
,
00000001
00000000
00000100
00000000
00000010
00000000
00010000
00001000
,
00010000
00001000
01000000
00010000
,
00200000
01000000
01000000
01300000
,
10000000
01000000
00100000
00010000
,
01000000
00100000
10000000
01000000
,
00010000
00000000
00001000
00000000
00000010
00000000
00000001
00001000
,
00000002
00000203
00002300
00003200
,
00000301
00000010
00000100
00001000
,
00000010
00000100
00000001
00000010
,
00001000
00000000
00010000
00000000
01000000
00000000
10000000
00010000
,
20000000
00000000
30000000
00000000
,
10000000
00100000
01000000
00010000
,
00100000
01000000
00000000
00100000
00001000
00000000
00000000
00000000
,
00010000
00000100
00001000
00000100
,
00001000
00000000
00000010
00000100
00000001
00000000
00000000
00000000
,
00000001
00000000
00000001
00000000
00000100
00000010
00000100
00000000
,
00001000
00000000
00001000
00000000
00010000
00001000
00010000
00000000
,
00000000
00000000
00000000
00000000
,
00000000
00000000
00000000
00000000
,
00001000
00000000
00010000
00000000
,
00100000
01000000
00100000
00000000
,
10000000
00000000
01000000
00000000
,
00100000
01000000
00100000
00000000
,
00001000
00000000
00010000
00000000
,
00000100
00000010
00000100
00000000
,
00000010
00000000
00000001
00000000
,
00001000
00000000
00001001
00000000
,
00000001
00000100
00000000
00000010
,
00001000
00000000
00000000
00000000
,
00010000
01000000
00000000
00100000
,
10000000
00000000
00000000
00000000
,
00010000
01000000
00010000
00000000
,
10000000
01000000
10000000
00000000
,
01000000
00000000
00100000
00000000
,
00001000
00000000
00011000
00000000
,
00010000
00000000
00000010
00000000
,
00000110
00000000
00000001
00000000
,
00001000
00000000
00001001
00000000
,
00000001
00000100
00001000
00000000
,
00010000
00000000
00100000
00000000
,
01100000
00000000
10000000
00000000
,
00010000
00000000
10010000
00000000
,
10000000
01000000
00010000
00000000
,
00001000
00000000
00000010
00000001
,
00000010
00000000
00000010
00000000
,
00000001
00000000
00001000
00000100
,
00001000
00000000
00001000
00000000
,
00000100
00010000
00001000
00000000
,
01000000
00010000
00100000
00000000
,
01000000
00100000
01000000
00100000
,
01000000
00000000
00000000
00000000
,
01100000
00000000
00000000
00000000
,
00000000
00000000
00000000
00000000
;
#NOTES:
     dance-double:
     :
     Medium:
     13:
     :
00000000
00000000
00000000
00000000
,
00000000
00000000
00000000
00000000
,
00000000
00000000
00000000
00000000
,
00000000
00000000
00000000
00000000
,
00000000
00000000
00000000
00000000
,
00000000
00000000
00000000
00000000
,
00000000
00000000
00000000
00000000
,
00000000
00000000
00000000
00000000
,
00000000
00000000
00000000
00000000
,
00000001
00000000
00000100
00000000
00000001
00000010
00000001
00000000
,
00001000
00000000
00000010
00000000
00010000
00001000
00010000
00000000
,
00001000
00000000
00100000
00000000
00010000
01000000
00010000
00000000
,
00100000
00000000
01000000
00000000
10000000
00100000
10000000
00000000
,
01000000
00000000
00010000
00000000
00001000
00010000
00001000
00000000
,
00000010
00000000
00000001
00000000
00001000
00000001
00001000
00000000
,
00000001
00000000
00000100
00000000
00001000
00010000
00001000
00000000
,
00010000
00010000
00000000
00001000
00001000
00000000
00011000
00000000
,
00010000
00001000
00010000
00001000
,
01000000
00000000
00100000
00000000
01000000
00000000
00100000
10000000
,
00010000
10000000
00010000
10000000
,
02000000
03020000
00032000
00003020
,
00000031
00000000
00000100
00000000
00000001
00000000
00000100
00001000
,
00010000
00001000
00100000
00001000
,
00010000
01000000
00010000
01000000
,
10000000
00000000
00010000
00000000
00100000
00001000
00010000
00000000
,
00001000
00010000
00001000
00010000
,
00000100
00000000
00000010
00000000
00000100
00000000
00000010
00000001
,
00001000
00000001
00001000
00000001
,
00000200
00002300
00023000
00230000
,
10300000
00000000
01000000
00000000
10000000
00000000
01000000
00010000
,
00001000
00010000
00000010
00010000
,
00001000
00000100
00001000
00000100
,
00000001
00000000
00001000
00000000
00000010
00010000
00001000
00000000
,
00022000
00000000
00000000
00033000
,
00001000
00010000
00000000
00100000
10000000
00000000
01000000
00000000
,
02200000
00000000
00000000
03300000
,
01000000
00000000
00010000
00000000
00001000
00010000
00001000
00000000
,
00022000
00000000
00000000
00033000
,
00010000
00000000
00001000
00000000
00000010
00000000
00000001
00001000
,
00002002
00000000
00000000
00000000
,
00003003
00000000
00000000
00000000
00000001
00001000
00000001
00000000
,
00001000
00000010
00000100
00000010
00000100
00000000
00000010
00001000
,
00000100
00010000
00000100
00010000
00001000
00000000
01000000
00010000
,
00100000
00010000
00100000
00010000
01000000
00010000
01000000
00100000
,
20000000
00000000
32000000
00000000
03010000
01000000
10000000
00000000
,
01000000
00100000
01000000
00100000
00001000
00000000
00010000
00001000
,
00010000
00000010
00001000
00000010
00001000
00000000
00000010
00000100
,
00001000
00010000
00001000
00000000
00010000
00100000
00010000
00000000
,
00100000
01000000
00100000
01000000
00100000
00000000
01100000
00000000
,
00010000
01000000
00100000
01000000
00100000
00000000
01000000
00010000
,
00100000
00001000
00100000
00001000
00010000
00000000
00000010
00001000
,
00000100
00001000
00000100
00001000
00000010
00001000
00000010
00000100
,
00000002
00000000
00000023
00000000
00001030
00000010
00000001
00000000
,
00000010
00000100
00000010
00000100
00010000
00000000
00001000
00010000
,
00001000
01000000
00010000
01000000
00010000
00000000
01000000
00100000
,
00010000
00001000
00010000
00000000
00000100
00001000
00000010
00000000
,
00000110
00000000
00000000
00000000
00000001
00001000
00000001
00001000
,
00000200
00001000
00000001
00001300
,
00000001
00000100
00001000
00010000
00100000
10000000
00010000
00000000
,
02000000
00010000
10000000
03010000
,
10000000
01000000
00010000
00001000
00000010
00000001
00001000
00000000
,
00000001
00000100
00000001
00000100
00000010
00001000
00000010
00000000
,
00010000
00001000
00010000
00001000
01000000
00010000
01000000
00000000
,
00000000
00000000
00000000
00000000
,
00000000
00000000
00000000
00000000
,
10000000
01000000
00100000
00010000
,
10000000
00100000
01000000
00010000
,
10000000
01000000
00010000
00001000
,
00010000
00001000
00000010
00000001
,
00001000
00000100
00000010
00000001
,
00001000
00000010
00000100
00000001
,
00000010
00001000
00010000
00001000
,
00010000
01000000
10000000
00000000
,
00010000
00000000
01000000
00100000
01000000
00000000
00010000
00000000
,
10000000
01000000
00100000
00001000
,
00010000
00000000
00001000
00010000
00001000
00000000
00000010
00000000
,
00000001
00001000
00000100
00000010
,
00000001
00000100
00001000
00010000
,
00000010
00000100
00001000
00010000
,
00100000
01000000
00100000
10000000
,
00010000
00000000
10010000
00000000
,
10000000
00000000
00010000
00100000
00010000
00000000
01000000
00000000
,
00010000
00000000
00000000
00000000
00010000
00000000
00100000
00001000
,
00100000
00001000
00010000
00000000
,
00010000
00001000
00000010
00000001
,
00001000
00000000
00000010
00000100
00000010
00000000
00001000
00000000
,
00000001
00000000
00000000
00000000
00000001
00000000
00001000
00000100
,
00001000
00000010
00010000
00000000
,
00001000
00001000
00010000
00010000
,
00001000
01000000
00010000
00100000
,
00001000
01000000
00010000
00100000
,
01000000
10000000
00100000
01000000
,
00100000
00010000
00001000
00001000
,
00010000
00000100
00010000
00000000
00000010
00000000
00001000
00000000
,
00000100
00000010
00000100
00000000
00000010
00000000
00000001
00000000
,
00000100
00000000
00001000
00000000
00010000
00001000
00010000
00001000
,
00010000
00000000
00000000
00000000
,
00011000
00000000
00000000
00000000
,
00000000
00000000
00000000
00000000
;
#NOTES:
     dance-double:
     :
     Hard:
     16:
     :
00000000
00000000
00000000
00000000
,
00000000
00000000
00000000
00000000
,
00000000
00000000
00000000
00000000
,
00000000
00000000
00000000
00000000
,
00000000
00000000
00000000
00000000
,
00000000
00000000
00000000
00000000
,
00000000
00000000
00000000
00000000
,
00000000
00000000
00000000
00000000
,
00000000
00000000
00000000
00000000
,
00000001
00000100
00000001
00000100
00000001
00000010
00000100
00001000
,
00000010
00000100
00000010
00000100
00000010
00010000
00001000
00000000
,
00010000
00001000
00010000
00001000
01000000
00010000
00100000
00010000
,
01000000
00100000
01000000
00100000
10000000
00100000
10000000
00000000
,
00010000
10000000
01000000
00100000
00010000
01000000
00100000
01000000
,
00010000
00100000
00001000
00010000
00000010
00001000
00000100
00000010
,
00000001
00000100
00000001
00000000
00001000
00000100
00001000
00000000
,
00000010
00000100
00000000
00000100
00000010
00000000
00001001
00000000
,
00000001
00000001
00000001
00000001
,
00000100
00000000
00000100
00000000
00000100
00000000
00000100
00001000
,
00010000
00010000
00010000
00010000
,
00100000
10000000
00100000
10000000
00100000
00000000
01000000
00010000
01000000
00010000
01000000
00000000
00100000
00000000
00000000
00000000
,
10000000
00000000
10000000
00000000
10000000
00000000
10000000
01000000
,
00010000
00000000
00010000
00000000
00010000
00000000
00010000
00001000
,
00000010
00000010
00000010
00000010
,
00000010
00000000
00000010
00000000
00000010
00000001
00000010
00000001
,
00000100
00000010
00000100
00000010
00001000
00000010
00001000
00000010
,
00010000
00001000
00010000
00001000
00010000
00001000
00010000
01000000
,
00100000
00010000
00100000
00010000
10000000
01000000
10000000
01000000
,
00100000
00010000
00100000
00010000
00100000
00000000
01000000
10000000
01000000
10000000
01000000
00000000
00100000
00000000
00001000
00000000
,
00010000
00001000
00010000
00001000
00010000
00001000
00000010
00000100
,
00001000
00000010
00001000
00000010
00001000
00000100
00000010
00000001
,
00000100
00000010
00000100
00000010
00000100
00000010
00000100
00000010
,
00000100
00000000
00000000
00000000
00000110
00000000
00000000
00000000
00011000
00000000
00000000
00010000
00001000
00000000
00000000
00000000
,
00022000
00000000
00000000
00033000
,
00001000
00010000
01000000
10000000
00010000
00100000
01000000
10000000
,
20020000
00000000
00000000
00000000
00000000
00000000
00000000
00000000
00000000
00000000
00000000
00000000
30030000
00000000
00000000
10000000
,
01000000
00000000
00000000
01000000
00010000
00000000
00000000
00010000
00001000
00000000
00000010
00000000
00000001
00000000
00000001
00000000
,
00002002
00000000
00000000
00003003
,
00000002
00000000
00000103
00001000
00020000
00000000
00031000
00010000
,
01000000
00000000
10000000
00000000
00100000
00000000
01000000
00000000
00010000
10000000
00010000
10000000
00010000
00000000
00000000
00000000
,
10010000
00000000
00000000
00000000
10000000
01000000
00100000
00010000
,
10000000
00000000
00010000
00100000
00010000
00000000
10000000
00100000
10000000
00000000
00010000
00100000
00010000
00000000
01000000
00000000
,
00100000
00000000
00010000
00001000
00010000
00000000
00000010
00001000
00000010
00000000
00010000
00001000
00010000
00000000
00000100
00000000
,
00000010
00000000
00000001
00000100
00000001
00000000
00001000
00000100
00001000
00000000
00000001
00000100
00000001
00000000
00000010
00000000
,
00000100
00001000
00000100
00001000
00000001
00000000
00000100
00000001
00000100
00000001
00001000
00000000
00000010
00000000
00000100
00000000
,
00000001
00000000
00001000
00000100
00001000
00000000
00000001
00000100
00000001
00000000
00001000
00000100
00001000
00000000
00000010
00000000
,
00000100
00000000
00001000
00010000
00001000
00000000
01000000
00010000
01000000
00000000
00001000
00010000
00001000
00000000
00100000
00000000
,
01000000
00000000
10000000
00100000
10000000
00000000
00010000
00100000
00010000
00000000
10000000
00100000
10000000
00000000
01000000
00100000
,
00010000
00000000
01000000
00001000
01000000
00000000
00010000
00100000
00010000
00000000
00100000
00000000
00001000
00000000
00000000
00000000
,
00010000
00000000
00000010
00001000
00000010
00000000
00001000
00000100
00001000
00000000
00000100
00000010
00000100
00000000
00000010
00000000
,
00000001
00000000
00000100
00000010
00000100
00000000
00001000
00000100
00001000
00000000
00010000
00001000
00010000
00000000
00100000
00000000
,
10000000
00000000
00010000
01000000
00010000
00000000
00100000
01000000
00100000
00000000
00010000
10000000
00010000
00000000
10000000
00000000
,
00100000
01000000
00100000
01000000
00010000
00000000
00100000
00001000
00100000
00001000
00010000
00000000
00000100
00000000
00001000
00000000
,
00000010
00000000
00000100
00000001
00000100
00000000
00000001
00000010
00000001
00000000
00000010
00001000
00000010
00000000
00001000
00000000
,
00010000
00000000
01000000
00010000
01000000
00000000
10000000
01000000
10000000
00000000
00100000
01000000
00100000
00000000
10000000
00000000
,
01000000
00000000
00100000
00001000
00100000
00000000
00001000
00010000
00001000
00000000
00010000
00000100
00010000
00000000
00001000
00000000
,
00011000
00000000
00000000
00000000
,
00010000
00000000
00001000
00000000
00000100
00000010
00000100
00000010
00000100
00000000
00000001
00001000
00000001
00001000
00000001
00000000
,
00000010
00001000
00010000
01000000
00100000
00001000
00010000
00100000
,
10000000
00000000
00000000
00000000
00000000
00000000
00010000
00000000
00000000
00000000
00000000
00000000
01000000
00000000
00000000
00100000
00000000
00000000
01000000
00000000
00000000
00100000
00000000
00000000
01000000
00000000
00000000
00000000
00000000
00000000
00000000
00000000
00010000
00000000
00000000
00000000
00100000
00000000
00000000
00000000
00000000
00000000
00000000
00000000
00010000
00000000
00000000
00000000
,
10000000
00000000
01000000
00100000
00010000
00000000
01000000
00000000
00010000
00100000
00001000
00000000
00010000
00000000
00010000
00000000
,
00001000
00000000
00000010
00000000
00000001
00000000
00001000
00000000
00000100
00000010
00000100
00000010
00000001
00000010
00000001
00000000
,
00000100
00000000
00001000
00000000
00010000
00000000
00100000
00000000
01000000
00100000
01000000
00100000
10000000
00100000
10000000
00000000
,
00000000
00000000
00000000
00000000
,
00000000
00000000
00000000
00000000
,
10000000
01000000
00100000
00010000
00100000
00000000
01000000
00010000
,
00001000
00010000
00001000
00000000
00000000
00000000
00011000
00000000
,
00010000
00000100
00001000
00000100
00010000
00000000
00000010
00001000
,
00000100
00001000
00000010
00000000
00000000
00000000
00000110
00000000
,
00000001
00001000
00000100
00000010
00000001
00000000
00000100
00000010
,
00001000
00000010
00010000
00000000
00000000
00000000
00011000
00000000
,
00001000
00100000
00010000
00100000
00001000
00000000
01000000
00010000
,
00100000
01000000
10000000
00000000
00000000
00000000
10010000
00000000
,
10000000
00000000
00010000
01000000
00010000
00000000
00100000
00000000
,
01000000
00100000
01000000
00000000
00010000
00001000
00010000
00001000
,
00010000
00000000
00000100
00001000
00000100
00000000
00000010
00000000
,
00000001
00001000
00000001
00000100
00000001
00000000
00001000
00000000
,
00000001
00000100
00000010
00000000
00010000
00000000
00001000
01000000
,
00010000
00000000
00100000
00000000
01000000
10000000
00010000
00000000
,
10000000
00000000
01000000
00100000
01000000
00000000
00100000
00000000
,
01100000
00000000
10010000
00000000
,
10000000
01000000
10000000
01000000
00100000
00010000
00100000
00010000
,
00100000
00000000
00000000
00000000
00001000
00010000
00001000
00010000
,
00000100
00010000
00000100
00010000
00000100
00000000
00000000
00000000
,
00001000
00000100
00000010
00000000
00000001
00001000
00000001
00000000
,
00000100
00000001
00000100
00000001
00001000
00000010
00001000
00000010
,
00001000
00000000
00000000
00000000
00000010
00010000
00000010
00010000
,
00001000
00010000
00001000
00010000
00001000
00000000
00000000
00000000
,
00010000
00010000
00001000
00001000
,
01000000
00010000
01000000
00010000
00100000
00010000
00100000
00010000
,
10000000
00000000
00000000
00000000
01000000
00100000
01000000
00100000
,
00010000
00100000
00010000
00100000
00001000
00000000
00000000
00000000
,
00010000
00000010
00001000
00000000
00000100
00001000
00000010
00000000
,
00001000
00000100
00001000
00000100
00000010
00000001
00001000
00000001
,
00001000
00000000
00000000
00000000
00000001
00000100
00000001
00000100
,
00000010
00000000
00000100
00000000
00001000
00000000
00010000
00001000
,
00010000
00000000
00000000
00000000
,
00011000
00000000
00000000
00000000
,
00000000
00000000
00000000
00000000
;
#NOTES:
     dance-double:
     :
     Challenge:
     18:
     :
00000000
00000000
00000000
00000000
,
00000000
00000000
00000000
00000000
,
00000000
00000000
00000000
00000000
,
00000000
00000000
00000000
00000000
,
00000000
00000000
00000000
00000000
,
00000000
00000000
00000000
00000000
,
00000000
00000000
00000000
00000000
,
00000000
00000000
00000000
00000000
,
00000000
00000000
00000000
00000000
,
00000002
00000003
00000000
00000000
,
00000000
00000000
00000200
00000300
,
00002000
00003000
00000000
00000000
,
00000000
00000000
02000000
03000000
,
00200000
00300000
00000000
00000000
,
00000000
00000000
20000000
30000000
,
00020000
00030000
00000000
00000000
,
10000000
10000000
00000000
00010000
00010000
00000000
10010000
00000000
,
20000000
01000000
01000000
01000000
,
32000000
00000000
00100000
00000000
00100000
00000000
03100000
00001000
,
00020000
00001000
00001000
00031000
,
00010000
00000100
00010000
00000100
00001000
00000010
00000100
00000010
00000100
00000010
00001000
00000000
00000001
00000000
00000010
00000000
,
00000002
00000000
00000100
00000000
00000100
00000000
00000103
00001000
,
00020000
00000000
00001000
00000000
00001000
00000000
00031000
00010000
,
02000000
00100000
00100000
00100000
,
00100000
00000000
03100000
00000000
00100000
00010000
01000000
00100000
,
10000000
10100000
00100000
01100000
,
01000000
00000000
01010000
00000000
00010000
00000000
00101000
00001000
,
00010000
00011000
00001000
00011000
,
00010000
00000010
00010000
00000010
00001000
00000100
00000010
00000100
00000010
00000100
00001000
00000000
00000001
00000000
00000100
00000000
,
00000010
00000000
00001010
00000000
00001000
00000000
00001100
00000100
,
00010000
00000000
00011000
00000000
00001000
00010000
00100000
10000000
,
00010000
01000000
00010000
01000000
00010000
01000000
00010000
01000000
00100000
01000000
00100000
01000000
00100000
01000000
00100000
00000000
,
01100000
00000000
00000000
00000000
10010000
00000000
00000000
00000000
10000000
00000000
00000000
01000000
00010000
00000000
00001000
00000000
,
00000220
00000000
00000000
00000000
00000000
00000000
00000330
00000011
,
00001001
00001000
00000100
00010000
01000000
10000000
00100000
00100000
,
20020000
00000000
00000000
00000000
00000000
00000000
00000000
00000000
00000000
00000000
00000000
00000000
30030000
00000000
00000000
10000000
,
00100000
00000000
00000000
00010000
00001000
00000000
00000000
00000100
00000001
00000010
00000100
00000000
00001000
00000000
00000001
00000000
,
00002002
00000000
00000000
00003003
,
00000002
00000000
00001003
00010000
00002000
00000000
00013000
10000000
,
00020000
00000000
00000000
00000000
20030000
00000000
00000000
00000000
31000000
00100000
01000000
00100000
01000000
00000000
00000000
00000000
,
10010000
00000000
00000000
00000000
,
10000000
01000000
10000000
01000000
00100000
00010000
00100000
00010000
01000000
00100000
01000000
00100000
01000000
00010000
00100000
00001000
,
00010000
00001000
00010000
00001000
00010000
00000010
00010000
00000010
00001000
00000100
00001000
00000100
00000010
00000000
00000001
00000000
,
00000100
00000010
00000100
00000010
00001000
00000001
00001000
00000001
00000100
00000010
00001000
00000010
00000100
00000001
00000010
00000100
,
00001000
00000100
00001000
00000100
00010000
00000100
00010000
00001000
00010000
00001000
01000000
00001000
01000000
00000000
00100000
00000000
,
10000000
00100000
10000000
00100000
01000000
00010000
01000000
00010000
00100000
01000000
00100000
01000000
00100000
00010000
01000000
00001000
,
00010000
00001000
00010000
00001000
00010000
00000100
00010000
00000100
00001000
00000010
00001000
00000010
00001000
00000000
00000100
00000000
,
00000010
00000100
00000010
00000100
00001000
00000100
00001000
00000100
00010000
00000100
00010000
00000100
00001000
00000100
00001000
00000100
,
00000010
00000000
00000000
00000000
00000010
00000000
00000000
00000000
00000001
00000000
00000000
00000001
00001000
00000000
00001000
00000000
,
00000001
00000010
00000001
00000010
00000100
00001000
00000100
00001000
00000010
00000100
00000010
00000100
00000010
00001000
00000100
00010000
,
00001000
00010000
00001000
00010000
00001000
01000000
00001000
01000000
00010000
00100000
00010000
00100000
01000000
00000000
10000000
00000000
,
00100000
01000000
00100000
01000000
00010000
10000000
00010000
10000000
00100000
01000000
00010000
01000000
00100000
10000000
01000000
00100000
,
00010000
00100000
00010000
00100000
00001000
00100000
00001000
00010000
00001000
00010000
00000010
00010000
00000010
00000000
00000100
00000000
,
00000001
00000100
00000001
00000100
00000010
00001000
00000010
00001000
00000100
00000010
00000100
00000010
00000100
00001000
00000010
00010000
,
00001000
00010000
00001000
00010000
00001000
00100000
00001000
00100000
00010000
01000000
00010000
01000000
00010000
00000000
00100000
00000000
,
01000000
00100000
01000000
00100000
00010000
00100000
00010000
00100000
00001000
00100000
00001000
00100000
00010000
00100000
00010000
00100000
,
01000000
00000000
00000000
00000000
,
20000000
00000000
00000000
00000000
,
32000000
00000000
00000000
00000000
,
03020000
00000000
00000000
00000000
,
00032000
00000000
00000000
00000000
,
00003010
00000000
00000010
00000000
00000001
00000100
00000001
00000100
,
00000010
00000000
00000010
00000000
00000100
00001000
00010000
00001000
,
00000000
00000000
00000000
00000000
,
00000000
00000000
00000000
00000000
,
00001000
00010000
00001000
00010000
00001000
01000000
00001000
01000000
,
00010000
00100000
01000000
10000000
00010000
00000000
01000000
00100000
,
10000000
00100000
10000000
00100000
01000000
00010000
01000000
00010000
,
00100000
00001000
00010000
00001000
00000010
00000000
00000100
00000010
,
00000001
00000100
00000001
00000100
00000010
00001000
00000010
00001000
,
00000100
00000010
00000001
00001000
00000100
00000000
00000010
00000100
,
00001000
00000010
00001000
00000010
00010000
00001000
00010000
00001000
,
01000000
00010000
00100000
00010000
01000000
00000000
00100000
10000000
,
00100000
00000000
00000000
10000000
01000000
10000000
01000000
00000000
00000000
00100000
00000000
00000000
,
00001000
00010000
00001000
00000000
00010000
00001000
00000010
00000001
,
00001000
00000000
00000000
00000001
00000100
00000001
00000100
00000000
00000000
00000001
00000000
00000000
,
00000100
00001000
00010000
00000000
00100000
01000000
00100000
00000000
,
10000000
00000000
00010000
00000000
10000000
00000000
00010000
00000000
00000000
00000000
00000000
00000000
01000000
00000000
00000000
00000000
00000000
00000000
00100000
00000000
00000000
10000000
00000000
00000000
,
00100000
00000000
00000000
01000000
00000000
00000000
00010000
00100000
00010000
00100000
00000000
00000000
,
00001000
00000000
00010000
00001000
00010000
00000000
00001000
00000000
,
00011000
00000000
00011000
00000000
,
00010000
00001000
00000100
00000001
00000010
00000100
00001000
00000001
,
00000100
00000000
00000000
00000000
00000001
00000100
00000010
00010000
,
00001000
00100000
00001000
00010000
00100000
00000000
00000000
00000000
,
10000000
01000000
00100000
00000000
00010000
01000000
00100000
00000000
,
10000000
01000000
00100000
00001000
00010000
00100000
01000000
00001000
,
00010000
00000000
00000000
00000000
01000000
00010000
00001000
00000010
,
00000001
00001000
00000100
00000010
00000001
00000000
00000000
00000000
,
00000001
00000100
00001000
01000000
,
00010000
01000000
00010000
01000000
00010000
01000000
00010000
01000000
00010000
01000000
00010000
01000000
,
00010000
00000000
00000000
00000000
00000000
00000000
00001000
00000100
00001000
00000100
00001000
00000100
,
00001000
00000100
00001000
00000100
00001000
00000100
00001000
00000000
00000000
00000000
00000000
00000000
,
00000001
00000000
00000010
00000000
00000001
00000000
00000010
00000000
00000000
00000000
00000000
00000000
00000001
00000000
00000000
00001000
00000000
00000000
00000001
00000000
00000000
00000000
00000000
00000000
,
00000100
00000010
00000100
00000010
00000100
00000010
00001000
00000010
00001000
00000010
00001000
00000010
,
00001000
00000000
00000000
00000000
00000000
00000000
00000100
00010000
00000100
00010000
00001000
00010000
,
00001000
00001000
00010000
00010000
,
00011000
00000000
00000000
00000000
,
00011000
00000000
00000000
00000000
,
00000000
00000000
00000000
00000000
;
