
//----- song ID: eape -----//
#TITLE:Easy Peasy;
#ARTIST:BEMANI Sound Team "SYUNN";
#BANNER:Easy Peasy.png;
#BACKGROUND:Easy Peasy-bg.png;
#CDTITLE:./CDTitles/DANCE aROUND.png;
#MUSIC:Easy Peasy.ogg;
#SAMPLESTART:14.783;
#SAMPLELENGTH:15;
#BPMS:0=138;
#STAGE:5;
#NOTES:
     dance-single:
     :
     Beginner:
     1:
     :
0000
0000
0000
0000
,
0000
0000
0000
0000
,
0000
0000
0000
0000
,
0000
0000
0000
0000
,
0000
0000
0000
0000
,
0001
0000
0000
0000
,
0000
0000
0000
0000
,
0010
0000
0000
0000
,
0000
0000
0000
0000
,
0100
0000
0000
0000
,
0100
0000
0000
0000
,
1000
0000
0000
0000
,
0000
0000
0000
0000
,
1000
0000
0000
0000
,
1000
0000
0000
0000
,
0010
0000
0000
0000
,
0000
0000
0000
0000
,
0010
0000
0000
0000
,
0010
0000
0000
0000
,
0001
0000
0000
0000
,
0000
0000
0000
0000
,
0100
0000
0000
0000
,
0100
0000
0000
0000
,
0001
0000
0000
0000
,
0000
0000
0000
0000
,
1001
0000
0000
0000
,
0000
0000
0000
0000
,
0001
0000
0000
0000
,
1000
0000
0000
0000
,
1001
0000
0000
0000
,
0000
0000
0000
0000
,
1000
0000
0000
0000
,
0001
0000
0000
0000
,
0001
0000
0001
0000
,
0010
0000
0000
0000
,
0100
0000
0000
0000
,
0000
0000
0000
0000
,
1000
0000
1000
0000
,
0010
0000
0000
0000
,
0100
0000
0000
0000
,
0000
0000
0000
0000
,
0001
0000
0100
0000
,
0100
0000
0000
0000
,
0010
0000
0000
0000
,
0000
0000
0000
0000
,
1000
0000
0100
0000
,
0100
0000
0000
0000
,
0010
0000
0000
0000
,
0000
0000
0000
0000
,
1001
0000
0000
0000
,
0000
0000
0000
0000
,
0001
0000
0001
0000
,
0001
0000
0000
0000
,
1001
0000
0000
0000
,
0000
0000
0000
0000
,
1000
0000
1000
0000
,
1000
0000
0000
0000
,
0000
0000
0000
0000
;
#NOTES:
     dance-single:
     :
     Easy:
     4:
     :
0000
0000
0000
0000
,
0000
0000
0000
0000
,
0000
0000
0000
0000
,
0000
0000
0000
0000
,
0000
0000
0000
0000
,
0000
0000
0001
0000
,
0000
0000
1000
0000
,
0000
0000
0001
0000
,
0000
0000
1000
0000
,
0001
0000
0000
0000
,
0010
0000
0000
0000
,
1000
0000
0000
0000
,
0010
0000
0000
0000
,
0001
0000
0000
0000
,
0010
0000
0000
0000
,
1000
0000
0000
0000
,
0010
0000
0000
0000
,
0002
0000
0000
0003
,
0002
0000
0000
0003
,
0020
0000
0000
0030
,
0020
0000
0000
0030
,
0002
0000
0000
0003
,
0002
0000
0000
0003
,
0200
0000
0000
0300
,
0200
0000
0000
0300
,
0001
0000
0010
0000
,
1000
0000
0010
0000
,
0001
0000
0010
0000
,
1000
0000
0010
0000
,
0001
0000
0100
0000
,
1000
0000
0100
0000
,
0001
0000
0100
0000
,
1000
0000
0100
0000
,
0001
0000
1000
0000
,
0001
0000
0001
0000
,
1000
0000
0001
0000
,
1000
0000
1000
0000
,
0001
0000
1000
0000
,
0001
0000
0001
0000
,
1000
0000
0001
0000
,
1000
0000
1000
0000
,
0001
0000
0001
0000
,
0100
0000
0100
0000
,
0001
0000
0001
0000
,
0100
0000
0100
0000
,
1000
0000
1000
0000
,
0100
0000
0100
0000
,
1000
0000
1000
0000
,
0100
0000
0100
0000
,
0001
0000
0001
0000
0000
1000
0000
1000
,
0000
0000
0000
0001
0000
0000
0001
0000
,
1000
0000
1000
0000
0000
0001
0000
0001
,
0000
0000
0000
1000
0000
0000
1000
0000
,
0001
0000
0001
0000
0000
1000
0000
1000
,
0000
0000
0000
0001
0000
0000
0001
0000
,
1000
0000
1000
0000
0000
0001
0000
0001
,
0000
0000
0000
0001
0000
0000
1000
0000
,
0000
0000
0000
0000
;
#NOTES:
     dance-single:
     :
     Medium:
     10:
     :
0000
0000
0000
0000
,
0000
0000
0000
0000
,
0000
0000
0000
0000
,
0000
0000
0000
0000
,
0000
0000
0000
0000
,
1000
0000
0010
0000
1000
0000
0010
0000
0100
0000
0000
0100
0000
0000
0100
0000
,
0000
0001
1000
0001
0010
0000
1001
0000
,
0001
0010
0001
0010
0100
1000
0100
0000
,
1000
0001
0010
0100
0010
0000
1001
0000
,
0001
0000
0100
0000
0001
0000
0000
0000
1000
0000
0000
1000
0000
0000
1000
0000
,
0000
0001
0010
0001
0100
0000
0101
0000
,
1000
0000
0100
0000
1000
0000
0000
0000
0001
0000
0000
0001
0000
0000
0001
0000
,
0000
1000
0000
0000
0010
0000
1000
0000
0100
0000
0000
0000
1100
0000
0000
0000
,
0001
0000
0100
0000
1000
0000
0000
0000
0100
0000
0000
0100
0000
0000
0100
0000
,
0001
1000
0010
1000
0100
1000
0001
0000
,
1000
0000
0100
0000
0001
0000
0000
0000
0100
0000
0000
0100
0000
0000
0100
0000
,
0220
0000
0000
0330
,
0001
0000
0100
0000
0010
0000
1000
0000
0010
0000
0000
1010
0000
0000
1010
0000
,
0000
0101
0000
0100
0001
0000
0000
0000
1000
0000
0000
1000
0000
0000
1000
0000
,
0001
0000
0010
0000
0100
0000
1000
0000
1100
0000
0000
1100
0000
0000
0011
0000
,
0000
0011
0000
0001
0010
0000
0000
0000
0001
0000
2000
0000
0000
0000
3000
0000
,
1000
0000
0010
0000
0100
0000
0001
0000
0100
0000
0000
0101
0000
0000
0101
0000
,
0000
1010
0000
0010
1000
0000
0000
0000
0001
0000
0000
0001
0000
0000
0001
0000
,
1000
0000
0100
0000
0010
0000
0001
0000
0011
0000
0000
0011
0000
0000
1100
0000
,
1000
0100
0010
0001
1000
0001
1000
0000
,
0002
0000
0000
0000
0000
0003
0000
0202
,
0000
0000
0000
0303
,
2000
0000
0000
0000
0000
3000
0000
2002
,
0000
0000
3003
1001
,
1000
0000
0000
1000
0100
0000
0000
0000
0010
0000
0000
0010
0001
0000
0000
0000
,
1000
0000
0000
1000
0010
0000
0000
0000
0100
0000
0000
0100
0001
0000
0000
0000
,
1000
0100
0010
0001
0100
0010
1000
0001
,
2002
0000
3003
0000
,
1000
0000
0001
0000
0100
0000
0001
0000
1000
0000
0100
0000
0010
0000
0100
1000
,
0000
0100
1000
0000
0001
0000
0000
0000
2002
0000
0000
0000
3003
0000
0000
0000
,
0001
0000
1000
0000
0100
0000
1000
0000
0001
0000
0100
0000
0010
0000
0100
0001
,
0000
0100
0001
0000
1000
0000
0000
0000
2002
0000
0000
0000
3003
0000
0000
0000
,
1000
0100
0010
0001
0100
0010
0100
0110
,
0000
1000
0001
1000
2002
0000
3003
0000
,
0001
0010
0100
1000
0010
0100
0010
0110
,
0000
0001
1000
0001
2002
0000
3003
0000
,
0001
0100
1000
0100
0010
0100
0010
0100
,
0001
0010
0100
1000
0002
0000
1003
0000
,
1000
0100
0001
0100
0010
0100
0010
0100
,
1000
0010
0100
0001
2000
0000
3001
0000
,
1000
0000
0001
0010
0001
0000
0100
0000
0010
0000
1000
0000
0001
0000
0000
0000
,
1000
0100
0001
0100
2000
0000
3000
0000
,
0001
0000
1000
0010
1000
0000
0100
0000
0010
0000
0001
0000
1000
0000
0000
0000
,
0001
0100
1000
0100
0002
0000
0003
0000
,
1000
0000
1000
0000
0000
0001
0000
0001
,
0000
1000
0010
0001
0010
1000
0100
0010
,
0001
0000
0001
0000
0000
1000
0000
1000
,
0000
0001
0010
1000
0010
0001
0100
0010
,
1000
0000
1100
0000
0000
0001
0000
0101
,
0000
1000
0100
1000
0100
0010
0001
0010
,
0001
0000
0011
0000
0000
1000
0000
1010
,
0000
0001
0100
0001
0100
0010
1000
0010
,
0000
0000
0000
0000
;
#NOTES:
     dance-single:
     :
     Hard:
     14:
     :
0000
0000
0000
0000
,
0000
0000
0000
0000
,
0000
0000
0000
0000
,
0000
0000
0000
0000
,
0000
0000
0000
0000
,
1000
0000
0000
1000
0100
0000
0010
0000
0001
0000
0000
0001
0100
0000
0010
0000
,
1000
0000
0000
1000
0010
0000
0100
0000
0001
0000
0000
0001
0010
0000
0100
0000
,
1000
0010
1000
0010
0100
0001
0100
0001
0010
0001
0010
0100
1000
0010
0100
0010
,
1000
0001
0010
0100
1000
0000
0001
0000
2002
0000
0000
0000
3003
0000
0000
0000
,
1000
0000
0010
0000
0001
0000
0010
0000
1000
0000
0100
0010
0000
0001
1000
0000
,
0001
0100
0001
0000
0010
0001
0010
0100
1000
0000
0001
1000
0001
0000
1001
0000
,
1000
0100
1000
0100
1000
0010
0000
0010
1000
0000
0001
0100
0010
0000
1000
0000
,
0001
0010
0000
0100
0010
0001
0000
1000
0001
0000
0100
0010
0100
0000
0100
0000
,
0001
0000
0100
0000
1000
0000
0100
0000
0001
0000
0010
0100
0000
1000
0001
0000
,
1000
0010
1000
0000
0100
1000
0100
0010
0001
0000
1000
0001
1000
0000
1001
0000
,
0001
0010
0001
0010
0001
0100
0000
0100
0001
0000
1000
0010
0100
0000
0001
0000
,
1000
0100
0000
0010
0100
1000
0000
0001
1000
0000
0010
0100
0010
0000
0010
0000
,
1000
0000
0100
0000
0010
0000
0001
0000
0100
0000
0010
0100
0000
0100
0010
0000
,
1000
0001
0000
0100
0001
0000
0010
0001
0100
0000
0001
0000
1001
0000
0001
0000
,
0100
0010
1000
0000
0100
0010
0001
0000
1000
0000
0001
0010
0000
0010
0001
0000
,
1000
0010
0000
0100
0010
0000
1000
0100
0010
0000
0001
0000
1000
0000
1000
0000
,
0001
0000
0010
0000
0100
0000
1000
0000
0010
0000
0100
0010
0000
0010
0100
0000
,
0001
1000
0000
0010
1000
0000
0100
1000
0010
0000
1000
0000
1001
0000
1000
0000
,
0010
0100
0001
0000
0010
0100
1000
0000
0001
0000
1000
0100
0000
0100
1000
0000
,
0001
0000
0100
1000
0100
0000
0001
0000
0010
0000
0110
0000
1000
0000
0001
0000
,
2000
0000
0000
0000
3000
0110
0000
0220
,
0000
0000
0330
0000
,
0002
0000
0000
0000
0003
0110
0000
0220
,
0000
0000
0000
0000
0330
0000
1001
1000
,
0010
0000
0000
0010
1000
0000
1000
0000
0100
0000
0000
0100
0010
0000
0001
0000
,
0100
0000
0000
0100
0001
0000
0001
0000
0010
0000
0000
0010
0100
0000
1000
0100
,
0010
0001
0010
0001
1000
0010
1000
0010
0100
0001
1000
0001
0010
0100
1000
0001
,
1000
0010
0100
0001
1000
0000
0001
0000
2002
0000
0000
0000
3003
0000
0000
0000
,
1000
0100
0010
0001
1000
0000
0001
0010
0001
0000
0100
0010
1000
0000
0001
0100
,
0000
1000
0100
0000
0001
0010
0000
0100
1000
0000
0010
0100
0010
0000
0010
0000
,
2000
0000
3100
0000
0010
0000
0001
0000
0011
0000
1000
0010
0100
0000
0001
0010
,
0000
1000
0010
0001
0010
0000
0001
1000
0001
0000
0200
0000
0320
0000
2030
0000
,
3001
0010
0100
1000
0001
0000
1000
0100
1000
0000
0010
0100
0001
0000
1000
0010
,
0000
0001
0010
0000
1000
0100
0000
0010
0001
0000
0100
0010
0100
0000
0100
0000
,
0001
0000
0010
0000
0100
0000
1000
0000
1100
0000
0001
0100
0010
0000
1000
0100
,
0010
0001
0010
0000
0001
0100
0001
0100
0010
0000
0100
0001
2000
0000
0000
0000
,
3001
0000
0000
0000
1001
0000
0001
0100
0010
0000
1000
0000
1010
0000
1000
0000
,
0100
0000
0001
0100
1000
0000
0001
0000
0010
0001
0100
0000
0110
0000
0010
0000
,
1000
0010
1000
0010
1000
0000
0001
0100
0001
0000
1000
0100
0010
0000
0001
0000
,
1000
0010
0000
1000
0100
0000
1000
0010
0100
0000
0001
0000
0011
0000
0001
0000
,
1000
0100
0010
0100
1000
0000
0001
0010
0100
0000
1000
0001
0100
0000
0110
0000
,
0010
1000
0100
1000
0010
0000
0100
0001
0010
0000
1000
0010
0001
0000
1001
0000
,
0001
0100
0000
0001
0010
0000
0001
0100
0010
0000
1000
0000
1100
0000
1000
0000
,
0220
0000
0000
0000
0330
0000
0000
0000
1000
0100
0010
0001
0010
0100
1000
0000
,
0001
0100
0001
0010
0100
1000
0001
1000
,
0010
0100
1000
0100
0010
1000
0100
0010
,
0001
1000
0001
0100
0010
1000
0100
1000
,
0010
0001
0010
0100
0001
0010
0100
1000
,
0001
0100
0001
0000
1000
0010
1000
0000
,
0100
0001
0000
0100
1000
0001
0010
0100
,
1000
0100
1000
0000
0001
0010
0000
0001
,
0100
1000
0100
0001
1000
0100
0010
0001
,
0000
0000
0000
0000
;
#NOTES:
     dance-double:
     :
     Easy:
     5:
     :
00000000
00000000
00000000
00000000
,
00000000
00000000
00000000
00000000
,
00000000
00000000
00000000
00000000
,
00000000
00000000
00000000
00000000
,
00000000
00000000
00000000
00000000
,
00000001
00000000
00000100
00000000
,
00000010
00001000
00000010
00000000
,
00010000
00000000
00001000
00000000
,
00010000
00001000
00100000
00000000
,
00010000
01000000
00010000
01000000
,
00010000
00100000
00010000
00000000
,
10000000
01000000
10000000
01000000
,
00100000
00010000
00100000
00000000
,
00001000
00010000
00001000
00010000
,
00000100
00000010
00000100
00000000
,
00001000
00000001
00000100
00000010
,
00000220
00000000
00000000
00000330
,
00000001
00000100
00000001
00000010
,
00000100
00001000
00000100
00010000
,
00001000
00010000
00100000
01000000
,
00010000
00100000
01000000
00000000
,
10000000
01000000
10000000
00100000
,
01000000
00010000
01000000
00001000
,
00010000
00001000
00000010
00000100
,
00001000
00000010
00000100
00000000
,
00000001
00000000
00000000
00000000
00000000
00000000
00000000
00001001
,
00000000
00000000
00000000
00000000
,
00010000
00000000
00000000
00000000
00000000
00000000
00000000
00011000
,
00000000
00000000
00000000
00000000
,
10000000
10000000
01000000
01000000
,
00100000
00100000
00010000
00010000
,
00001000
00000100
00001000
00000100
,
00000010
00000001
00000010
00000000
,
00000001
00000100
00001000
00000100
,
00000001
00000010
00000100
00001000
,
00000100
00010000
00001000
00010000
,
01000000
10000000
00010000
00000000
,
10000000
01000000
00010000
01000000
,
10000000
00100000
01000000
00010000
,
01000000
00001000
00010000
00001000
,
00000100
00000001
00001000
00000000
,
00000001
00000100
00001000
00010000
,
00100000
00010000
00001000
01000000
,
00001000
00010000
00001000
00000010
,
00001000
00010000
00000100
00010000
,
00001000
01000000
00100000
00010000
,
00001000
00000010
00000100
00010000
,
00001000
00100000
00010000
01000000
,
10000000
01000000
00010000
01000000
,
00001000
00000000
00000000
00000000
00000000
00000000
00000000
00010000
,
00000000
00000000
00000000
00000000
,
00000100
00000000
00000000
00000000
00000000
00000000
00000000
00000010
,
00000000
00000000
00000000
00000000
,
00000001
00000000
00000000
00000000
00000000
00000001
00000000
00001000
,
00000000
00000000
00000000
00000000
,
00000100
00000000
00000000
00000000
00000000
00000100
00000000
00010000
,
00000000
00000000
00000000
00001000
00000000
00000000
00011000
00000000
,
00000000
00000000
00000000
00000000
;
#NOTES:
     dance-double:
     :
     Medium:
     10:
     :
00000000
00000000
00000000
00000000
,
00000000
00000000
00000000
00000000
,
00000000
00000000
00000000
00000000
,
00000000
00000000
00000000
00000000
,
00000000
00000000
00000000
00000000
,
10000000
00000000
01000000
00000000
10000000
00000000
01000000
00000000
00100000
00000000
00000000
00100000
00000000
00000000
00100000
00000000
,
00000000
00010000
00100000
00001000
00010000
00000000
00011000
00000000
,
00001000
00010000
00000100
00001000
00000100
00000010
00000100
00000000
,
00001000
00000001
00000100
00000010
00000100
00000000
00001001
00000000
,
00000001
00000000
00000100
00000000
00000010
00000000
00000000
00000000
00010000
00000000
00000000
00010000
00000000
00000000
00010000
00000000
,
00000000
00001000
00010000
00100000
01000000
00000000
01100000
00000000
,
10000000
00000000
00100000
00000000
10000000
00000000
00000000
00000000
00010000
00000000
00000000
00010000
00000000
00000000
00100000
00000000
,
00000000
00100000
00000000
00000000
00001000
00000000
00010000
00000000
00001000
00000000
00000000
00000000
00011000
00000000
00000000
00000000
,
00010000
00000000
00000010
00000000
00001000
00000000
00000000
00000000
00000100
00000000
00000000
00000100
00000000
00000000
00000010
00000000
,
00000001
00000100
00001000
00000100
00000001
00001000
00000001
00000000
,
00001000
00000000
00000100
00000000
00010000
00000000
00000000
00000000
00001000
00000000
00000000
00001000
00000000
00000000
00001000
00000000
,
00022000
00000000
00000000
00033000
,
00001000
00000000
00010000
00000000
00001000
00000000
01000000
00000000
00010000
00000000
00000000
01010000
00000000
00000000
01010000
00000000
,
00000000
10100000
00000000
00100000
10000000
00000000
00000000
00000000
00010000
00000000
00000000
01000000
00000000
00000000
00010000
00000000
,
10000000
00000000
01000000
00000000
00100000
00000000
00001000
00000000
00011000
00000000
00000000
00011000
00000000
00000000
00000110
00000000
,
00000000
00000110
00000000
00000001
00001000
00000000
00000000
00000000
00000001
00000000
00002000
00000000
00000000
00000000
00003000
00000000
,
00000001
00000000
00000010
00000000
00000100
00000000
00010000
00000000
00001000
00000000
00000000
00011000
00000000
00000000
00011000
00000000
,
00000000
01001000
00000000
01000000
00010000
00000000
00000000
00000000
00100000
00000000
00000000
00100000
00000000
00000000
00100000
00000000
,
01000000
00000000
10000000
00000000
00100000
00000000
01000000
00000000
01010000
00000000
00000000
01010000
00000000
00000000
00110000
00000000
,
00100000
00001000
00010000
00001000
00000010
00000001
00001000
00000000
,
00000002
00000000
00000000
00000000
00000000
00000003
00000000
00000202
,
00000000
00000000
00000000
00000303
,
00020000
00000000
00000000
00000000
00000000
00030000
00000000
00022000
,
00000000
00000000
00033000
00011000
,
00001000
00000000
00000000
00001000
00100000
00000000
00000000
00000000
00010000
00000000
00000000
00010000
01000000
00000000
00000000
00000000
,
00100000
00000000
00000000
00100000
10000000
00000000
00000000
00000000
01000000
00000000
00000000
10000000
00010000
00000000
00000000
00000000
,
10000000
01000000
00100000
00010000
00001000
00000100
00000010
00000001
,
00002002
00000000
00003003
00000000
,
00001000
00000000
00000010
00000000
00000001
00000000
00000010
00000000
00001000
00000000
00000100
00000000
00010000
00000000
00001000
00010000
,
00000000
00001000
01000000
00000000
00010000
00000000
00000000
00000000
20020000
00000000
00000000
00000000
30030000
00000000
00000000
00000000
,
00010000
00000000
00100000
00000000
10000000
00000000
00100000
00000000
00010000
00000000
01000000
00000000
00001000
00000000
00010000
00001000
,
00000000
00010000
00000100
00000000
00001000
00000000
00000000
00000000
00002002
00000000
00000000
00000000
00003003
00000000
00000000
00000000
,
00001000
00000010
00000100
00000001
00000010
00000100
00010000
00011000
,
00000000
00010000
00100000
01000000
02200000
00000000
03300000
00000000
,
10000000
00100000
01000000
00010000
00100000
01000000
00010000
00011000
,
00000000
00001000
00000010
00000100
00000220
00000000
00000330
00000000
,
00000001
00000010
00001000
00010000
00001000
00000100
00000001
00000100
,
00001000
00010000
00100000
10000000
00020000
00000000
10030000
00000000
,
10000000
00100000
00010000
00001000
00010000
01000000
10000000
01000000
,
00010000
00001000
00000010
00000001
00002000
00000000
00003001
00000000
,
00000001
00000000
00000100
00000010
00000100
00000000
00000001
00000000
00000010
00000000
00000100
00000000
00010000
00000000
00001000
00000000
,
01000000
00100000
10000000
00010000
02000000
00000000
03100000
00000000
,
10000000
00000000
01000000
00100000
01000000
00000000
10000000
00000000
00100000
00000000
01000000
00000000
00001000
00000000
00010000
00000000
,
00000100
00000010
00000001
00001000
00000200
00000000
00000310
00000000
,
00000001
00000000
00000001
00000000
00000000
00001000
00000000
00001000
,
00000000
00000010
00000100
00001000
00010000
00100000
10000000
00000000
,
00010000
00000000
00010000
00000000
00000000
10000000
00000000
10000000
,
00000000
01000000
00100000
00001000
00010000
00001000
00000010
00000000
,
00000001
00000000
00000101
00000000
00000000
00001000
00000000
00001100
,
00000000
00000001
00000100
00001000
00010000
00100000
10000000
00000000
,
00010000
00000000
00110000
00000000
00000000
10000000
00000000
10100000
,
00000000
00100000
10000000
00100000
00010000
00001000
00010000
00001000
,
00000000
00000000
00000000
00000000
;
#NOTES:
     dance-double:
     :
     Hard:
     14:
     :
00000000
00000000
00000000
00000000
,
00000000
00000000
00000000
00000000
,
00000000
00000000
00000000
00000000
,
00000000
00000000
00000000
00000000
,
00000000
00000000
00000000
00000000
,
10000000
00000000
00000000
10000000
01000000
00000000
00100000
00000000
00010000
00000000
01000000
00000000
00010000
00000000
00100000
00000000
,
00001000
00000000
00000000
00001000
00010000
00000000
00000010
00000000
00001000
00000000
00000100
00000000
00000010
00000000
00000100
00000000
,
00001000
00000001
00001000
00000001
00000100
00000010
00000100
00000000
00000010
00010000
00000010
00010000
00001000
00010000
00001000
00000000
,
01000000
00010000
01000000
00100000
10000000
00000000
00010000
00000000
20020000
00000000
00000000
00000000
30030000
00000000
00000000
00000000
,
10000000
00000000
01000000
00000000
00100000
00000000
00010000
00000000
10000000
00000000
01000000
00100000
00000000
00001000
00010000
00000000
,
00000010
00001000
00000010
00000000
00001000
00000100
00000010
00000001
00000010
00000000
00000001
00001000
00000001
00000000
00001001
00000000
,
00000001
00000100
00000001
00000100
00000010
00001000
00000000
00001000
00000010
00000000
00010000
00001000
00010000
00000000
00001000
00000000
,
01000000
00010000
00000000
00100000
01000000
10000000
00000000
00100000
01000000
00000000
00010000
10000000
00010000
00000000
10010000
00000000
,
10000000
00000000
00100000
00000000
00010000
00000000
00100000
00000000
10000000
00000000
00100000
01000000
00000000
00001000
00010000
00000000
,
00000100
00001000
00000100
00000000
00001000
00000010
00001000
00000001
00000100
00000000
00000001
00000010
00000001
00000000
00001001
00000000
,
00000001
00000010
00000100
00001000
00000100
00001000
00000000
00001000
00000010
00000000
00010000
00001000
00010000
00000000
00001000
00000000
,
00100000
00010000
00000000
01000000
00010000
00100000
00000000
01000000
00100000
00000000
00010000
01000000
00100000
00000000
01100000
00000000
,
10000000
00000000
00100000
00000000
00010000
00000000
00100000
00000000
10000000
00000000
01000000
00100000
00000000
00100000
00001000
00000000
,
00001000
00010000
00000000
00010000
00000010
00000000
00000100
00000001
00000010
00000000
00000100
00000000
00001001
00000000
00001000
00000000
,
00000001
00000010
00000100
00000000
00001000
00000010
00010000
00000000
00001000
00000000
01000000
00010000
00000000
00010000
00100000
00000000
,
01000000
10000000
00000000
10000000
00100000
00000000
10000000
01000000
00100000
00000000
00010000
00000000
10000000
00000000
10000000
00000000
,
00010000
00000000
10000000
00000000
01000000
00000000
00010000
00000000
00001000
00000000
00000010
00000001
00000000
00000001
00001000
00000000
,
00000100
00010000
00000000
00010000
00100000
00000000
00100000
10000000
01000000
00000000
00100000
00000000
01100000
00000000
10000000
00000000
,
01000000
00100000
00010000
00000000
01000000
00100000
10000000
00000000
01000000
00000000
00010000
00001000
00000000
00000010
00000001
00000000
,
00001000
00000000
00000100
00000001
00000100
00000000
00001000
00000000
00000001
00000000
00001001
00000000
00000100
00000000
00000010
00000000
,
00000200
00000000
00000000
00000000
00000300
00000110
00000000
00022000
,
00000000
00000000
00033000
00000000
,
00200000
00000000
00000000
00000000
00300000
01100000
00000000
20020000
,
00000000
00000000
30030000
10010000
,
10000000
00000000
00000000
10000000
00100000
00000000
00010000
00000000
00001000
00000000
00000000
00001000
00000010
00000000
00000001
00000000
,
00001000
00000000
00000000
00000001
00000100
00000000
00001000
00000000
00010000
00000000
00000000
00010000
00100000
00000000
10000000
00000000
,
00010000
01000000
00010000
01000000
00010000
00100000
00010000
00100000
00001000
00010000
00001000
00010000
00000100
00001000
00000100
00000010
,
00000001
00001000
00000010
00000100
00000001
00000000
00001000
00000000
00002002
00000000
00000000
00000000
00003003
00000000
00000000
00000000
,
00000001
00000100
00000010
00000100
00000001
00000000
00001000
00000100
00000010
00000000
00000100
00010000
00001000
00000000
00010000
00100000
,
00000000
01000000
00100000
00000000
10000000
00100000
00000000
10000000
01000000
00000000
00100000
00010000
10000000
00000000
10000000
00000000
,
00200000
00000000
10300000
00000000
01000000
00000000
00010000
00000000
00011000
00000000
00001000
00000000
00000010
00000000
00000001
00000010
,
00000000
00001000
00000010
00000001
00000010
00000000
00000001
00000100
00000010
00000000
00020000
00000000
00230000
00000000
10300000
00000000
,
00010000
01000000
00100000
01000000
00010000
00000000
10000000
01000000
00100000
00000000
00001000
00010000
00001000
00000000
00000010
00000001
,
00000000
00000010
00001000
00000000
00000001
00000100
00000000
00001000
00000100
00000000
00000010
00000001
00001000
00000000
00001000
00000000
,
00000001
00000000
00000100
00000000
00001000
00000000
00010000
00000000
00011000
00000000
00001000
00000000
01000000
00000000
10000000
01000000
,
00100000
01000000
00100000
00000000
10000000
00010000
10000000
00000000
01000000
00100000
00010000
00100000
00002000
00000000
00000000
00000000
,
00013000
00000000
00000000
00000000
00011000
00000000
00010000
00000100
00000010
00000000
00000001
00000000
00001001
00000000
00001000
00000000
,
00000001
00000000
00000100
00000010
00000100
00000000
00001000
00000000
00010000
00100000
01000000
00100000
10000000
00000000
00000000
00000000
,
00010000
01000000
00100000
10000000
00010000
00000000
10000000
01000000
10000000
00000000
00010000
00100000
00001000
00000000
00010000
00000000
,
00000100
00001000
00000000
00000010
00001000
00000000
00000100
00000010
00000001
00000000
00001000
00000000
00001001
00000000
00000001
00000000
,
00000100
00000010
00001000
00000010
00010000
00000000
00001000
00010000
00100000
00000000
01000000
00100000
10000000
00000000
10010000
00000000
,
00010000
01000000
00001000
01000000
00010000
00000000
00100000
00001000
00010000
00000000
00001000
00000010
00000001
00000000
00001001
00000000
,
00001000
00000100
00000000
00000001
00000100
00000000
00000010
00000001
00001000
00000000
00000100
00000000
00010100
00000000
00010000
00000000
,
00022000
00000000
00000000
00000000
00033000
00000000
00000000
00000000
00001000
00100000
00010000
01000000
00100000
10000000
01000000
00000000
,
10000000
00100000
10000000
00100000
01000000
00100000
00010000
00001000
,
00010000
00000010
00001000
00000100
00000010
00000001
00001000
00000001
,
00000100
00000010
00000100
00000010
00000100
00001000
00010000
00001000
,
01000000
00010000
00100000
00010000
01000000
00100000
10000000
00000000
,
00010000
10000000
00100000
00000000
01000000
00010000
00100000
00001000
,
00000000
00010000
00001000
00010000
00000100
00000010
00000100
00000000
,
00000010
00000001
00001000
00000000
00000001
00000100
00001000
00000100
,
00000000
00000001
00000010
00001000
00010000
01000000
10000000
00010000
,
00000000
00000000
00000000
00000000
;
