
//----- song ID: emtr -----//
#TITLE:EMOTiON TRiPPER;
#ARTIST:sky_delta;
#BANNER:EMOTiON TRiPPER.png;
#BACKGROUND:EMOTiON TRiPPER-bg.png;
#CDTITLE:./CDTitles/jubeat festo.png;
#MUSIC:EMOTiON TRiPPER.ogg;
#SAMPLESTART:60.706;
#SAMPLELENGTH:15;
#BPMS:0=170;
#BGSTAGE:16;
#NOTES:
     dance-single:
     :
     Beginner:
     2:
     :
0000
0000
0000
0000
,
0000
0000
0000
0000
,
0000
0000
0000
0000
,
0000
0000
0000
0000
,
0000
0000
0000
0000
,
0000
0000
0000
0000
,
0001
0000
0000
0000
,
0000
0000
0000
0000
,
1000
0000
0000
0000
,
0000
0000
0000
0000
,
0010
0000
0000
0000
,
0000
0000
0000
0000
,
0010
0000
0000
0000
,
0000
0000
0000
0000
,
0100
0000
0000
0000
,
0000
0000
0000
0000
,
0100
0000
0000
0000
,
0000
0000
0000
0000
,
0000
0000
0000
0000
,
1000
0000
0000
0000
,
0000
0000
0000
0000
,
1000
0000
0000
0000
,
0000
0000
0000
0000
,
0010
0000
0000
0000
,
0000
0000
0000
0000
,
0000
0000
0000
0000
,
0000
0000
0000
0000
,
0001
0000
0000
0000
,
0000
0000
0000
0000
,
0001
0000
0000
0000
,
0000
0000
0000
0000
,
0100
0000
0000
0000
,
0000
0000
0000
0000
,
0000
0000
0000
0000
,
0000
0000
0000
0000
,
0001
0000
0000
0000
,
0001
0000
0000
0000
,
0001
0000
0000
0000
,
0000
0000
0000
0000
,
0010
0000
0000
0000
,
0000
0000
0000
0000
,
0100
0000
0000
0000
,
0000
0000
0000
0000
,
1000
0000
0000
0000
,
1000
0000
0000
0000
,
1000
0000
0000
0000
,
0000
0000
0000
0000
,
0100
0000
0000
0000
,
0000
0000
0000
0000
,
0010
0000
0000
0000
,
0000
0000
0000
0000
,
0010
0000
0000
0000
,
0010
0000
0000
0000
,
0010
0000
0000
0000
,
0000
0000
0000
0000
,
0001
0000
0000
0000
,
0000
0000
0000
0000
,
0001
0000
0000
0000
,
0000
0000
0000
0000
,
0100
0000
0000
0000
,
0000
0000
0000
0000
,
0100
0000
0000
0000
,
0010
0000
0000
0000
,
0000
0000
0000
0000
,
0000
0000
0000
0000
,
0010
0000
0000
0000
,
0000
0000
0000
0000
,
0010
0000
0000
0000
,
0000
0000
0000
0000
,
1000
0000
0000
0000
,
0000
0000
0000
0000
,
2000
0000
0000
0000
,
3000
0000
0000
0000
,
1000
0000
0000
0000
,
0000
0000
0000
0000
,
0002
0000
0000
0000
,
0003
0000
0000
0000
,
0001
0000
0000
0000
,
0000
0000
0000
0000
;
#NOTES:
     dance-single:
     :
     Easy:
     5:
     :
0000
0000
0000
0000
,
0000
0000
0000
0000
,
0000
0000
0000
0000
,
0000
0000
0000
0000
,
0000
0000
0000
0000
,
0000
0000
0000
0000
,
0001
0010
0010
0100
,
1000
1000
0001
1000
,
0000
0000
0000
0000
,
0000
0000
0000
0000
,
0001
0100
0001
0100
,
0010
0000
1001
0000
,
1000
0100
1000
0100
,
0010
0000
1001
0000
,
1000
0100
1000
0000
,
0001
0100
0001
0000
,
2000
0000
0000
3000
,
0002
0000
0000
0000
,
0003
0000
0000
0000
,
0001
0100
0001
0010
,
0001
1000
0001
0000
,
1000
0100
1000
0010
,
1000
0001
1000
0000
,
0001
0100
0010
0100
,
0001
0100
0010
0000
,
1000
0100
0010
0100
,
1000
0100
0010
0000
,
0001
0100
0001
1000
,
0010
1000
0010
0000
,
1000
0100
1000
0001
,
0010
0001
0010
0000
,
0001
0100
0010
1000
,
0010
0100
0001
0000
,
1000
1000
0100
0100
,
0020
0000
0000
0030
,
1001
0000
0110
0000
,
0001
1000
1001
0000
,
0110
0000
1001
0000
,
1000
1000
0001
0000
,
1000
0001
1000
0001
,
0100
0010
0100
0000
,
0001
0000
1000
0000
,
2002
0000
3003
0000
,
1000
0010
1000
0010
,
0100
0001
1000
0000
,
0001
0010
0100
0010
,
0001
0000
1001
0000
,
0001
0010
0010
1000
,
0010
0010
0001
1000
,
0002
0000
0000
0003
,
2000
0000
0000
3000
,
0001
0001
0001
0000
,
0100
0100
0100
0000
,
1000
1000
1000
0000
,
0010
0010
0010
0000
,
0002
0000
0000
0003
,
2000
0000
0000
3000
,
1000
0000
0100
0000
,
1001
0000
0000
0000
,
0001
0000
0100
0000
,
1001
0000
0000
0000
,
1000
0000
0010
0000
,
0001
0000
0010
0000
,
1000
0000
0000
2002
,
0000
0000
0000
3003
,
0001
0001
1000
1000
,
1001
0000
0110
0000
,
1000
1000
0001
0001
,
1001
0000
0110
0000
,
1000
0100
0010
0001
,
2000
0000
0000
3000
,
0001
0001
0001
0000
,
0110
0000
0000
0000
,
1000
1000
1000
0000
,
0110
0000
0000
0000
,
0010
0010
0010
0000
,
1001
0000
0000
0000
,
0100
0100
0100
0000
,
1001
0000
0000
0000
,
0000
0000
0000
0000
;
#NOTES:
     dance-single:
     :
     Medium:
     10:
     :
0000
0000
0000
0000
,
0000
0000
0000
0000
,
0000
0000
0000
0000
,
0000
0000
0000
0000
,
0000
0000
0000
0000
,
0000
0000
0000
0000
,
1000
0000
0001
0010
0001
0000
0100
0000
,
0010
1000
0010
0000
1000
0000
1001
0000
,
0000
0000
0000
0000
0000
0000
0000
1001
,
0000
0001
1000
0000
0020
0000
0030
0000
,
1000
0100
0010
0100
,
1000
0001
1000
0001
1000
0000
0000
0000
,
0001
0100
0010
0100
,
0001
1000
0001
1000
0001
0000
0000
0000
,
1000
0100
1000
0000
1000
0000
0001
0100
,
0001
0000
0001
0000
1000
0001
1000
0000
,
0002
0023
0230
2300
,
0000
3000
1000
1001
,
0000
0000
0000
0000
,
0000
0000
0001
0100
0000
0010
0000
1000
,
0000
0000
0000
0000
0001
0000
0000
0100
0000
0000
0010
0000
0000
0000
1000
0000
,
0000
0000
1000
0100
0000
0010
0000
0001
,
0000
1000
0001
1000
0000
0010
0100
0010
,
0000
0000
1000
0010
0000
0100
0000
0001
,
0000
0000
0000
0000
1000
0000
0000
0010
0000
0000
0100
0000
0000
0000
0001
0000
,
1000
0000
0100
0000
0010
0001
0000
0010
,
0001
0000
0100
0010
0000
0100
0100
0000
,
0001
0000
0100
0000
0010
1000
0100
0000
,
0010
0000
0100
0000
1000
0001
0100
0000
,
0010
0000
1000
0000
0100
1000
0010
0000
,
0100
0001
1001
0000
,
1000
0000
0010
0000
0100
0001
0010
0000
,
0100
0000
0010
0000
0001
1000
0010
0000
,
0100
0001
0100
0000
0010
1000
0010
0000
,
0200
0000
0000
0300
,
0101
0001
1100
1000
,
0001
1000
1001
0000
,
1010
1000
0011
0001
,
1000
0001
1001
0000
,
1000
0010
1000
0010
0000
1000
0100
0010
,
0000
0001
1000
0000
0020
0000
0030
0000
,
1000
1000
0000
0100
0100
0000
0220
0000
,
0000
0000
0330
0000
,
0001
0000
0100
0000
0001
0000
0100
0000
0010
0000
0000
1000
0000
0000
0010
0000
,
0000
1000
0100
0001
0200
0000
0300
0000
,
1000
0000
0100
0000
1000
0000
0100
0000
0010
0000
0000
0001
0000
0000
0010
0000
,
0000
0001
0100
1000
0200
0000
0300
0000
,
0001
0100
0010
1000
0100
0000
1000
0010
,
0100
0001
0010
0000
0001
0100
0010
1000
,
0200
0320
0032
2003
,
0000
0000
0000
3010
0000
0010
0100
0000
,
0001
0010
0100
1000
0010
0100
0001
0010
,
0100
1100
0101
1100
,
1000
0100
0010
0001
0100
0010
1000
0100
,
0010
0000
0001
1000
0002
0000
0003
0000
,
0001
0000
0000
0100
0000
0000
0100
0000
0000
0000
0010
0000
1000
0000
0001
0000
,
2000
0000
0000
3000
,
1000
0000
0100
0000
1000
0000
0000
0010
,
0000
0100
0001
0000
1001
0000
0000
0000
,
0001
0000
0100
0000
0001
0000
0000
0010
,
0000
0100
1000
0000
1001
0000
0000
0000
,
1000
0100
0001
0100
1000
0000
0001
0100
,
1000
0100
0001
0000
1000
0001
1000
0001
,
0000
0000
0000
2002
,
0000
0000
0000
3003
,
1000
0010
1000
0010
0100
0010
1000
0100
,
0010
0011
1100
0011
,
0001
0100
0001
0100
0010
1000
0100
0000
,
0110
0000
0010
0001
2000
0000
3000
0000
,
0001
0000
0000
0100
0000
0000
0100
0000
0000
0000
0001
0000
1000
0000
0001
0000
,
2000
0000
0000
3000
,
1000
0000
0100
0000
0010
0000
0000
0000
0001
0000
0000
0010
0000
0000
0001
0000
,
0000
0100
0010
0100
0010
0000
0000
0000
,
1000
0000
0010
0000
0100
0000
0000
0000
0001
0000
0000
1000
0000
0000
0001
0000
,
0000
0100
0001
0010
0100
0000
0110
0000
,
0001
0000
0010
0000
0100
0000
0000
0000
1000
0000
0000
0100
0000
0000
1000
0000
,
0000
0010
0100
0010
0100
0000
0000
0000
,
0001
0000
0100
0000
0010
0000
0000
0000
1000
0000
0000
0001
0000
0000
1000
0000
,
0000
0010
0100
0020
0000
0000
0000
0030
,
0000
0000
0000
0000
;
#NOTES:
     dance-single:
     :
     Hard:
     14:
     :
0000
0000
0000
0000
,
0000
0000
0000
0000
,
0000
0000
0000
0000
,
0000
0000
0000
0000
,
0000
0000
0000
0000
,
0000
0000
0000
0000
,
0001
0100
0010
1000
0001
0000
0001
0100
,
0010
1000
0001
0000
1010
0000
0011
0000
,
0000
0000
0000
0000
0000
0000
0000
1001
,
0000
1000
0100
0010
0001
0000
1001
0000
,
1000
0000
0100
0010
0100
0000
0010
0001
0010
0000
0001
1000
0000
1000
0001
0000
,
0000
0000
0100
0000
1000
0000
0100
0000
0001
0000
1000
0001
1000
0000
0000
0000
,
0001
0000
0010
0100
0010
0000
0100
1000
0100
0000
1000
0001
0000
0001
1000
0000
,
0000
0000
0010
0000
0001
0000
0010
0000
1000
0000
0001
0000
0100
0010
0100
0000
,
0001
0100
0010
1000
1100
0000
1000
0100
,
0010
0001
0101
0000
1000
0010
0001
0010
,
1010
0101
0011
2002
,
0000
0000
3003
0110
0000
0100
0010
0000
,
1000
0100
1000
0100
0010
0000
0001
0000
0100
0000
0001
0000
1001
0000
0000
0000
,
1000
0100
0010
0100
1000
0001
0010
0100
,
1000
0000
0100
0000
0010
0000
0100
1000
0000
1000
0001
0000
0010
0000
0100
0000
,
1000
0010
0100
0001
0100
0010
1000
0001
,
1000
0010
0001
0010
1000
0001
1000
0000
,
0001
0010
0100
0010
0001
1000
0100
0010
,
0001
0000
0010
0000
0100
0000
0010
0001
0000
0001
1000
0000
0100
0000
0010
0000
,
0002
0000
0203
0000
1300
0100
0000
0001
,
0100
0000
0000
0000
0110
0000
0010
0000
0000
0000
1000
0010
1000
0000
0000
0000
,
0001
0000
1000
0100
1000
0000
0001
0100
0001
0000
0010
0000
0100
0000
0010
0000
,
0001
0000
1000
0010
1000
0000
0001
0010
0000
0010
0001
0000
0100
0000
0010
0000
,
1000
0000
0100
0010
0001
0000
0010
0100
1000
0000
0001
0000
0100
0000
0001
0000
,
1000
0000
0100
0010
0001
0000
0011
0000
0000
0000
1000
0001
0100
0000
0110
0000
,
1000
0000
0001
0010
0001
0000
1000
0010
1000
0000
0100
0000
0010
0000
0100
0000
,
1000
0000
0001
0100
0001
0000
1000
0100
0000
0100
1000
0000
0010
0000
0100
0000
,
0001
0100
0001
0100
0001
0000
1000
0100
1000
0100
1000
0000
0001
0010
0001
0010
,
0002
0000
0000
0000
1003
1000
0100
0100
,
1000
0000
0001
1000
0010
0000
1000
0001
0010
0000
0001
1000
0010
0000
0000
0000
,
0100
0000
0010
1000
0100
0000
0010
0001
0100
0000
0000
0000
0110
0000
1000
0001
,
1000
0000
0001
0100
0010
0000
0100
0010
1000
0000
0010
0100
0010
0000
0000
0000
,
1010
0000
0000
0000
1100
0000
0000
0000
1001
0000
0000
0000
0000
0000
0001
0100
,
0001
0010
0100
1000
0000
0001
0010
0110
,
0000
1000
0010
0001
0010
1000
0000
1000
,
0002
0100
0103
0200
0010
0310
2020
0000
,
0000
0000
3030
0000
1000
0100
0001
0100
,
1000
0000
0001
0100
0010
0000
1000
0001
0100
0000
0010
0100
0000
0100
0001
0000
,
0010
0000
1000
0000
0001
0000
0100
0000
1000
0000
0001
0100
0001
0000
0000
0000
,
1000
0000
0100
1000
0010
0000
0100
0001
0010
0000
0100
1000
0000
1000
0010
0000
,
0000
0000
0110
0000
0001
0000
1000
0000
1001
0000
0001
0000
0100
0010
0100
0000
,
0001
0010
0010
1000
0100
0000
1000
0010
,
0010
0000
0001
0000
0100
0000
0000
0000
0001
0010
0100
0000
1000
0010
0100
0000
,
0101
0001
0010
0011
0000
1100
1000
1010
,
0000
0000
0001
0000
0001
0000
0001
0000
0001
0000
0001
1000
0001
0000
0000
0000
,
1001
0000
0000
0000
0001
0000
0001
0010
0001
0000
0000
0001
0000
0000
0100
0000
,
0001
0010
0001
0000
1000
0100
1000
0000
0010
1000
0010
0000
0100
0001
0100
0000
,
1001
0000
0000
0000
1000
0000
1000
0100
1000
0000
0000
1000
0000
0000
0010
0000
,
1000
0000
0100
0000
0010
0000
0001
0100
0010
0000
0100
0000
0001
1000
0001
0000
,
1000
0000
0100
0010
0100
0000
1000
0000
0010
0100
0010
0000
0100
0000
0001
0000
,
0022
0000
0000
0033
,
0001
0000
0000
0000
0100
0000
0000
0000
0010
0000
0000
1000
0000
0000
0010
0000
,
0000
0010
1000
0001
2000
0000
3000
0000
,
1000
0000
0000
0000
0100
0000
0000
0000
0010
0000
0000
0001
0000
0000
0010
0000
,
0000
0010
0001
1000
0002
0000
0003
0000
,
1000
0010
0100
0001
1000
0000
1000
0010
,
0100
0001
1000
0000
1000
0010
0001
0010
,
2000
3002
1003
2002
,
0000
0000
0000
3003
,
0001
0000
0100
0010
1000
0000
0100
0010
0100
0000
1000
0001
0000
0001
0100
0000
,
1010
1000
1100
0000
0011
0001
0101
0000
,
1000
0000
0010
0100
0001
0000
0010
0100
0010
0000
0001
1000
0000
1000
0010
0000
,
0202
0000
0000
0000
0303
0000
1000
0100
2000
0000
0000
0000
3000
0000
0001
0000
,
0001
0000
0010
0100
0000
0010
0100
0000
1000
0000
0001
0000
0100
0000
1000
0000
,
1100
0100
0001
1000
,
0001
0000
1000
0100
1000
0000
0001
0100
0001
0000
1000
0010
0000
0010
0100
0000
,
0001
0010
0100
1000
0001
0000
1001
0000
,
1000
0000
0001
0010
0001
0000
1000
0010
1000
0000
0001
0100
0000
0100
0001
0000
,
0000
0011
0001
1000
1100
0001
1000
0001
,
0100
0000
0000
0000
0010
0000
0000
0000
1000
0000
0000
0010
0000
0000
1010
0000
,
0000
1000
0100
0001
0200
0000
0000
0000
,
0310
0000
0000
0000
0001
0000
0000
0000
0001
0000
0000
0010
0000
0000
0110
0000
,
0000
1000
0001
2000
0000
0000
0000
3000
,
0000
0000
0000
0000
;
#NOTES:
     dance-double:
     :
     Easy:
     5:
     :
00000000
00000000
00000000
00000000
,
00000000
00000000
00000000
00000000
,
00000000
00000000
00000000
00000000
,
00000000
00000000
00000000
00000000
,
00000000
00000000
00000000
00000000
,
00000000
00000000
00000000
00000000
,
00001000
00010000
00011000
00000000
,
00010000
00001000
00010000
00011000
,
00000000
00000000
00000000
00000000
,
00000000
00000000
00000000
00000000
,
00001000
00010000
00001000
00100000
,
00010000
00100000
00010000
00000000
,
00100000
00010000
10000000
00100000
,
01000000
01000000
01000000
00000000
,
01100000
00000000
10010000
00000000
,
10000000
01000000
00100000
00000000
,
00002000
00000000
00000000
00003000
,
00020000
00000000
00000000
00000000
,
00030000
00000000
00000000
00000000
,
00010000
00000000
00000100
00000000
,
00001000
00000010
00001000
00000000
,
00000100
00000000
00000010
00000000
,
00000001
00001000
00000001
00000000
,
00000001
00000000
00000100
00000000
,
00000010
00001000
00000010
00000000
,
00001000
00000000
00000100
00000000
,
00010000
00001000
00010000
00000000
,
00001000
00010000
00001000
00010000
,
00001000
01000000
00010000
00000000
,
00100000
00010000
00100000
00010000
,
10000000
01000000
10000000
00000000
,
00100000
01000000
00010000
00100000
,
00010000
01000000
00100000
00000000
,
10000000
01000000
00100000
00001000
,
00020000
00000000
00000000
00030000
,
00011000
00000000
00011000
00000000
,
00010000
00001000
00000010
00000000
,
00000110
00000000
00000110
00000000
,
00000001
00001000
00000001
00000000
,
00000001
00000100
00001000
00000000
,
00001000
00010000
00001000
00000000
,
00010000
00000000
00100000
00000000
,
02200000
00000000
03300000
00000000
,
10000000
01000000
00100000
00010000
,
01000000
00100000
10000000
00000000
,
10000000
01000000
00010000
00001000
,
00010000
00010000
00001000
00000000
,
00010000
00001000
00000100
00000000
,
00000001
00000100
00001000
00000000
,
00000200
00000000
00000000
00000300
,
00000002
00000000
00000000
00000003
,
00000002
00000003
00000020
00000030
,
00000100
00010000
00001000
00000000
,
00020000
00030000
00200000
00300000
,
10000000
00010000
01000000
00000000
,
00200000
00000000
00000000
00300000
,
20000000
00000000
00000000
30000000
,
10000000
00000000
00010000
00000000
,
00100000
00000000
00100000
00000000
,
00001000
00000000
00010000
00000000
,
00011000
00000000
00000000
00000000
,
00010000
00000000
00000010
00000000
,
00001000
00000000
00000010
00000000
,
00000100
00000000
00000000
00000220
,
00000000
00000000
00000000
00000330
,
00000001
00000001
00000010
00000010
,
00000110
00000000
00001001
00000000
,
00000001
00001000
00000100
00010000
,
00002000
00000000
00013000
00000000
,
00001000
00010000
00001000
01000000
,
00020000
00000000
00000000
00030000
,
10000000
00000000
10000000
00000000
,
01000000
00100000
01000000
00000000
,
00010000
00000000
00001000
00000000
,
00011000
00000000
00000000
00000000
,
00010000
00000000
00001000
00000000
,
00000100
00000010
00000100
00000000
,
00000001
00000000
00000001
00000000
,
00001001
00000000
00000000
00000000
,
00000000
00000000
00000000
00000000
;
#NOTES:
     dance-double:
     :
     Medium:
     10:
     :
00000000
00000000
00000000
00000000
,
00000000
00000000
00000000
00000000
,
00000000
00000000
00000000
00000000
,
00000000
00000000
00000000
00000000
,
00000000
00000000
00000000
00000000
,
00000000
00000000
00000000
00000000
,
10000000
00000000
01000000
00100000
01000000
00000000
00100000
00000000
,
00001000
00010000
00001000
00000000
00010000
00000000
00011000
00000000
,
00000000
00000000
00000000
00000000
00000000
00000000
00000000
00011000
,
00000000
00010000
00001000
00000010
00000002
00000000
00000003
00000000
,
00000001
00000100
00001000
00000100
,
00000010
00000100
00000010
00000100
00000010
00000000
00000000
00000000
,
00000010
00010000
00001000
00010000
,
00001000
00100000
00001000
00010000
00001000
00000000
00000000
00000000
,
00001000
00000000
00100000
00010000
00100000
00000000
00010000
00000000
,
01000000
00100000
01000000
00000000
00010000
00000000
10010000
00000000
,
20000000
32000000
03200000
00320000
,
00000000
00000000
00030000
00100000
00000000
00100000
00001000
00000000
,
00000000
00000000
00000000
00000000
,
00000000
00000000
00010000
00001000
00000000
00010000
00000000
00001000
,
00000000
00000000
00000000
00000000
00000010
00000000
00000000
00001000
00000000
00000000
00010000
00000000
00000000
00000000
00001000
00000000
,
00000000
00000000
00001000
00010000
00000000
00001000
00000000
00010000
,
00000000
00100000
00010000
00001000
00000000
00010000
00001000
00000000
,
00000000
00000000
00001000
00010000
00000000
01000000
00000000
00010000
,
00000000
00000000
00000000
00000000
00001000
00000000
00000000
00010000
00000000
00000000
00001000
00000000
00000000
00000000
00000100
00000000
,
00001000
00000000
00010000
00000000
00000100
00010000
00000000
00010000
,
00001000
00000000
01000000
00001000
00000000
00001000
00010000
00000000
,
00001000
00000000
00010000
00000000
00100000
10000000
01000000
00000000
,
00010000
00000000
01000000
00000000
00100000
01000000
00100000
00000000
,
00010000
00000000
10000000
00000000
01000000
00100000
00010000
00000000
,
00100000
00001000
00011000
00000000
,
00010000
00000000
00001000
00000000
00000010
00000001
00000100
00000000
,
00001000
00000000
00000100
00000000
00000010
00000100
00000010
00000000
,
00001000
00000010
00000100
00000000
00000001
00000010
00000100
00000000
,
00002000
00000000
00000000
00003000
,
00001100
00000100
00010100
00010000
,
00001000
00001000
00011000
00000000
,
00010000
00001000
00100000
00000000
00010000
01000000
00100000
00000000
,
10100000
10000000
10010000
00000000
,
00010000
00100000
00010000
00100000
00000000
00001000
00010000
00001000
,
00000000
00001000
00010000
00000000
00002000
00000000
00003000
00000000
,
00010000
00000010
00000000
00001000
00000010
00000000
00000220
00000000
,
00000000
00000000
00000330
00000000
,
00000001
00000000
00000100
00000000
00000001
00000000
00000100
00000000
00000010
00000000
00000000
00000100
00000000
00000000
00001000
00000000
,
00000000
00010000
00001000
00010000
00002000
00000000
00003000
00000000
,
00010000
00000000
00001000
00000000
00010000
00000000
00001000
00000000
00010000
00000000
00000000
01000000
00000000
00000000
10000000
00000000
,
00000000
01000000
00010000
01000000
00200000
00000000
00300000
00000000
,
00010000
01000000
00100000
10000000
01000000
00000000
00100000
00010000
,
00100000
00001000
00010000
00000000
00000100
00001000
00000010
00000100
,
00000002
00000023
00000230
00002300
,
00000000
00000000
00000000
00003001
00000000
00000001
00000100
00000000
,
00000001
00000010
00000100
00000010
00001000
00000010
00000100
00000010
,
00000001
00000000
00000001
00000100
00001000
00000000
00011000
00000000
,
00010000
00100000
01000000
00100000
10000000
00100000
01000000
00010000
,
10000000
00000000
01000000
00100000
02000000
00000000
03000000
00000000
,
10000000
00000000
00000000
01000000
00000000
00000000
01000000
00000000
00000000
00000000
00100000
00000000
00010000
00000000
00100000
00000000
,
00002000
00000000
00000000
00003000
,
00010000
00000000
00001000
00000000
00000010
00000000
00000000
00000010
,
00000000
00000001
00001000
00000000
00001001
00000000
00000000
00000000
,
00000001
00000000
00000100
00000000
00000001
00000000
00000000
00000001
,
00000000
00001000
00000100
00000000
00001100
00000000
00000000
00000000
,
00001000
00000100
00000010
00000100
00010000
00000000
00001000
00010000
,
00100000
00010000
00001000
00000000
00010000
01000000
10000000
01000000
,
00000000
00000000
00000000
02200000
,
00000000
00000000
00000000
03300000
,
10000000
01000000
10000000
01000000
00100000
00010000
00100000
00010000
,
00001000
00001100
00000010
00000011
,
00000001
00000100
00000001
00000100
00000010
00001000
00000010
00001000
,
00010000
00000000
00010000
01000000
00200000
00000000
00300000
00000000
,
10000000
00000000
00000000
01000000
00000000
00000000
10000000
00000000
00000000
00000000
00010000
00000000
01000000
00000000
00010000
00000000
,
00200000
00000000
00000000
00300000
,
00100000
00000000
00001000
00000000
00010000
00000000
00000000
00000000
00001000
00000000
00000000
00010000
00000000
00000000
00001000
00000000
,
00000000
00010000
00000010
00010000
00000010
00000000
00000000
00000000
,
00000100
00000000
00000010
00000000
00001000
00000000
00000000
00000000
00000001
00000000
00000000
00000100
00000000
00000000
00000001
00000000
,
00000000
00000010
00000100
00000010
00000100
00000000
00000000
00000000
,
00010000
00000000
00000000
00000000
00001000
00000000
00000000
00000000
00010000
00000000
00000000
00100000
00000000
00000000
10000000
00000000
,
00000000
01000000
00100000
00010000
10000000
00000000
00000000
00000000
,
01000000
00000000
00000000
00000000
00010000
00000000
00000000
00000000
00001000
00000000
00000000
00010000
00000000
00000000
00011000
00000000
,
00000000
00010000
00001000
00000020
00000000
00000000
00000000
00000030
,
00000000
00000000
00000000
00000000
;
#NOTES:
     dance-double:
     :
     Hard:
     14:
     :
00000000
00000000
00000000
00000000
,
00000000
00000000
00000000
00000000
,
00000000
00000000
00000000
00000000
,
00000000
00000000
00000000
00000000
,
00000000
00000000
00000000
00000000
,
00000000
00000000
00000000
00000000
,
00000001
00000100
00000001
00000100
00000010
00000000
00001000
00000100
,
00010000
00000100
00001000
00000000
00010100
00000000
00011000
00000000
,
00000000
00000000
00000000
00000000
00000000
00000000
00000000
00011000
,
00000000
00001000
00010000
00100000
10000000
00000000
10010000
00000000
,
10000000
00000000
01000000
00100000
01000000
00000000
00100000
00010000
00100000
00000000
00010000
01000000
00000000
01000000
00001000
00000000
,
00000000
00000000
00010000
00000000
00000100
00000000
00010000
00000000
00001000
00000000
00010000
00001000
00010000
00000000
00000000
00000000
,
00001000
00000000
00000010
00000100
00000010
00000000
00000001
00000010
00000001
00000000
00001000
00000001
00000000
00000001
00001000
00000000
,
00000000
00000000
00000100
00000000
00000001
00000000
00000100
00000000
00001000
00000000
00000001
00000000
00000100
00000010
00000100
00000000
,
00000001
00000001
00000100
00000100
00001010
00000000
00000010
00000010
,
00010000
00010000
00011000
00000000
00001000
00001000
00010000
00010000
,
00011000
01000000
00100000
02200000
,
00000000
00000000
03300000
01100000
00000000
10000000
00010000
00000000
,
10000000
01000000
00010000
00001000
00100000
00001000
00010000
00000000
,
00001000
00010000
00001000
00010000
00000010
00001000
00000010
00000100
,
00000001
00000000
00000010
00000000
00000001
00000000
00000010
00000100
00000000
00000100
00000010
00000000
00000001
00000000
00000000
00000000
,
00001000
00000010
00001000
00000010
00010000
00001000
00010000
00001000
,
01000000
00010000
00100000
00010000
01000000
00100000
10000000
00000000
,
00010000
00100000
10000000
00100000
00010000
00100000
10000000
00100000
,
00010000
00000000
00100000
00000000
00001000
00000000
00010000
00001000
00000000
00001000
00010000
00000000
00000100
00000000
00001000
00000000
,
00000020
00000000
00000230
00000000
00001300
00000100
00000000
00000001
,
00000100
00000000
00000000
00000000
00000010
00000000
00000110
00000000
00000000
00000000
00000001
00001000
00000001
00000000
00000000
00000000
,
00001000
00000000
00000010
00000100
00000001
00000000
00000010
00000100
00001000
00000000
00000010
00000000
00000100
00000000
00001000
00000000
,
00010000
00000000
00100000
00000000
10000000
00000000
00010000
01000000
00000000
01000000
00010000
00000000
10000000
00000000
00000000
00000000
,
00010000
00000000
00100000
01000000
10000000
00000000
00100000
01000000
00010000
00000000
00100000
00000000
01000000
00000000
00010000
00000000
,
00001000
00000000
00000010
00000000
00000001
00000000
00001000
00000100
00000000
00000100
00001000
00000000
00000001
00000000
00000000
00000000
,
00001000
00000000
00000010
00000100
00000010
00000000
00001000
00000001
00001000
00000000
00000100
00000010
00000100
00000000
00001000
00000100
,
00010000
00000000
00001000
00000000
00010000
00000000
01000000
00100000
00000000
00100000
00010000
00000000
10000000
00000000
00000000
00000000
,
00010000
00100000
00010000
00100000
00010000
00000000
01000000
00010000
01000000
00010000
01000000
00000000
00001000
00010000
00001000
00010000
,
00002000
00000000
00000000
00000000
00013000
00000100
00001000
00000000
,
00001010
00001001
00000011
00000110
,
00000001
00000000
00001000
00000000
00000001
00000000
00000000
00000000
00001001
00000000
00000000
00000000
00000110
00000000
00000001
00000100
,
00000001
00000000
00000100
00000010
00001000
00000000
00000010
00010000
00000010
00000000
00010000
00001000
00010000
00000000
00000000
00000000
,
00001000
00000000
00010000
00000000
01000000
00000000
10000000
00000000
10010000
00000000
00000000
00000000
00000000
00000000
00010000
00100000
,
01000000
10000000
00100000
00010000
00000000
00001000
00010000
01000000
,
00000000
01000000
00100000
00001000
00010000
00001000
00000000
00000010
,
00000002
00001000
00001003
00002000
00000100
00003100
00000220
00000000
,
00000000
00000000
00000330
00000000
00000001
00000010
00001000
00000010
,
00000001
00000000
00001000
00000100
00001000
00000000
00000010
00010000
00000010
00000000
00010000
00001000
00000000
00001000
00010000
00000000
,
00100000
00000000
01000000
00000000
00001000
00000000
00010000
00000000
00100000
00000000
01000000
00100000
01000000
00000000
00000000
00000000
,
00010000
00000000
10000000
01000000
10000000
00000000
00010000
00100000
00010000
00000000
01000000
00100000
00000000
00100000
00010000
00000000
,
00001000
00000000
00000100
00000000
00000010
00000000
00001000
00000000
00000100
00000000
00000010
00000100
00000010
00000000
00000000
00000000
,
00000001
00000100
00001000
00010000
00001000
00000000
00000010
00000001
,
00000100
00000000
00001000
00000000
00010000
00000000
00000000
00000000
00001000
00000000
00000010
00001000
00010000
00000000
01000000
00000000
,
01100000
00100000
00110000
00000000
11000000
10000000
20010000
00000000
,
00000000
00000000
00010000
00000000
30010000
00000000
00100000
01000000
00100000
00000000
00001000
00010000
00001000
00000000
00000000
00000000
,
00010000
00000000
00000010
00001000
00000010
00000000
00000100
00000010
00000100
00000000
00000000
00000001
00000000
00000000
00001000
00000000
,
00000100
00000010
00000011
00000000
00000001
00000100
00001010
00000000
,
00000010
00000000
00010000
00001000
00010000
00000000
00001000
01000000
00001000
00000000
00000000
00100000
00000000
00000000
00010000
00000000
,
01000000
00000000
00100000
00000000
10100000
00000000
10000000
01000000
10000000
00000000
00010000
00000000
00110000
00000000
00000000
00000000
,
10000000
00000000
01000000
00100000
01000000
00000000
00010000
00000000
00001000
00010000
00001000
00000000
00000010
00000000
00000000
00000000
,
00000220
00000000
00000000
00000330
,
00000001
00000000
00000000
00000000
00001000
00000000
00000000
00000000
00000010
00000000
00000000
00000100
00000000
00000000
00000010
00000000
,
00000000
00001000
00000100
00000010
00002000
00000000
00013000
00000000
,
00010000
00000000
00000000
00000000
00001000
00000000
00000000
00000000
01000000
00000000
00000000
00100000
00000000
00000000
00010000
00000000
,
00000000
00001000
00010000
01000000
20000000
00000000
30010000
00000000
,
10000000
01000000
10000000
01000000
00100000
00000000
00100000
00010000
,
00100000
00010000
00001000
00000000
00001000
00000100
00001000
00000100
,
00000020
00000032
00001003
00002002
,
00000000
00000000
00000000
00003003
,
00000001
00000000
00000100
00000001
00001000
00000000
00000010
00001000
00000001
00000000
00000100
00001000
00000000
00001000
00010000
00000000
,
00001000
00000000
00100000
00010000
01000000
00000000
00100000
10000000
00100000
00000000
01000000
00010000
00100000
00000000
00000000
00000000
,
00010000
00000000
01000000
00010000
10000000
00000000
01000000
10000000
00010000
00000000
01000000
00001000
00000000
00001000
00010000
00000000
,
00000200
00000000
00000000
00000000
00001300
00000000
00000010
00001000
00000200
00000000
00000000
00000000
00000310
00000000
00000001
00000010
,
00000001
00000000
00001000
00000001
00000000
00001000
00000001
00000000
00000000
00000000
00000001
00000000
00000010
00000000
00001000
00000000
,
00022000
00000000
00000000
00033000
,
00001000
00000000
01000000
00010000
00100000
00000000
01000000
10000000
00010000
00000000
01000000
00100000
00000000
00100000
10000000
00000000
,
00100000
00010000
00001000
00000100
00000001
00000000
00001001
00000000
,
00001000
00000000
00000010
00001000
00000100
00000000
00000010
00000001
00001000
00000000
00000001
00000100
00000000
00000100
00001000
00000000
,
00010000
00100000
01000000
00100000
10100000
10000000
10010000
00000000
,
00010000
00000000
00000000
00000000
10000000
00000000
00000000
00000000
00100000
00000000
00000000
00010000
00000000
00000000
00011000
00000000
,
00000000
00001000
00000010
00000001
00002000
00000000
00000000
00000000
,
00003001
00000000
00000000
00000000
00000100
00000000
00000000
00000000
00000100
00000000
00000000
00001000
00000000
00000000
00011000
00000000
,
00000000
00010000
00100000
20000000
00000000
00000000
00000000
30000000
,
00000000
00000000
00000000
00000000
;
