
//----- song ID: drmh -----//
#TITLE:♡Drive My Heart♡;
#ARTIST:CHEAP CREAM;
#TITLETRANSLIT:Drive My Heart;
#BANNER:Drive My Heart.png;
#BACKGROUND:Drive My Heart-bg.png;
#CDTITLE:./CDTitles/DDR A3.png;
#MUSIC:Drive My Heart.ogg;
#SAMPLESTART:71.173;
#SAMPLELENGTH:15;
#BPMS:0=145;
#BGSTAGE:15;
#NOTES:
     dance-single:
     :
     Beginner:
     2:
     :
0000
0000
0000
0000
,
0000
0000
0000
0000
,
0000
0000
0000
0000
,
0000
0000
0000
0000
,
0000
0000
0000
0000
,
0000
0000
0000
0000
,
0100
0000
0000
0000
,
0001
0000
0000
0000
,
0100
0000
0000
0000
,
0010
0000
0000
0000
,
1000
0000
0000
0000
,
0100
0000
0000
0000
,
1000
0000
0000
0000
,
0001
0000
0000
0000
,
0010
0000
0000
0000
,
0001
0000
0000
0000
,
1000
0000
0000
0000
,
0010
0000
0000
0000
,
0100
0000
0000
0000
,
0100
0000
0000
0000
,
0001
0000
0000
0000
,
1000
0000
0000
0000
,
0001
0000
0000
0000
,
0001
0000
0000
0000
,
0010
0000
0000
0000
,
0100
0000
0000
0000
,
1000
0000
0000
0000
,
0010
0000
0000
0000
,
0100
0000
0000
0000
,
0010
0000
0000
0000
,
0100
0000
0000
0000
,
0001
0000
0000
0000
,
0020
0000
0000
0000
,
0000
0000
0030
0000
,
1001
0000
0000
0000
,
0000
0000
0000
0000
,
0110
0000
0000
0000
,
0000
0000
0000
0000
,
0001
0000
0001
0000
,
0100
0000
0100
0000
,
0010
0000
0100
0000
,
0020
0000
0030
0000
,
0110
0000
0000
0000
,
1000
0000
0100
0000
,
1000
0000
0000
0000
,
0001
0000
0010
0000
,
0001
0000
0000
0000
,
0100
0000
0010
0000
,
0100
0000
0000
0000
,
0001
0000
0000
0000
,
0010
0000
0000
0000
,
0100
0000
1000
0000
,
0100
0000
0000
0000
,
1000
0000
0010
0000
,
1000
0000
0000
0000
,
0010
0000
0100
0000
,
0010
0000
0000
0000
,
0100
0000
0000
0000
,
0001
0000
0000
0000
,
0100
0000
0010
0000
,
0100
0000
0000
0000
,
0001
0000
0010
0000
,
0001
0000
0000
0000
,
1000
0000
0010
0000
,
1000
0000
0000
0000
,
0100
0000
0010
0000
,
0100
0000
0000
0000
,
0000
0000
0000
0000
;
#NOTES:
     dance-single:
     :
     Easy:
     5:
     :
0000
0000
0000
0000
,
0000
0000
0000
0000
,
0000
0000
0000
0000
,
0000
0000
0000
0000
,
0000
0000
0000
0000
,
0000
0000
0000
0000
,
1000
0000
0010
0000
,
1000
0000
0000
0000
,
0001
0000
0100
0000
,
0001
0000
0000
0000
,
0100
0000
0100
0000
,
0010
1000
0010
0000
,
1000
0000
1000
0000
,
0001
0010
0001
0000
,
0010
0000
0010
0000
,
0100
1000
0100
0000
,
1000
0000
1000
0000
,
0010
0100
0010
0000
,
0100
0000
0001
0000
,
0010
0000
0001
0000
,
1000
0000
0010
0000
,
0100
0000
0110
0000
,
0001
0000
0010
0000
,
0001
0000
1000
0000
,
0100
0000
1000
0000
,
0010
0100
0010
0000
,
0100
0000
0001
0000
,
0010
0000
0001
0000
,
1000
0000
0010
0000
,
0100
0000
0110
0000
,
0001
0000
0010
0000
,
0001
0000
1000
0000
,
2002
0000
0000
0000
,
0000
0000
3003
0000
,
0010
0000
0000
0000
,
0100
0000
0000
0000
,
0110
0000
0000
0000
,
1001
0000
0000
0000
,
1000
0100
1000
0100
,
0010
0001
0010
0001
,
0100
0010
0100
0010
,
0200
0000
0300
0000
,
0110
0000
1001
0000
,
0001
0000
0100
0000
,
0010
0100
0010
0000
,
1000
0000
0100
0000
,
0010
0100
0010
0000
,
0001
0000
1000
0000
,
0010
1000
0100
0010
,
0010
0000
0001
0000
,
0100
0010
0100
0010
,
1000
0000
0100
0000
,
0010
0100
0010
0000
,
0001
0000
0100
0000
,
0010
0100
0010
0000
,
1000
0000
0001
0000
,
0010
0001
0100
0010
,
0010
0000
1000
0000
,
0100
0010
0100
0010
,
0001
0000
1000
0000
,
0010
0100
0001
0100
,
0001
0000
1000
0000
,
0100
0010
0100
0010
,
0001
0000
0100
0000
,
0010
1000
0010
1000
,
0100
0000
1000
0000
,
0001
0010
0100
1000
,
0000
0000
0000
0000
;
#NOTES:
     dance-single:
     :
     Medium:
     8:
     :
0000
0000
0000
0000
,
0000
0000
0000
0000
,
0000
0000
0000
0000
,
0000
0000
0000
0000
,
0000
0000
0000
0000
,
0000
0000
0000
0000
,
0010
1000
0010
0100
,
0001
0010
0100
1000
,
0001
0100
0001
0010
,
0100
0100
0010
0100
,
1001
0001
1000
0010
,
0100
0010
0100
0000
0001
0000
1000
0000
,
0001
0010
0001
0100
,
0010
0100
0010
0000
1000
0000
0001
0000
,
1100
0100
0010
0001
,
1000
0010
1000
0000
0001
0000
0010
0000
,
0100
1000
0010
0100
,
0010
1000
0010
0000
0100
0000
0001
0000
,
1000
1000
0100
0010
,
0001
0100
0001
0100
,
0010
0010
1000
0001
,
1001
1010
0110
0101
,
0001
0001
0010
0100
,
1000
0010
1000
0100
,
0010
0010
0001
1000
,
1001
0110
1001
0000
,
0001
0000
0001
0000
1000
0100
1000
0000
,
0010
1000
0001
0100
,
0010
0000
0010
0000
1000
0100
1000
0000
,
1001
0011
0110
1100
,
0001
0000
0001
0000
0100
0010
0100
0000
,
0001
1000
0100
1000
,
0010
0100
0010
0000
1000
0001
1000
0000
,
0220
0000
0330
0000
,
0001
0100
1000
0100
,
0001
1001
0100
0110
,
1000
0100
0001
0100
,
1000
1001
0010
0110
,
0001
0100
0001
0000
0100
0001
0100
0000
,
0010
1000
0010
0000
1000
0100
1000
0000
,
0001
0010
0001
0100
,
0220
0000
0000
0330
,
1000
0100
1000
0100
1000
0000
0001
0000
,
0100
0000
0100
0000
0010
1000
0010
0000
,
1000
0100
0010
0100
,
1000
0000
1000
0000
0001
0010
0001
0000
,
0010
0001
0100
0010
,
0100
0000
0100
0000
0001
1000
0001
0000
,
1000
0100
0001
0100
,
1000
1010
0001
0011
,
1000
0000
0010
0000
0100
0010
0100
0000
,
0010
0000
0010
0000
0100
0001
0100
0000
,
0001
0010
0100
0010
,
0001
0000
0001
0000
1000
0010
1000
0000
,
0010
1000
0100
0010
,
0100
0000
0100
0000
1000
0001
1000
0000
,
0001
0010
1000
0010
,
0001
0101
1000
1100
,
0001
0000
0100
0000
0010
0100
0010
0000
,
1000
0100
1000
0010
,
1000
0100
0001
0000
0100
0000
1000
0000
,
0001
0010
0001
0100
,
0001
0100
1000
0000
0100
0000
0001
0000
,
0010
0100
0010
0001
,
1000
0010
0001
0000
0010
0000
1000
0000
,
0100
1000
0001
0100
,
0001
0010
1000
0000
0010
0000
0001
0000
,
0000
0000
0000
0000
;
#NOTES:
     dance-single:
     :
     Hard:
     13:
     :
0000
0000
0000
0000
,
0000
0000
0000
0000
,
0000
0000
0000
0000
,
0000
0000
0000
0000
,
0000
0000
0000
0000
,
0000
0000
0000
0000
,
0001
0000
1000
0000
0100
0000
0010
0000
0100
0000
0000
0100
0000
0000
1000
0000
,
0001
0100
0010
0100
0001
0000
0101
0000
,
1000
0000
0001
0000
0010
0000
0100
0000
0010
0000
0001
0010
0000
0000
0001
0000
,
0100
0010
1000
0010
0110
0000
1010
0000
,
0002
0000
0000
0000
0013
0000
0100
0000
0010
0000
0000
0001
0000
1000
0010
0000
,
1000
0000
0100
0000
0001
0000
0100
0000
1000
0000
0000
0010
0200
0000
0000
0000
,
0320
0000
0000
0000
1030
0000
0001
0000
1000
0000
0000
0100
0000
0010
0001
0000
,
1000
0000
0010
0000
0001
0000
0010
0000
1000
0000
0000
0100
0010
0000
0100
0000
,
2000
0000
3020
0000
0130
0000
0010
0000
1000
0000
0000
0001
0000
0010
0001
0000
,
1000
0000
0100
0000
0001
0000
0100
0000
1000
0000
0000
0010
0200
0000
0000
0000
,
0302
0000
0000
0000
1003
0000
0100
0000
0010
0000
0000
0001
0000
0010
0001
0000
,
0100
0000
0010
0000
0100
0000
0001
0000
1000
0000
0000
0100
1000
0000
0000
0000
,
0000
0000
0001
0000
0010
0000
0100
0000
0010
0000
0001
1000
0000
0000
0001
0000
,
0000
0010
0001
0100
0010
1000
0001
0000
,
0000
0000
0100
0000
0010
0000
1000
0000
0100
0000
0010
0001
0000
0000
0010
0000
,
1100
0011
0101
1010
,
0000
0000
1000
0000
0100
0000
0010
0000
0100
0000
1000
0020
0000
0000
0000
0000
,
0030
0100
0001
0010
1000
0010
0002
0000
,
0003
0000
1000
0000
0010
0000
0100
0000
0010
0000
1000
0001
0000
0000
0100
0000
,
0110
0000
0000
0000
0010
0000
1000
0000
0100
0000
0000
0000
0010
0100
0010
0100
,
0010
0000
0100
0000
1000
0000
0001
0000
0100
0000
0010
0100
0000
1000
0100
0000
,
0000
0001
0010
0100
0020
0000
0032
0000
,
0003
0100
0010
1000
0100
1000
0010
0000
,
0101
1001
1100
0011
,
0000
0000
0001
0000
0100
0000
1000
0000
0100
0000
0010
0200
0000
0000
0000
0000
,
0300
0001
1000
0100
1100
0000
1001
0000
,
0000
1000
0100
0010
0100
0001
0100
1000
,
0001
0000
0100
0000
0002
0000
0000
0000
1003
0000
0010
0000
0100
0010
0100
0000
,
0010
1000
0100
0010
,
0001
0000
0010
0100
0000
1000
0010
1000
,
0000
0001
0100
1000
0100
0000
0010
1000
,
0001
0010
0000
0010
0001
0000
0100
0000
0010
1000
0000
1000
0010
0100
0010
0100
,
0010
1000
0010
1000
0001
0010
0001
0010
,
0100
1000
0010
0100
0000
0001
0100
0010
,
1000
0100
1000
0100
0010
0001
0010
0001
,
0100
0000
0001
0000
1000
0000
0100
0000
0000
0010
0100
0000
0110
0000
0000
0000
,
0001
0000
0010
0000
0001
0100
0000
0010
0100
0010
0100
0010
0100
0000
0000
0000
,
0001
0000
1000
0000
0100
0000
0010
0000
0001
0000
0100
0010
0000
0000
0100
0000
,
0010
1000
0100
0010
0011
0000
1001
0000
,
1000
0000
0001
0000
0100
0000
0010
0000
1000
0000
0100
0010
0000
0000
0100
0000
,
1000
0010
0001
0010
0110
0000
1010
0000
,
0010
0000
1000
0000
0100
0000
0001
0000
0100
0000
1000
0001
0000
0000
0100
0000
,
0010
1000
0001
0010
1000
0000
0110
0000
,
0011
0000
1001
2000
0000
3010
0100
0002
,
0000
1003
0010
0001
0010
0000
0110
0000
,
2001
0000
0000
0000
3010
0000
0100
0000
0001
0000
1000
0100
0000
0000
1000
0000
,
0010
0001
1000
0100
0020
0000
2030
0000
,
3001
0000
0100
0000
1000
0000
0100
0000
0001
0000
0010
0100
0000
0000
0010
0000
,
0001
0100
1000
0100
0001
0000
1100
0000
,
1002
0000
0000
0000
0103
0000
0010
0000
1000
0000
0000
0010
0000
0000
0100
0000
,
0001
0010
1000
0001
0100
0000
1100
0000
,
0101
0000
0001
0020
0000
0130
1000
0010
,
0100
0000
0001
0000
0010
0100
0000
1000
0010
1000
0010
1000
0010
0000
0000
0000
,
2000
0000
0000
0000
3010
0000
0100
0000
0010
0000
0000
1000
0000
0001
0010
0000
,
0001
0000
0100
0000
1000
0000
0100
0000
0001
0000
0000
0010
0200
0000
0000
0000
,
0320
0000
0000
0000
0031
0000
1000
0000
0001
0000
0000
0100
0000
0010
1000
0000
,
0001
0000
0010
0000
1000
0000
0010
0000
0001
0000
0000
0100
0010
0000
0100
0000
,
0002
0000
2003
0000
3100
0000
0001
0000
0100
0000
0000
1000
0000
0010
1000
0000
,
0001
0000
0100
0000
1000
0000
0100
0000
0001
0000
0000
0010
0200
0000
0000
0000
,
2300
0000
0000
0000
3001
0000
0100
0000
0010
0000
0000
1000
0000
0010
1000
0000
,
0001
0000
0010
0000
0100
0000
1000
0000
0010
0100
0010
0100
0010
0100
0010
0100
,
0000
0000
0000
0000
;
#NOTES:
     dance-double:
     :
     Easy:
     5:
     :
00000000
00000000
00000000
00000000
,
00000000
00000000
00000000
00000000
,
00000000
00000000
00000000
00000000
,
00000000
00000000
00000000
00000000
,
00000000
00000000
00000000
00000000
,
00000000
00000000
00000000
00000000
,
00000001
00000000
00000100
00000000
,
00000010
00000000
00000000
00000000
,
00010000
00000000
00001000
00000000
,
00100000
00000000
00000000
00000000
,
00010000
00000000
00010000
00000000
,
10000000
01000000
10000000
00000000
,
00100000
00000000
00100000
00000000
,
01000000
00001000
01000000
00000000
,
00001000
00000000
00001000
00000000
,
00010000
00000010
00010000
00000000
,
00000100
00000000
00000100
00000000
,
00001000
00000001
00001000
00000000
,
00000010
00000000
00001000
00000000
,
00000100
00000000
00010000
00000000
,
00001000
00000000
00100000
00000000
,
00010000
00000000
10010000
00000000
,
10000000
00000000
01000000
00000000
,
00100000
00000000
00010000
00000000
,
00100000
00000000
00001000
00000000
,
00010000
00001000
00010000
00000000
,
00000010
00000000
00001000
00000000
,
00000100
00000000
00000010
00000000
,
00000001
00000000
00000100
00000000
,
00001000
00000000
00011000
00000000
,
00010000
00000000
00100000
00000000
,
10000000
00000000
01000000
00000000
,
02200000
00000000
00000000
00000000
,
00000000
00000000
03300000
00000000
,
10000000
00000000
00000000
00000000
,
00010000
00000000
00000000
00000000
,
00011000
00000000
00000000
00000000
,
00001001
00000000
00000000
00000000
,
00000001
00000100
00000001
00000100
,
00000010
00001000
00000100
00010000
,
00001000
00010000
00001000
01000000
,
00020000
00000000
00030000
00000000
,
00011000
00000000
10010000
00000000
,
10000000
00000000
01000000
00000000
,
00010000
00001000
00010000
00000000
,
00001000
00000000
00000010
00000000
,
00000001
00001000
00000001
00000000
,
00001000
00000000
00000100
00000000
,
00010000
00001000
01000000
00010000
,
00010000
00000000
00100000
00000000
,
01000000
10000000
00100000
01000000
,
00010000
00000000
00100000
00000000
,
00001000
00010000
00001000
00000000
,
00010000
00000000
00000010
00000000
,
00001000
00000001
00001000
00000000
,
00000001
00000000
00000100
00000000
,
00000010
00001000
00000100
00010000
,
00010000
00000000
00001000
00000000
,
00100000
00010000
00100000
01000000
,
10000000
00000000
00100000
00000000
,
01000000
00010000
00100000
00001000
,
00010000
00000000
00001000
00000000
,
00010000
00000010
00001000
00000100
,
00000010
00000000
00000001
00000000
,
00000100
00001000
00010000
00100000
,
10000000
00000000
00010000
00000000
,
10000000
01000000
00010000
00001000
,
00000000
00000000
00000000
00000000
;
#NOTES:
     dance-double:
     :
     Medium:
     8:
     :
00000000
00000000
00000000
00000000
,
00000000
00000000
00000000
00000000
,
00000000
00000000
00000000
00000000
,
00000000
00000000
00000000
00000000
,
00000000
00000000
00000000
00000000
,
00000000
00000000
00000000
00000000
,
10000000
00100000
10000000
00010000
,
00100000
00001000
00010000
00000010
,
00001000
00000100
00001000
00000001
,
00000100
00000100
00001000
00010000
,
00011000
00001000
00100000
00010000
,
01000000
00100000
01000000
00000000
00010000
00000000
10000000
00000000
,
01000000
00100000
01000000
10000000
,
00010000
00100000
00010000
00000000
00100000
00000000
00001000
00000000
,
00011000
00010000
00000010
00001000
,
00000100
00000010
00000100
00000000
00001000
00000000
00000001
00000000
,
00000100
00000010
00000100
00000001
,
00001000
00000100
00001000
00000000
00000100
00000000
00010000
00000000
,
00001000
00001000
00010000
00100000
,
01000000
00010000
01000000
00010000
,
10000000
10000000
01000000
00010000
,
00011000
00011000
00001100
00000110
,
00000001
00000001
00000100
00001000
,
00010000
00001000
00010000
01000000
,
10000000
10000000
00010000
00100000
,
00001000
00011000
00001010
00000000
,
00000001
00000000
00000001
00000000
00001000
00000100
00001000
00000000
,
00000010
00010000
00001000
01000000
,
00010000
00000000
00010000
00000000
00100000
01000000
00100000
00000000
,
11000000
00110000
00011000
00001010
,
00000001
00000000
00000001
00000000
00000010
00000100
00000010
00000000
,
00000100
00001000
00000100
00010000
,
00001000
00010000
00001000
00000000
00100000
00010000
00100000
00000000
,
20020000
00000000
30030000
00000000
,
10000000
01000000
00010000
00001000
,
00000010
00000001
00000100
00000110
,
00000001
00000100
00001000
00010000
,
00100000
10000000
01000000
01100000
,
10000000
01000000
10000000
00000000
00010000
00100000
00001000
00000000
,
00010000
00000100
00010000
00000000
00000010
00001000
00000001
00000000
,
00000100
00000010
00001000
00000100
,
00022000
00000000
00000000
00033000
,
00001000
00100000
00001000
00100000
00010000
00000000
10000000
00000000
,
00100000
00000000
00100000
00000000
01000000
00010000
01000000
00000000
,
00001000
00010000
00001000
00000100
,
00000010
00000000
00000010
00000000
00000100
00000001
00000100
00000000
,
00000001
00000010
00001000
00010000
,
01000000
00000000
01000000
00000000
10000000
00010000
10000000
00000000
,
00100000
00010000
00001000
00000100
,
00000010
00000110
00000001
00001001
,
00001000
00000000
00000010
00000000
00010000
00001000
00010000
00000000
,
00001000
00000000
00001000
00000000
01000000
00010000
01000000
00000000
,
00100000
10000000
00100000
01000000
,
00010000
00000000
00010000
00000000
00100000
00001000
00100000
00000000
,
00001000
00010000
00000100
00001000
,
00000001
00000000
00000001
00000000
00001000
00000010
00001000
00000000
,
00000001
00000100
00001000
00010000
,
01000000
01100000
10000000
11000000
,
00010000
00000000
00100000
00000000
00010000
01000000
00010000
00000000
,
00100000
00001000
00010000
00001000
,
00010000
00001000
00000100
00000000
00000001
00000000
00001000
00000000
,
00000010
00010000
00001000
00010000
,
00001000
00010000
01000000
00000000
10000000
00000000
00010000
00000000
,
00100000
01000000
10000000
00100000
,
10000000
00100000
00010000
00000000
00001000
00000000
00000010
00000000
,
00000001
00000100
00000010
00001000
,
00000001
00000100
00001000
00000000
00010000
00000000
00001000
00000000
,
00000000
00000000
00000000
00000000
;
#NOTES:
     dance-double:
     :
     Hard:
     13:
     :
00000000
00000000
00000000
00000000
,
00000000
00000000
00000000
00000000
,
00000000
00000000
00000000
00000000
,
00000000
00000000
00000000
00000000
,
00000000
00000000
00000000
00000000
,
00000000
00000000
00000000
00000000
,
00000001
00000000
00001000
00000000
00000100
00000000
00000010
00000000
00000100
00000000
00000000
00000100
00000000
00000000
00001000
00000000
,
00000010
00010000
00001000
00100000
00010000
00000000
10010000
00000000
,
10000000
00000000
00100000
00000000
01000000
00000000
00100000
00000000
10000000
00000000
01000000
00100000
00000000
00000000
00010000
00000000
,
00100000
00001000
00010000
00000010
00001010
00000000
00000110
00000000
,
00000002
00000000
00000000
00000000
00000103
00000000
00001000
00000000
00010000
00000000
00000000
00001000
00000000
00100000
00010000
00000000
,
10000000
00000000
00100000
00000000
00010000
00000000
00100000
00000000
01000000
00000000
00000000
00010000
00200000
00000000
00000000
00000000
,
00302000
00000000
00000000
00000000
00013000
00000000
00001000
00000000
00000010
00000000
00000000
00000001
00000000
00000100
00000010
00000000
,
00001000
00000000
00000100
00000000
00000001
00000000
00000100
00000000
00000010
00000000
00000000
00000001
00000100
00000000
00000010
00000000
,
00002000
00000000
00003200
00000000
00010300
00000000
00001000
00000000
00100000
00000000
00000000
00010000
00000000
10000000
01000000
00000000
,
00010000
00000000
01000000
00000000
10000000
00000000
01000000
00000000
00100000
00000000
00000000
00010000
02000000
00000000
00000000
00000000
,
03002000
00000000
00000000
00000000
00013000
00000000
00000010
00000000
00001000
00000000
00000000
00000100
00000000
00000010
00000001
00000000
,
00000100
00000000
00000010
00000000
00001000
00000000
00000100
00000000
00010000
00000000
00000000
00001000
00010000
00000000
00000000
00000000
,
00000000
00000000
00001000
00000000
00010000
00000000
00100000
00000000
01000000
00000000
00100000
10000000
00000000
00000000
00010000
00000000
,
00000000
10000000
01000000
00010000
00001000
00000010
00000001
00000000
,
00000000
00000000
00000100
00000000
00000010
00000000
00001000
00000000
00000001
00000000
00001000
00000100
00000000
00000000
00010000
00000000
,
00011000
00101000
00110000
11000000
,
00000000
00000000
00010000
00000000
01000000
00000000
00100000
00000000
01000000
00000000
00010000
00200000
00000000
00000000
00000000
00000000
,
00300000
00001000
00000010
00000100
00000001
00000100
00002000
00000000
,
00003000
00000000
00000001
00000000
00000100
00000000
00001000
00000000
00010000
00000000
00001000
00010000
00000000
00000000
00001000
00000000
,
01001000
00000000
00000000
00000000
00010000
00000000
10000000
00000000
00100000
00000000
00000000
00000000
10000000
00010000
10000000
00010000
,
10000000
00000000
01000000
00000000
00100000
00000000
00010000
00000000
01000000
00000000
00001000
00010000
00000000
00000010
00010000
00000000
,
00000000
00001000
00000100
00000010
00002000
00000000
00003002
00000000
,
00000003
00000010
00000100
00001000
00000100
00010000
00001000
00000000
,
01010000
10010000
11000000
00110000
,
00000000
00000000
10000000
00000000
00100000
00000000
00010000
00000000
00001000
00000000
00010000
00000020
00000000
00000000
00000000
00000000
,
00000030
00001000
00000100
00000010
00000110
00000000
00000011
00000000
,
00000000
00000001
00000100
00001000
00010000
01000000
00100000
10000000
,
00100000
00000000
00010000
00000000
02000000
00000000
00000000
00000000
03001000
00000000
00010000
00000000
00001000
00010000
00001000
00000000
,
00010000
00000010
00001000
00000100
,
00000010
00000000
00000001
00000100
00000000
00000010
00001000
00000010
,
00000000
00010000
00001000
01000000
00010000
00000000
10000000
00100000
,
01000000
00100000
00000000
00100000
01000000
00000000
00010000
00000000
00100000
00001000
00000000
00001000
00010000
00000000
00001000
00000000
,
00010000
00000100
00010000
00000100
00001000
00000010
00001000
00000010
,
00000100
00000001
00000010
00000100
00000000
00001000
00000100
00010000
,
00001000
00010000
00001000
00100000
00010000
00100000
00010000
01000000
,
00100000
00000000
10000000
00000000
01000000
00000000
00010000
00000000
00000000
00001000
00010000
00000000
00011000
00000000
00000000
00000000
,
00001000
00000000
00010000
00000000
00000010
00001000
00000000
00000010
00000100
00000010
00000100
00000010
00000100
00000000
00000000
00000000
,
00000001
00000000
00000010
00000000
00000100
00000000
00001000
00000000
00000100
00000000
00010000
00001000
00000000
00000000
00010000
00000000
,
01000000
00100000
00010000
10000000
10010000
00000000
01010000
00000000
,
10000000
00000000
01000000
00000000
00100000
00000000
00010000
00000000
00100000
00000000
00001000
00010000
00000000
00000000
00001000
00000000
,
00000100
00000010
00001000
00000001
00001001
00000000
00001100
00000000
,
00001000
00000000
00000001
00000000
00000100
00000000
00001000
00000000
00010000
00000000
00100000
01000000
00000000
00000000
00010000
00000000
,
10000000
00010000
00100000
00001000
00010000
00000000
00010010
00000000
,
00001010
00000000
00001001
00000002
00000000
00000013
00000100
00002000
,
00000000
01003000
00010000
01000000
10000000
00000000
10100000
00000000
,
02010000
00000000
00000000
00000000
03001000
00000000
00010000
00000000
00000010
00000000
00001000
00000001
00000000
00000000
00000100
00000000
,
00000010
00010000
00001000
00100000
00020000
00000000
20030000
00000000
,
31000000
00000000
00010000
00000000
00001000
00000000
00000100
00000000
00000001
00000000
00001000
00000001
00000000
00000000
00000100
00000000
,
00000001
00000010
00001000
00010000
00100000
00000000
01100000
00000000
,
10020000
00000000
00000000
00000000
00130000
00000000
01000000
00000000
10000000
00000000
00000000
00100000
00000000
00000000
00010000
00000000
,
00001000
00010000
00000100
00001000
00000010
00000000
00000110
00000000
,
00000101
00000000
00000001
00002000
00000000
00003100
00010000
00001000
,
01000000
00000000
00010000
00000000
10000000
00100000
00000000
01000000
00100000
01000000
00100000
01000000
00100000
00000000
00000000
00000000
,
20000000
00000000
00000000
00000000
30010000
00000000
00100000
00000000
00010000
00000000
00000000
01000000
00000000
00001000
00010000
00000000
,
00001000
00000000
00000100
00000000
00000001
00000000
00000100
00000000
00001000
00000000
00000000
00010000
00002000
00000000
00000000
00000000
,
00203000
00000000
00000000
00000000
00310000
00000000
01000000
00000000
00010000
00000000
00000000
10000000
00000000
01000000
00100000
00000000
,
00010000
00000000
01000000
00000000
10000000
00000000
01000000
00000000
00010000
00000000
00000000
00000100
00001000
00000000
00000100
00000000
,
00000002
00000000
00002003
00000000
00003100
00000000
00000010
00000000
00000100
00000000
00000000
00001000
00000000
00000001
00000100
00000000
,
00001000
00000000
00010000
00000000
00100000
00000000
00010000
00000000
00001000
00000000
00000000
01000000
00020000
00000000
00000000
00000000
,
20030000
00000000
00000000
00000000
30100000
00000000
01000000
00000000
00001000
00000000
00000000
00010000
00000000
00000100
00001000
00000000
,
00000010
00000000
00001000
00000000
00000100
00000000
00010000
00000000
00001000
00010000
00001000
00010000
00001000
00010000
00001000
00010000
,
00000000
00000000
00000000
00000000
;
