
//----- song ID: draw -----//
#TITLE:Drive Away;
#ARTIST:Tanukichi;
#BANNER:Drive Away.png;
#BACKGROUND:Drive Away-bg.png;
#CDTITLE:./CDTitles/DDR A3.png;
#MUSIC:Drive Away.ogg;
#SAMPLESTART:2.4;
#SAMPLELENGTH:15;
#BPMS:0=100,36=200,64=100,66=200,130=100,146=200,174=100,176=200,192=100,196=200;
#STAGE:3;
#NOTES:
     dance-single:
     :
     Beginner:
     2:
     :
0000
0000
0000
0000
,
0000
0000
0000
0000
,
0000
0000
0000
0000
,
0000
0000
0000
0000
,
0000
0000
0000
0000
,
1000
0000
0000
0000
,
0100
0000
0000
0000
,
0010
0000
0000
0000
,
0001
0000
0000
0000
,
0001
0000
0000
0000
,
0001
0000
0000
0000
,
0010
0000
0000
0000
,
0000
0000
0000
0000
,
0001
0000
0000
0000
,
0001
0000
0000
0000
,
0100
0000
0000
0000
,
0000
0000
0000
0000
,
0000
0000
1000
0000
,
0000
0000
1000
0000
,
0000
0000
0000
0000
,
0000
0000
1000
0000
,
0000
0000
0100
0000
,
0000
0000
0100
0000
,
0000
0000
0000
0000
,
0000
0000
0100
0000
,
0000
0000
0010
0000
,
0000
0000
0100
0000
,
0000
0000
0000
0000
,
0000
0000
0010
0000
,
0000
0000
0010
0000
,
0000
0000
0001
0000
,
0000
0000
0000
0000
,
0000
0000
1001
0000
,
0000
0000
0001
0000
,
0010
0000
0001
0000
,
0000
0000
0001
0000
,
0100
0000
0001
0000
,
0000
0000
0010
0000
,
0000
0000
0100
0000
,
0000
0000
0000
0000
,
0000
0000
0100
0000
,
0000
0000
0010
0000
,
0000
0000
1000
0000
,
0000
0000
0000
0000
,
0000
0000
0000
0000
,
1001
0000
0000
0000
,
0000
0000
0000
0000
,
1001
0000
0000
0000
,
0000
0000
1000
0000
,
0100
0000
0000
0000
,
0000
0000
0000
0000
,
0020
0000
0000
0000
,
0030
0000
0000
0000
,
0010
0000
0000
0000
,
0100
0000
0000
0000
,
0020
0000
0000
0000
,
0030
0000
0000
0000
,
0010
0000
0000
0000
,
0010
0000
0000
0000
,
0002
0000
0000
0000
,
0003
0000
0000
0000
,
0001
0000
0000
0000
,
0001
0000
0000
0000
,
0200
0000
0000
0000
,
0300
0000
0000
0000
,
0100
0000
0000
0000
,
1000
0000
0000
0000
,
1001
0000
0000
0000
,
0000
0000
0000
0000
;
#NOTES:
     dance-single:
     :
     Easy:
     7:
     :
0000
0000
0000
0000
,
0000
0000
0000
0000
,
0000
0000
0000
0000
,
0000
0000
0000
0000
,
0000
0000
0000
0000
,
0001
0001
0100
0100
,
0010
1000
0010
0000
,
1000
0100
1000
0100
,
0010
0001
1001
0000
,
1000
0010
1000
0010
,
0100
0001
0100
0000
,
0001
0010
0001
0010
,
0100
1000
0100
0000
,
1000
1000
0010
0000
,
0001
0001
0010
0000
,
1000
0001
1000
0001
,
2002
3003
1001
0000
,
0001
0100
0010
1000
,
0001
0000
1001
0000
,
1000
0100
0010
0001
,
1000
0000
0110
0000
,
0001
0010
0001
0100
,
0010
0000
0110
0000
,
1000
0010
1000
0100
,
0010
0000
0001
0100
,
0001
0100
0010
0010
,
0010
0000
1000
0100
,
1000
0100
0010
0010
,
0010
0000
0001
1000
,
0100
1000
0001
0100
,
0001
0000
1000
0010
,
0100
0001
2000
0000
,
0000
3000
1000
1000
,
0100
0100
0010
0000
0001
0000
0001
0000
,
0100
0100
0010
0000
1000
0000
0001
0000
,
0100
0010
1000
0000
0001
0000
1000
0000
,
0100
0010
0001
0000
1000
0000
0100
0000
,
0010
0100
1000
0001
,
0010
0000
0001
0100
,
0010
1000
0010
0100
,
0001
0000
1000
0100
,
1000
0100
1000
0001
,
0100
0000
0001
0010
,
0100
1000
0002
0003
,
0001
0001
0011
0000
,
1000
1000
1100
0000
,
0001
0100
1000
0100
,
0001
0001
1000
0000
,
0010
0000
0010
0000
0010
0010
0010
0000
,
1000
0001
0100
0010
,
0220
0000
0000
0330
,
0001
0010
0001
0100
,
0010
1000
0100
0000
,
1000
0001
0100
0010
,
1000
0001
1000
0000
,
1000
0100
1000
0010
,
0100
0001
0010
0000
,
0001
1000
0010
0100
,
0001
1000
0001
0000
,
0001
0010
0001
0010
,
1000
0010
0001
0000
,
1000
0100
0010
0001
,
0100
0010
1000
0000
,
1000
0010
1000
0010
,
0001
0010
1000
0000
,
0001
0100
0001
1000
,
0100
0010
0001
1001
,
0000
0000
0000
0000
;
#NOTES:
     dance-single:
     :
     Medium:
     12:
     :
0000
0000
0000
0000
,
0000
0000
0000
0000
,
0000
0000
0000
0000
,
0000
0000
0000
0000
,
0000
0000
0000
0000
,
1000
0000
0000
0010
0000
0000
1000
0000
0000
0001
0000
1000
0000
0000
0001
0010
,
0001
0000
0000
0101
0000
0000
1000
0010
1000
0000
0000
1100
0000
0100
0000
1000
,
0000
0001
0000
0001
0000
0000
0000
1001
0000
0000
0000
0110
0000
0000
0001
0000
,
0010
0000
0000
0010
0000
0100
0000
0010
0200
0000
0000
0000
0010
0000
0310
0000
,
0001
0000
0100
0000
0001
0100
0001
0000
,
1000
0000
0100
0000
1000
0100
1000
0000
,
0001
0000
0010
0000
0001
0010
0001
0000
,
1000
0000
0010
0000
1000
0010
1000
0000
,
0001
0010
0100
0000
1000
0100
0010
0000
,
0001
0100
0010
0000
1000
0010
0100
0000
,
0001
1000
0001
1000
0001
1000
0001
1000
,
0002
0000
0000
0000
1003
0000
1000
0100
,
0010
0000
0110
0000
0010
0001
0010
0000
,
0011
0000
1001
0000
0001
0100
0001
0000
,
1000
0100
1000
0000
0010
0100
0000
0010
,
0100
0000
0110
0000
1001
0000
0001
0010
,
0100
0000
0110
0000
0100
1000
0100
0000
,
1100
0000
1001
0000
0001
0100
0001
0000
,
0010
0001
0100
0010
2000
0000
0000
0000
,
0000
0000
3000
0000
1000
0000
0100
0010
,
0100
1000
0011
1100
,
0011
0000
1100
0000
0001
1000
0100
0000
,
1000
0001
0100
0000
0010
0100
0000
0010
,
0100
0000
0001
1000
0001
0100
0001
0000
,
0011
0000
0101
0000
1000
0100
0001
0000
,
0001
0100
1000
0000
0010
1000
0000
0100
,
1000
0000
0010
0100
0002
0000
0000
0000
,
0000
0000
0003
0000
1000
0100
1000
0010
,
0000
0100
0110
0000
0001
0100
0001
0010
,
0000
0100
0110
0000
1000
0010
0001
0010
,
0000
0110
1001
0000
0001
0010
1000
0010
,
0000
0110
1001
0000
1000
0000
0010
0000
,
0100
0000
0001
1000
0000
0010
0000
0100
,
0000
0001
1000
0000
0001
0010
0100
1000
,
0010
0100
0001
1000
0100
0010
0000
0110
,
0000
1000
0001
1000
0000
0000
1001
0000
,
1000
0010
0000
0100
0000
0101
0000
1001
,
0000
0000
0001
0010
0100
1000
0100
1000
,
0010
1000
0010
1000
0002
0000
0003
0000
,
0011
1010
0101
1100
,
0011
1100
1010
0101
,
1000
0000
1000
0100
0000
0100
0010
0001
,
1000
0010
0001
0010
2000
0000
3000
0000
,
0000
0100
0100
0100
0100
0100
0100
0000
,
1000
0010
1000
0000
0001
0010
0001
0000
,
1000
0001
1000
0001
1000
0000
1001
0000
,
0001
0100
0001
0100
0010
0100
0010
0000
,
1000
0100
1000
0100
0010
0100
0010
0000
,
0001
1000
0010
0000
1000
0001
0010
0000
,
0001
0010
0100
1000
0001
0100
0001
0000
,
1000
0010
0100
0010
1000
0100
0010
0000
,
0001
0010
0100
0010
0001
0100
0010
0000
,
0100
0001
0010
0000
0100
1000
0010
0000
,
0100
0001
2000
0000
0001
0000
3001
0000
,
1000
0100
0010
0100
1000
0001
0100
0000
,
0010
0100
0001
0010
0100
0010
0001
0000
,
1000
0100
0001
0100
1000
0001
1000
0000
,
0001
0100
1000
0100
0001
1000
0001
0000
,
1000
0010
0100
0001
0010
0100
0010
0000
,
0001
0010
1000
0010
0100
0010
0001
0000
,
1000
0100
0001
0100
0010
0100
1000
0100
,
0010
0001
0100
0010
1000
0100
0000
0110
,
0000
0000
0000
0000
;
#NOTES:
     dance-single:
     :
     Hard:
     17:
     :
0000
0000
0000
0000
,
0000
0000
0000
0000
,
0000
0000
0000
0000
,
0000
0000
0000
0000
,
0000
0000
0000
0000
,
0010
0000
0000
0100
0000
0000
1001
0000
0001
0100
0010
0100
0000
0000
0010
1000
,
0010
1000
0000
1001
0000
0000
0010
0100
0010
0001
0000
1001
0000
1000
0000
0001
,
0000
0011
0000
0010
0001
0010
0000
0110
0000
0100
0000
1000
0000
0000
0001
0100
,
1000
0000
0000
1100
0000
1000
0000
1000
0100
0001
0000
1000
0000
0001
2000
0000
,
3001
0010
0001
0010
0001
0100
0001
0100
,
0010
1000
0010
1000
0100
1000
0100
1000
,
0001
1000
0100
0010
0001
0010
0100
1000
,
0010
0100
0010
0100
0001
1000
0001
0000
,
1000
0100
0010
0001
1000
0100
0010
0001
,
1000
0010
0100
0001
1000
0010
0100
0001
,
1000
0100
1000
0100
1000
0100
1000
0100
0010
0001
0010
0001
0010
0001
0010
0001
,
2000
0000
0000
0000
0000
0000
3000
0000
0001
0000
0010
0100
1000
0000
0100
0010
,
0001
0000
1000
0010
0100
0000
0001
0100
0010
0000
1000
0100
1000
0000
0001
0100
,
0001
0000
1000
0010
1000
0000
0001
0010
0001
0000
0010
0001
0100
0000
0010
1000
,
0100
0000
1000
0010
0100
0000
0001
0010
0100
0000
1000
0000
0000
0000
0100
0000
,
0001
0000
0000
0000
0110
0000
0000
0000
1001
0000
0000
0000
1000
0000
0010
0100
,
0001
0000
0010
0100
1000
0000
0010
1000
0100
0000
0010
0001
0100
0000
0001
1000
,
0010
0000
0100
0001
0010
0000
0100
1000
0010
0000
0010
0000
0110
0000
0000
0000
,
1000
0000
0001
0010
0001
0000
1000
0100
1000
0000
0000
0000
0001
0100
0010
1000
,
0001
0100
0010
1000
0001
0000
0000
0000
1001
0000
0000
0000
0001
0000
0010
0100
,
0010
0000
0001
1000
0100
0000
0010
0001
0100
0000
0001
1000
0010
0000
0100
0010
,
1000
1000
1001
0000
0010
0010
0110
0000
,
0001
0000
0100
0010
1000
0000
0010
0100
0001
0000
0020
0000
0000
0000
0031
0000
,
0200
0000
0310
0010
0100
0100
0110
0000
,
1000
0000
0001
0100
0001
0000
1000
0100
1000
0000
0001
0010
0100
0000
0000
0000
,
1000
0001
1001
0000
1000
0010
0000
0001
,
0010
0000
0000
0000
1000
0000
0001
0000
1001
0000
0000
0000
1000
0100
0010
0001
,
1000
0001
0010
0100
1000
0000
0000
0000
0001
0000
1001
0000
0001
0010
0100
0010
,
1000
0010
0100
0010
0000
0010
0001
0000
1000
0000
1001
0000
1000
0010
0100
0010
,
0001
0010
0100
0010
0000
0010
1000
0000
0001
0000
1001
0000
0001
0100
0010
0100
,
1000
0100
0010
0100
0000
0100
0001
0000
1000
0000
1001
0000
1000
0100
0010
0100
,
0001
0100
0010
0100
0000
0100
1000
0000
0001
0000
0010
0000
1001
0000
1000
0000
,
0100
0010
0011
0001
0100
0010
0101
0001
,
1000
0100
0110
0010
0001
0010
1100
1000
,
0010
0100
1001
0001
1000
0010
0101
0001
,
0100
0010
1001
1000
0010
0100
1100
0100
,
0001
0010
0011
0001
1000
0100
0101
0100
,
0010
0000
0001
0000
0101
0000
0100
0000
0010
1000
0010
1000
0001
0100
0001
0100
,
0001
0010
0001
0010
0100
1000
0100
1000
0200
0000
0010
0010
0310
0000
0110
0000
,
1000
0100
0010
0100
1000
0100
0010
0100
1000
0100
0010
0100
1000
0100
0010
0100
,
1000
0001
0010
0001
1000
0100
0000
0100
0010
0001
0000
0000
1000
0001
0000
0001
,
1000
0000
0010
1000
0100
0010
0001
0100
,
0010
1000
0100
0010
0001
0010
0100
1000
0020
0000
0000
0000
0130
0000
0000
0000
,
0001
0000
0000
0011
0000
0000
1100
0000
0000
0011
0000
0000
0101
0000
0000
1010
0000
0000
0001
0100
0010
1000
0000
0000
,
0001
0010
0010
0000
0110
0000
0110
0000
,
1000
0000
0001
0000
1000
0100
0010
0001
1000
0000
0000
0000
1001
0000
0000
0000
,
0001
0000
0100
0000
0010
1000
0010
0100
0010
0000
1000
0000
0100
0010
0001
0010
,
0100
0000
1000
0000
0001
0100
0010
1000
0010
0000
0100
0000
1000
0000
0100
0000
,
0001
0000
0000
0001
0010
0000
0000
0000
0001
0100
0001
0000
1000
0100
1000
0000
,
0001
1000
0100
0000
0010
0001
1000
0000
0010
0100
0010
0000
0110
0000
0000
0000
,
1000
0000
0010
0000
0100
0001
0100
0010
0100
0000
0001
0000
0010
0100
1000
0100
,
0010
0000
0001
0000
1000
0010
0100
0001
0100
0000
0010
0000
0001
0000
0010
0000
,
1000
0010
0000
1000
0100
0000
0000
0000
1000
0000
0010
0000
1001
0000
0000
0000
,
0001
0100
2000
0000
3200
0000
0301
0000
,
1000
0100
1000
0100
1000
0000
0010
0000
0100
0001
0100
0001
0100
0000
0001
0000
,
0010
0001
1000
0001
0010
0000
0100
0000
1000
0010
0100
0001
1000
0000
0000
0000
,
0001
0010
0001
0010
0001
0000
0100
0000
0010
1000
0010
1000
0010
0000
1000
0000
,
0100
1000
0001
1000
0100
0000
0010
0000
0001
0100
0010
1000
0001
0000
0000
0000
,
1000
0010
1000
0010
0100
0000
1000
0000
0100
0010
1000
0100
0010
0000
0001
0000
,
0010
0100
0010
0100
0001
0000
0100
0000
0010
0001
0100
0010
0001
0000
0000
0000
,
0010
1000
0010
1000
0010
1000
0010
1000
0001
0100
0001
0100
0001
0100
0001
0100
,
0001
0000
1000
0000
0100
0010
0001
0100
0010
1000
0100
0010
0002
0000
0000
0000
,
0003
0000
0000
0000
,
0000
0000
0000
0000
;
#NOTES:
     dance-double:
     :
     Easy:
     7:
     :
00000000
00000000
00000000
00000000
,
00000000
00000000
00000000
00000000
,
00000000
00000000
00000000
00000000
,
00000000
00000000
00000000
00000000
,
00000000
00000000
00000000
00000000
,
10000000
00010000
10000000
00010000
,
00100000
00001000
00100000
00000000
,
00001000
00010000
00001000
00010000
,
00000100
00001000
00000100
00000000
,
00001000
00000001
00000100
00000000
,
00000001
00001000
00000100
00000000
,
00001000
00000001
00001000
00000010
,
00010000
00001000
00010000
00000000
,
00001000
00100000
00010000
00000000
,
00100000
00001000
00010000
00000000
,
00001000
00001000
00010000
00010000
,
00022000
00033000
00011000
00000000
,
00001000
01000000
00001000
01000000
,
00010000
00000000
01100000
00000000
,
10000000
00100000
10000000
00100000
,
01000000
00000000
10010000
00000000
,
10000000
01000000
00100000
00001000
,
00010000
00000000
00011000
00000000
,
00001000
00010000
00001000
00010000
,
00000100
00000000
00001000
00000100
,
00000010
00000000
00000001
00000100
,
00000010
00000000
00001000
00000100
,
00000001
00000100
00001000
00000100
,
00010000
00000000
00001000
01000000
,
00010000
00000000
00100000
00001000
,
00010000
00000000
00001000
01000000
,
00010000
00100000
02000000
00000000
,
00000000
03000000
10000000
10000000
,
01000000
00000000
01000000
00000000
00100000
00010000
00100000
00000000
,
00001000
00010000
00001000
00000000
00000010
00000000
00000010
00000000
,
00000001
00000000
00000001
00000000
00001000
00000100
00001000
00000000
,
00000001
00000100
00000001
00000000
00001000
00000000
00000001
00000000
,
00000010
00000100
00001000
00000100
,
00010000
00000000
00001000
01000000
,
00010000
00000000
00100000
00010000
,
01000000
00000000
00100000
10000000
,
00100000
10000000
01000000
00010000
,
01000000
00000000
00010000
00001000
,
00010000
00000000
00022000
00033000
,
00011000
00000000
00001100
00000000
,
00000101
00000000
00001001
00000000
,
00000001
00000100
00001000
00000100
,
00000002
00000000
00000003
00000000
,
00000110
00000000
00011000
00000000
,
00002000
00000000
00000000
00003000
,
00020000
00000000
00000000
00030000
,
00001000
00010000
00100000
00000000
,
10000000
00010000
01000000
00000000
,
00010000
00100000
01000000
10000000
,
00010000
00000000
10000000
00000000
,
01000000
00100000
00010000
00000000
,
00100000
01000000
00010000
00000000
,
00001000
00000010
00000100
00000010
,
00000001
00000000
00001001
00000000
,
00000001
00000100
00000010
00000100
,
00000001
00000010
00000100
00000000
,
00000010
00000001
00000100
00001000
,
00010000
00001000
00010000
00000000
,
00001000
00100000
00010000
00100000
,
00001000
00010000
00001000
00000000
,
00010000
00001000
01000000
00010000
,
00100000
01000000
10000000
10010000
,
00000000
00000000
00000000
00000000
;
#NOTES:
     dance-double:
     :
     Medium:
     12:
     :
00000000
00000000
00000000
00000000
,
00000000
00000000
00000000
00000000
,
00000000
00000000
00000000
00000000
,
00000000
00000000
00000000
00000000
,
00000000
00000000
00000000
00000000
,
10000000
00000000
00000000
10000000
00000000
00000000
10010000
00000000
00010000
00000000
00100000
00000000
00001000
00010000
00001000
00000000
,
00010000
00000100
00000000
00001100
00000000
00000000
00000001
00000010
00000001
00000000
00000000
00001001
00000000
00000000
00000000
00000000
,
00001000
00000001
00000000
00000001
00000100
00000001
00000000
00001000
00000100
00000000
00010000
00000000
00001000
00000000
00101000
00000000
,
00100000
00000000
00010000
01000000
00000000
00010000
00000000
01000000
00200000
00000000
00000000
00000000
00000000
00000000
00300000
00000000
,
10000000
00000000
00100000
00000000
01000000
00100000
01000000
00000000
,
00010000
00000000
10000000
00000000
01000000
00100000
00010000
00000000
,
00100000
00000000
00001000
00000000
00010000
00001000
00010000
00000000
,
00001000
00000000
00010000
00000000
00000100
00001000
00000100
00000000
,
00000010
00000001
00000100
00000000
00000010
00001000
00000100
00000000
,
00000010
00000001
00000100
00000000
00001000
00010000
00001000
00000000
,
00010000
00001000
00010000
00001000
00100000
00010000
00100000
00010000
,
00200000
00300000
00110000
00110000
,
01100000
01100000
11000000
11000000
,
10000000
00010000
10000000
00000000
10100000
00000000
10100000
00000000
,
01100000
01100000
01010000
01010000
,
00010000
01000000
00001000
00000000
00011000
00000000
00011000
00000000
,
00010100
00010100
00001100
00001100
,
00001000
00000010
00001000
00000000
00001010
00000000
00001010
00000000
,
00000110
00000110
00002002
00000000
,
00000000
00003003
00000011
00000101
,
00001010
00000000
00001100
00000000
00000100
00010000
00001000
00000000
,
00010000
00001000
00100000
00000000
00110000
00000000
01010000
00000000
,
10100000
00000000
11000000
00000000
10000000
00010000
00000000
10000000
,
00010000
10010000
11000000
01100000
,
00101000
00011000
00010100
00001100
,
00001000
00000100
00000010
00000000
00000011
00000000
00001100
00000000
,
00000101
00000000
00000001
00001000
00000002
00000000
00000000
00000000
,
00000000
00000000
00000003
00000000
00000001
00000100
00000001
00000100
,
00000010
00000100
00000010
00000000
00001000
00000010
00001000
00000010
,
00010000
00001000
00010000
00000000
00001000
00010000
00100000
10000000
,
00010000
00010000
01100000
00000000
10000000
01000000
00010000
00001000
,
00000010
00000100
00001001
00000000
00000001
00000000
00000100
00000000
,
00000010
00000000
00001000
00000001
00000000
00000100
00000000
00000010
,
00000000
00001000
00000001
00000000
00000010
00000100
00001000
00000100
,
00010000
00001000
00100000
00010000
01000000
00010000
00100000
01000000
,
10000000
00010000
10000000
00100000
00000000
00000000
01100000
00000000
,
10000000
00100000
10000000
00100000
00000000
01000000
00010000
01000000
,
00000000
00000000
00010000
00100000
00001000
00010000
00001000
00000000
,
00000010
00000100
00000010
00000000
00002002
00000000
00003003
00000000
,
00000001
00000100
00001000
00000100
00000001
00000100
00001000
00000100
,
00000001
00000100
00001000
00000000
00010000
00100000
10000000
00000000
,
10000000
01000000
00010000
01000000
10000000
01000000
00010000
01000000
,
10000000
01000000
00010000
00000000
00001000
00000000
00011000
00000000
,
00000000
00011000
00011000
00011000
00011000
00011000
00011000
00000000
,
00001000
00010000
00000100
00000000
00001000
00000100
00000010
00000000
,
00000001
00001000
00000001
00001000
00000001
00000000
00001001
00000000
,
00001000
00000010
00001000
00000000
00000001
00000010
00000001
00000000
,
00000100
00000001
00000010
00000100
00001000
00000100
00010000
00000000
,
00001000
00100000
00001000
00000000
00010000
00100000
01000000
00000000
,
00010000
10000000
01000000
00100000
00010000
01000000
00100000
00000000
,
10000000
01000000
00010000
00000000
00010000
01000000
10000000
00000000
,
00100000
01000000
00010000
00100000
00001000
00010000
00000100
00000000
,
00001000
00000010
00000001
00000000
00000001
00000010
00001000
00000000
,
00000001
00000100
00000010
00001000
00000100
00000010
00000001
00000000
,
00001000
00000010
00001000
00000010
00000100
00000010
00000100
00000000
,
00000010
00001000
00000010
00010000
00001000
00010000
00001000
00000000
,
00100000
00001000
00100000
00001000
01000000
00010000
01000000
00000000
,
00010000
00100000
01000000
00000000
10000000
00100000
01000000
00000000
,
00010000
10000000
01000000
00100000
00010000
00100000
00001000
00000000
,
00010000
00001000
00010000
00000010
00001000
00000100
00001000
00000000
,
00000001
00000100
00000010
00000000
00001000
00000100
00000010
00000000
,
00000001
00000100
00001000
00010000
00000000
00100000
01000000
00100000
,
00000000
00000000
00000000
00000000
;
#NOTES:
     dance-double:
     :
     Hard:
     17:
     :
00000000
00000000
00000000
00000000
,
00000000
00000000
00000000
00000000
,
00000000
00000000
00000000
00000000
,
00000000
00000000
00000000
00000000
,
00000000
00000000
00000000
00000000
,
10000000
00000000
00100000
01000000
00100000
00000000
10000000
00010000
10000000
01000000
00000000
00100000
00000000
00000000
01100000
00000000
,
00100000
00001000
00010000
00001000
00000000
00000000
00001000
00010000
00000010
00001000
00000000
00001010
00000000
00000010
00000000
00000100
,
00000000
00000001
00000000
00000001
00000010
00000001
00000000
00001001
00000000
00000001
00000000
00000100
00000000
00000000
00000001
00000100
,
00001000
00000000
00010000
00001000
00000000
00011000
00000000
00001000
00010000
00100000
00000000
02200000
00000000
00000000
03300000
00000000
,
00100000
10000000
00100000
10000000
00100000
01000000
00100000
01000000
,
00010000
00100000
01000000
10000000
01000000
00010000
00001000
00000000
,
00010000
00000100
00010000
00000100
00001000
00000100
00001000
00000100
,
00000010
00000001
00000100
00000001
00000010
00000100
00001000
00000000
,
00000001
00000100
00001000
00010000
00000010
00000100
00001000
00010000
,
00100000
01000000
00001000
00010000
01000000
00100000
00001000
00010000
,
01000000
00000000
10000000
01000000
10000000
00000000
00010000
00100000
00010000
00000000
00100000
00001000
00010000
00001000
00010000
00000000
,
00022000
00000000
00000000
00000000
00000000
00000000
00033000
00000000
00010000
00000000
00000100
00001000
00000100
00000000
00000010
00000001
,
00000010
00000000
00000001
00001000
00000001
00000000
00000100
00000010
00000100
00000000
00001000
00010000
00001000
00000000
00100000
00010000
,
00100000
00000000
00010000
01000000
00010000
00000000
00100000
01000000
00100000
00000000
00010000
10000000
00010000
00000000
01000000
00010000
,
01000000
00000000
00001000
00100000
00001000
00000000
00010000
00001000
00010000
00000000
00001000
00000000
00000000
00000000
00000100
00000000
,
00000002
00000000
00000000
00000000
00001003
00000000
00000000
00000000
00001001
00000000
00000000
00000000
00000001
00000000
00001000
00000100
,
00001000
00000000
00000010
00010000
00000010
00000000
00010000
00001000
00010000
00000000
00001000
01000000
00001000
00000000
00100000
00010000
,
00100000
00000000
01000000
10000000
01000000
00000000
10000000
00010000
10000000
00000000
00100000
00000000
01100000
00000000
00000000
00000000
,
10000000
00000000
01000000
00000000
00010000
00001000
00010000
00001000
00000010
00000000
00000000
00000000
00000001
00000010
00000000
00000010
,
00000100
00001000
00000000
00001000
00000001
00000000
00000000
00000000
00001001
00000000
00000000
00000000
00000001
00000000
00000100
00000010
,
00001000
00000000
00000010
00010000
00001000
00000000
00010000
00001000
00100000
00000000
00010000
01000000
00100000
00000000
10000000
01000000
,
00100000
00000000
00010000
10000000
00010000
00000000
00000000
00000000
10000000
00000000
00100000
00010000
00001000
00000000
00000000
00000000
,
00011000
00000000
00010000
00000010
00010000
00000000
00000100
00001000
00000100
00000000
00001000
00000000
00000000
00000000
00000001
00000000
,
00000100
00000000
00000010
00000010
00000100
00000100
00000110
00000000
,
00000001
00000000
00000100
00000010
00000100
00000000
00001000
00010000
00001000
00000000
00010000
00001000
01000000
00000000
00000000
00000000
,
00010000
01000000
10000000
00000000
01100000
00000000
00000000
10010000
,
00000000
00000000
00000000
00000000
10000000
00000000
00100000
00000000
00010000
00000000
00000000
00000000
00001000
00010000
00001000
00010000
,
00001000
00010000
00001000
00010000
00001000
00000000
00000000
00000000
00010000
00000100
00000010
00000001
00000100
00000010
00010000
00001000
,
00000100
00000010
00000100
00001000
00010000
00100000
10000000
00000000
00010000
10000000
01000000
00010000
00000100
00000010
00000001
00000100
,
00001000
00000001
00000010
00010000
00001000
00000010
00000001
00000000
00000100
00000001
00000010
00001000
00010000
00100000
10000000
00010000
,
01000000
10000000
01000000
00001000
00010000
00000100
00001000
00000000
00000001
00000100
00000010
00001000
00010000
01000000
00100000
10000000
,
01000000
00010000
00000100
00000010
00000001
00001000
00000001
00000000
00001000
00000000
00000100
00000000
00000001
00000000
00000100
00000000
,
00001000
00000010
00000001
00000010
00001000
00000100
00000010
00000001
,
00000100
00001000
00011000
00010000
00100000
10000000
01000000
00010000
,
01000000
10000000
00100000
00010000
00100000
10000000
01000000
00010000
,
00011000
00001000
00011000
00000000
00010000
00000010
00001010
00001000
,
00000001
00000010
00001000
00010000
01000000
10000000
10100000
00100000
,
01000000
00000000
10000000
00000000
01000000
00000000
00010000
00000000
10000000
01000000
00100000
00000000
01000000
00100000
00010000
00000000
,
00100000
00001000
00100000
00001000
00010000
00001000
00010000
00001000
00020000
00000000
00000000
00000000
00000000
00000000
00030000
00000000
,
00010000
00000010
00010000
00000010
00010000
00000010
00010000
00000010
00001000
00000010
00001000
00000010
00001000
00000010
00001000
00000010
,
00000100
00000001
00000100
00000001
00000100
00000001
00000100
00000001
00002000
00000000
00000000
00000000
00003000
00000000
00000000
00000000
,
00000001
00000010
00000110
00000100
00010000
00001000
00011000
00010000
,
01000000
00100000
00010000
00000000
10000000
01000000
00100000
00010000
20000000
00000000
00000000
00000000
30000000
00000000
00000000
00000000
,
00000000
00000000
00000000
00000000
00000000
00000000
11000000
00000000
00000000
00000000
00000000
00000000
00110000
00000000
00000000
00000000
00000000
00000000
00001100
00000000
00000000
00000000
00000000
00000000
00000011
00000000
00000000
00000000
00000000
00000000
00000001
00000000
00000000
00000100
00000000
00000000
00001000
00000000
00010000
00000000
00001000
00000000
00010000
00000000
00000000
00000000
00000000
00000000
,
00001000
00010000
00100000
00000000
00010000
00001000
00000010
00000000
,
00001000
00010000
01000000
00000000
00010000
00001000
00000100
00000000
,
00000001
00000000
00001000
00000000
00000100
00000010
00000100
00000010
00000100
00000000
00001000
00000000
00000010
00010000
00000010
00010000
,
00000010
00000000
00000100
00000000
00001000
00010000
00001000
00010000
00001000
00000000
00010000
00000000
00100000
01000000
00100000
00000000
,
10000000
00000000
00000000
10000000
00010000
00000000
00000000
00000000
10000000
00100000
10000000
00000000
00010000
01000000
00010000
00000000
,
10000000
00000000
00100000
01000000
00010000
00000000
00100000
00001000
00010000
00000000
00001000
00010000
00000100
00000000
00001000
00000000
,
00000010
00000000
00000100
00000000
00000001
00000010
00000001
00001000
00000001
00000000
00000100
00000000
00000010
00010000
00000010
00010000
,
00001000
00000000
00010000
00000000
00001000
01000000
00001000
00010000
00001000
00000000
00100000
00000000
00010000
00100000
00010000
00100000
,
01000000
00000000
00000000
01000000
10000000
00000000
00000000
00000000
00100000
10000000
00010000
00000000
00100000
00010000
10000000
00000000
,
02000000
03020000
00032000
00003020
00000032
00000000
00001003
00000000
,
00000001
00000010
00000100
00001000
00000001
00000000
00000000
00000000
00000100
00000010
00001000
00000010
00010000
00000000
00000000
00000000
,
00001000
00010000
00001000
00000000
00100000
00010000
00100000
00000000
00010000
01000000
00100000
01000000
00010000
00000000
00000000
00000000
,
10000000
00100000
01000000
00010000
10000000
00000000
00000000
00000000
01000000
00100000
00010000
00100000
00001000
00000000
00000000
00000000
,
00010000
00001000
00010000
00000000
00000010
00001000
00000010
00000000
00001000
00000100
00000010
00000100
00001000
00000000
00000000
00000000
,
00000001
00000010
00000100
00001000
00000001
00000000
00000010
00000000
00001000
00000000
00010000
00000000
00001000
00010000
00001000
00000000
,
00010000
00100000
01000000
00010000
01000000
00000000
00100000
00000000
10000000
00000000
01000000
00000000
00100000
00010000
00100000
00000000
,
00010000
10000000
00010000
10000000
00010000
00100000
00010000
00100000
00001000
00010000
00001000
00010000
00000100
00001000
00000100
00001000
,
00000100
00000000
00000010
00000001
00000100
00000000
00000010
00001000
00000100
00000000
00010000
00001000
00020000
00000000
00000000
00000000
,
00030000
00000000
00000000
00000000
,
00000000
00000000
00000000
00000000
;
