
//----- song ID: debu -----//
#TITLE:Debug Dance;
#ARTIST:lapix;
#BANNER:Debug Dance.png;
#BACKGROUND:Debug Dance-bg.png;
#CDTITLE:./CDTitles/MUSECA 1_1.5.png;
#MUSIC:Debug Dance.ogg;
#SAMPLESTART:89.008;
#SAMPLELENGTH:15;
#BPMS:0=151;
#STAGE:15;
#NOTES:
     dance-single:
     :
     Beginner:
     3:
     :
0000
0000
0000
0000
,
0000
0000
0000
0000
,
0000
0000
0000
0000
,
0000
0000
0000
0000
,
0000
0000
0000
0000
,
0010
0000
0010
0000
,
0100
0000
0100
0000
,
0001
0000
0001
0000
,
1001
0000
0000
0000
,
0001
0001
0001
0000
,
1000
1000
1000
0000
,
0020
0000
0030
0000
,
0100
0000
0100
0000
,
0010
0010
0010
0000
,
0100
0100
0100
0000
,
0002
0000
0000
0000
,
0000
0000
0003
0000
,
1000
0000
1000
0000
,
0010
0000
0010
0000
,
0100
0000
0100
0000
,
0001
0000
0001
0000
,
0010
0010
0010
0000
,
0100
0100
0100
0000
,
1000
1000
1000
0000
,
0001
0001
0001
0000
,
1001
0000
0000
0000
,
1001
0000
0000
0000
,
0110
0000
0000
0000
,
0110
0000
0000
0000
,
0200
0000
0300
0000
,
0200
0000
0300
0000
,
0020
0000
0030
0000
,
0020
0000
0030
0000
,
2000
0000
0000
0000
,
0000
0000
3000
0000
,
0002
0000
0000
0000
,
0000
0000
0003
0000
,
0020
0000
0000
0000
,
0000
0000
0030
0000
,
0200
0000
0000
0000
,
0000
0000
0300
0000
,
1000
0000
0100
0000
,
1000
1000
1000
0000
,
0001
0000
0100
0000
,
0001
0001
0001
0000
,
0010
0000
0100
0000
,
0010
0010
0010
0000
,
0100
0000
0010
0000
,
0100
0100
0100
0000
,
1000
0000
0100
0000
,
1000
0000
0001
0000
,
0100
0000
0001
0000
,
0010
0000
0001
0000
,
1000
1000
1000
0000
,
0001
0001
0001
0000
,
0010
0000
0100
0000
,
0010
0010
0010
0000
,
0001
0000
0010
0000
,
0001
0001
0001
0000
,
1000
0000
0010
0000
,
1000
1000
1000
0000
,
0010
0000
0100
0000
,
0001
0001
0001
0000
,
0100
0000
0010
0000
,
1000
1000
1000
0000
,
0001
0000
0010
0000
,
0100
0100
0100
0000
,
1000
0000
0010
0000
,
0100
0100
0100
0000
,
0001
0000
1000
0000
,
0001
0001
0001
0000
,
1000
0000
0001
0000
,
1000
1000
1000
0000
,
1001
0000
0000
0000
,
0000
0000
0000
0000
;
#NOTES:
     dance-single:
     :
     Easy:
     8:
     :
0000
0000
0000
0000
,
0000
0000
0000
0000
,
0000
0000
0000
0000
,
0000
0000
0000
0000
,
0000
0000
0000
0000
,
1000
0010
0100
0001
,
0010
0010
0100
0100
,
1000
0100
1000
0000
0001
0000
0100
0000
,
0220
0000
0000
0330
,
0010
1000
0010
0100
,
0001
0010
0001
0100
,
0000
0001
0000
1000
0000
0001
0000
1000
,
0001
1000
0001
1000
0000
0000
0000
0000
,
0010
0000
0100
0000
0010
1000
0010
0000
,
0100
0000
0001
0000
0100
0001
0100
0000
,
0001
0001
1000
1000
,
0002
0000
0203
0000
,
0310
0110
0001
1001
,
0001
0010
0100
1000
,
0100
0110
1000
1001
,
0001
0100
0010
1000
,
0001
0001
1000
1000
,
0010
0100
0010
0100
,
0110
0110
1001
1001
,
0001
0010
0100
1000
,
0002
0003
0002
0003
,
1000
0000
0000
1000
0000
0000
1000
0000
0000
1000
0000
0000
0000
0000
0000
0000
,
2000
3000
2000
3000
,
0001
0000
0000
0001
0000
0000
0001
0000
0000
0001
0000
0000
0000
0000
0000
0000
,
2000
0000
0000
3000
,
0020
0000
0000
0030
,
0200
0000
0000
0300
,
0002
0000
0000
0000
1000
1000
1003
0000
,
2002
0000
0000
3003
,
0001
0010
0100
1000
,
2002
0000
0000
3003
,
1000
0010
0100
0001
,
2002
0000
0000
3003
,
0001
0100
0010
1000
,
2002
0000
0000
3003
,
1000
0000
0001
0000
0100
0010
0100
0000
,
0010
1000
0010
1000
,
0001
0000
0100
0000
0001
0100
0001
0000
,
0010
0001
0010
0001
,
1000
0000
0100
0000
1000
0100
1000
0000
,
0010
0100
0010
0100
,
0001
0000
1000
0000
0001
1000
0001
0000
,
1000
0010
0100
0001
,
0010
0000
0100
0000
1000
0001
1000
0000
,
0001
0001
0010
0010
,
0100
0100
1000
1000
,
0010
1000
0010
0000
1000
0010
1000
0000
,
0010
0100
0001
1000
,
1001
0000
0001
1000
,
0110
0000
0100
0010
,
1001
0110
1001
0110
,
2002
0000
0000
3003
,
0001
0100
0010
1000
,
0001
0000
0010
0000
0100
0100
0100
0000
,
1000
0010
0100
0001
,
0010
0000
0100
0000
0010
0010
0010
0000
,
0001
0100
0010
1000
,
0001
0000
0100
0000
0001
0001
0001
0000
,
1000
0010
0100
0001
,
0010
0000
0100
0000
1000
1000
1000
0000
,
0010
1000
0010
0100
,
0001
0010
0110
1001
,
0001
1000
0010
0100
,
0001
0010
0110
1001
,
0001
0000
0100
0000
0001
0001
0001
0000
,
1000
0000
0100
0000
1000
1000
1000
0000
,
0010
1000
0001
0100
,
0020
0000
0000
0030
,
0110
0000
0000
0000
,
0000
0000
0000
0000
;
#NOTES:
     dance-single:
     :
     Medium:
     11:
     :
0000
0000
0000
0000
,
0000
0000
0000
0000
,
0000
0000
0000
0000
,
0000
0000
0000
0000
,
0000
0000
0000
0000
,
1000
0010
1000
0000
0001
0000
0001
0000
,
1000
0010
0100
0001
,
0010
0001
0010
0000
0100
0000
0100
0000
,
1100
0011
1010
0101
,
0100
0010
1000
0000
0001
0000
1000
0000
,
0100
0010
0001
0000
0010
0000
0100
0000
,
0000
1010
0000
0001
0000
0011
0000
1000
,
0001
0100
0010
1000
0000
0000
0000
0000
,
0001
0000
0100
0000
0001
0010
0100
0000
,
1000
0000
0100
0000
1000
0010
0100
0000
,
0010
0010
0100
0000
0001
0001
1000
0000
,
0010
0000
0100
0000
0001
0010
0100
0000
,
1000
0011
0100
1010
,
0010
0000
0100
0000
0001
1000
0001
0000
,
1000
0100
0001
0000
0001
0100
1000
0000
,
0001
0001
1000
1000
0010
0100
0010
0000
,
0100
1010
0100
0011
,
0001
0100
1000
0100
0002
0000
1003
0000
,
1010
1100
0011
0101
,
0001
0010
0001
0010
0100
1000
0001
0000
,
0002
0000
2003
0000
,
3010
0000
0000
0100
0000
0000
0010
0000
0000
0100
0000
0000
0110
0000
0000
0000
,
0200
0000
0320
0000
,
1030
0000
0000
0001
0000
0000
1000
0000
0000
0001
0000
0000
1001
0000
0000
0000
,
0001
0000
0001
0000
0001
0000
0010
0001
,
0100
0000
0100
0000
0100
0000
0100
0010
,
1000
0000
1000
0000
1000
0000
1000
0001
,
0100
0000
0001
1000
0000
0000
0001
0000
1000
0000
0010
0000
0100
0000
0000
0000
,
0020
0000
0000
0000
,
0130
0001
0010
0100
,
2000
0000
0000
0000
,
3010
0000
0100
0000
0001
0010
0100
0000
,
0020
0000
0000
0000
,
0031
0000
1000
0000
0001
0100
0010
0000
,
0200
0000
0000
0000
,
0310
0000
0100
0000
0010
1000
0001
0100
,
0010
0000
1000
0010
0100
0001
0010
0000
,
0011
0101
1010
1100
,
0001
0000
1000
0010
1000
0001
0010
0000
,
1100
1010
0101
0011
,
1000
0000
0001
0010
0100
1000
0001
0000
,
1010
0011
0101
1100
,
0001
0000
1000
0001
0010
0100
1000
0000
,
0011
1010
0101
1100
,
0001
0010
0100
0000
1000
0010
0100
0000
,
0001
1000
0010
0000
0100
0001
1000
0000
,
0001
0100
0001
0000
1000
0100
1000
0000
,
0001
0010
0100
1000
0001
0010
0100
1000
,
1001
1000
0010
0100
,
1001
0001
0010
0100
,
1010
1100
0011
0101
,
2002
0000
0000
3003
,
0001
0001
1000
0000
0001
0100
1000
0000
,
0100
0001
0010
0000
0100
1000
0010
0000
,
0100
0100
0010
0000
1000
0010
0001
0000
,
0010
0100
0010
0000
1000
0001
1000
0000
,
0010
0010
1000
0000
0001
0010
0100
0000
,
1000
0100
0001
0000
0001
0100
1000
0000
,
0001
0001
0010
0000
0001
0100
0010
0000
,
1000
0100
0010
0010
0001
1000
0100
0000
,
0010
0001
0100
0110
,
0010
1000
0010
1000
0001
0010
0100
0000
,
2000
3002
0013
0110
,
0100
1000
0100
1000
0001
0010
0001
0000
,
0002
0013
0200
1300
,
0010
0010
0010
0000
0100
0000
0110
0000
,
0010
1000
0010
0000
0100
0001
0100
0000
,
0001
0100
1000
0100
0001
0010
0100
0000
,
1001
0000
0000
0000
,
0000
0000
0000
0000
;
#NOTES:
     dance-single:
     :
     Hard:
     15:
     :
0000
0000
0000
0000
,
0000
0000
0000
0000
,
0000
0000
0000
0000
,
0000
0000
0000
0000
,
0000
0000
0000
0000
,
1000
0000
0100
0000
0010
0001
1000
0000
0001
0100
0000
0010
0000
0000
1001
0000
,
0001
0000
0100
0000
1000
0000
0100
0000
0001
0000
0000
1000
0000
0000
0001
0000
,
0100
0000
0010
0100
0010
0000
1000
0000
0001
0010
0000
0100
0000
0000
0110
0000
,
0000
1001
0000
0001
0100
0010
1000
0001
,
0011
0000
0001
0010
0100
0000
1000
0000
0001
1000
0000
0001
1000
0000
0010
0000
,
1010
0000
1000
0010
0100
0000
0001
1000
0000
0001
1000
0000
0001
0010
0100
1000
,
0001
0101
0000
1010
0000
0011
0000
1100
,
1010
0000
0101
0000
0011
0000
1100
0000
1000
0001
1000
0000
0000
0100
0000
0000
,
1100
0000
0100
0010
0001
0000
1000
0000
0001
1000
0000
1000
0001
0000
0100
0000
,
0101
0000
0001
0100
0010
0000
1000
0000
0010
0100
0000
0100
0020
0000
0030
0000
,
0110
0000
0100
0010
1000
0000
0100
0010
0001
0000
0100
0010
1000
0000
0001
0010
,
0100
1000
0001
0000
0000
1001
0000
0000
0001
1000
0001
0000
1001
0000
0000
0000
,
1000
0100
1100
1000
0010
0100
0101
0001
,
0010
0000
0100
0000
1000
0100
0000
0100
0010
0000
0001
0000
0100
0000
1000
0000
,
0100
0001
0101
0100
0010
1000
1010
0010
,
0100
0000
0001
0000
0010
0100
0000
0100
0010
0000
0001
0000
2002
0000
3003
0000
,
0101
0001
0010
0100
0110
0010
0001
1000
,
1100
0000
0100
0000
0010
0001
0000
1000
0200
0000
0300
0000
0020
0000
0030
0000
,
0011
1000
1010
0001
0101
1000
1100
0001
,
1000
0000
0001
0000
0100
0010
0000
1000
0001
0000
0010
0000
0100
0000
0000
0000
,
1000
0100
0010
0001
0000
0100
0010
0000
1000
0100
0010
0001
0000
0100
0010
0000
,
1010
0000
0000
0011
0000
0000
0101
0000
0000
1100
0000
0000
1000
0001
1000
0000
,
0001
0100
0010
1000
0000
0100
0010
0000
0001
0100
0010
1000
0000
0100
0010
0000
,
0011
0000
0000
1010
0000
0000
1100
0000
0000
0101
0000
0000
1000
0001
1000
0001
,
0100
0000
0000
0000
0100
0000
0000
0000
0100
0000
0000
0000
0001
0100
0010
1000
,
0001
0000
0000
0000
0001
0000
0000
0000
0001
0000
0000
0000
1000
0100
0010
0001
,
1000
0000
0000
0000
0010
0000
0000
0000
0010
0000
0000
0000
0100
0010
1000
0001
,
0010
0000
0010
0100
0000
0000
0010
0000
0001
0000
1000
0000
0100
0000
0000
0000
,
1001
0000
1000
0010
0100
0002
0000
0000
,
2003
0000
0000
0000
3020
0000
0000
0000
0130
0020
0000
0000
0130
0010
0100
0010
,
1000
0000
0001
0100
0010
2000
0000
0000
,
3002
0000
0000
0000
0023
0000
0000
0031
0100
0000
1000
0000
0100
0000
0001
0000
,
1000
0000
0010
0100
0001
2000
0000
0000
,
3002
0000
0000
0000
0023
0000
0000
0000
0130
0020
0000
0000
0130
0010
0100
0010
,
0001
0000
1000
0001
0100
0020
0000
0030
,
1010
0000
0101
0000
1000
0100
0010
0001
,
0011
0000
0001
0010
1000
0001
0100
1000
,
0001
0100
0000
0000
0100
0010
0000
0000
0010
1000
0000
0000
1000
0100
0010
0001
,
1000
0000
1000
0100
0001
1000
0010
0001
,
1000
0010
0000
0000
0010
0100
0000
0000
0100
0001
0000
0000
0001
0010
0100
1000
,
0001
0000
0010
0100
1000
0001
0100
0010
,
1000
0100
0000
0000
0100
0001
0000
0000
0001
0100
0000
0000
0100
1000
0100
1000
,
0001
0000
0100
0010
1000
0001
0010
0100
,
1000
0010
0000
0000
0010
0001
0000
0000
0001
0010
0000
0000
0010
1000
0010
1000
,
0001
0010
1000
0010
0100
1000
0001
0100
,
0010
0001
1000
0100
0010
0001
0010
1000
,
0010
0001
0010
0001
0010
0001
0010
1000
,
0100
0001
1000
0010
0001
1000
0010
0100
,
0101
0000
1010
0000
0000
1000
0000
0000
0100
0000
0010
0001
0000
0000
1000
0000
,
1010
0000
0101
0000
0000
0001
0000
0000
0100
0000
0010
1000
0000
0000
0001
0000
,
1000
0000
0001
0100
0001
0000
1000
0100
1000
0000
0100
1000
0001
0000
0100
0001
,
1000
0100
0100
0100
0100
0100
1001
0000
,
1000
0100
0010
0100
0000
1000
0100
0000
0010
0001
0000
1000
0000
0001
0100
0000
,
0001
0100
1000
0100
0001
0010
0100
1000
,
0001
0100
0010
0100
0000
0001
0100
0000
0010
1000
0000
0001
0000
1000
0100
0000
,
1000
0000
0100
0000
0001
0000
0100
0000
1000
0010
0000
0200
0000
0000
0301
0000
,
0100
0010
1000
0001
0000
0010
0100
0000
1000
0001
0000
0100
0000
0001
1000
0000
,
0001
0100
1000
0001
0010
0100
0001
1000
,
0010
0100
0001
1000
0000
0100
0010
0000
0001
1000
0000
0010
0000
1000
0001
0000
,
1000
0010
0001
1000
0100
0010
1000
0001
,
1000
0100
0010
0001
0000
1000
0001
0000
0100
0010
0000
0100
0000
0010
0100
0000
,
0001
0001
0010
0100
1000
1000
0010
0100
,
0010
1000
0010
0000
0100
0001
0100
0001
1000
0010
1000
0010
0000
0100
0010
1000
,
0001
0000
0010
0000
0100
0000
1000
0100
1000
0001
0000
0100
0000
0001
1000
0000
,
0100
0010
0100
1000
0000
0100
1000
0100
1000
0001
0010
0001
0010
0100
1000
0001
,
0100
0000
0010
0000
1000
0000
0001
0000
0001
1000
0000
0100
0000
1000
0100
0010
,
0001
0010
0001
0010
0100
1000
0100
1000
0001
0100
0001
0100
0010
1000
0010
1000
,
0001
0000
1000
0000
0100
0010
0001
0000
0010
1000
0000
0010
0000
0000
0000
0000
,
0110
0000
0000
0000
,
0000
0000
0000
0000
;
#NOTES:
     dance-double:
     :
     Easy:
     8:
     :
00000000
00000000
00000000
00000000
,
00000000
00000000
00000000
00000000
,
00000000
00000000
00000000
00000000
,
00000000
00000000
00000000
00000000
,
00000000
00000000
00000000
00000000
,
00000001
00000100
00000010
00001000
,
00000100
00000100
00010000
00010000
,
00001000
00010000
00001000
00000000
01000000
00000000
00100000
00000000
,
20020000
00000000
00000000
30030000
,
10000000
00100000
01000000
00010000
,
00100000
00001000
00010000
00001000
,
00000000
00010000
00000000
00001000
00000000
00000100
00000000
00000001
,
00001000
00000001
00001000
00000001
00000000
00000000
00000000
00000000
,
00000001
00000000
00000010
00000000
00000100
00001000
00000100
00000000
,
00010000
00000000
00001000
00000000
00100000
00010000
00100000
00000000
,
01000000
01000000
00100000
00100000
,
00020000
00000000
20030000
00000000
,
30100000
01100000
10000000
10010000
,
00010000
00100000
00001000
00010000
,
00001000
00001010
00000010
00000101
,
00000001
00000100
00000010
00001000
,
00000001
00000010
00000100
00001000
,
00000100
00010000
00001000
00100000
,
00110000
00110000
11000000
11000000
,
10000000
00100000
01000000
00001000
,
00020000
00030000
00020000
00030000
,
00001000
00000000
00000000
00001000
00000000
00000000
00001000
00000000
00000000
00001000
00000000
00000000
00000000
00000000
00000000
00000000
,
00002000
00003000
00002000
00003000
,
00010000
00000000
00000000
00010000
00000000
00000000
00010000
00000000
00000000
00010000
00000000
00000000
00000000
00000000
00000000
00000000
,
00020000
00000000
00000000
00030000
,
00000200
00000000
00000000
00000300
,
00002000
00000000
00000000
00003000
,
00000002
00000000
00000000
00000000
00001000
00001000
00001003
00000000
,
00002002
00000000
00000000
00003003
,
00000001
00000100
00001000
00010000
,
00022000
00000000
00000000
00033000
,
00001000
00100000
00010000
01000000
,
02200000
00000000
00000000
03300000
,
10000000
01000000
00100000
00001000
,
00022000
00000000
00000000
00033000
,
00010000
00000000
00000100
00000000
00001000
00000100
00001000
00000000
,
00000010
00000100
00000001
00000010
,
00000100
00000000
00001000
00000000
00000100
00010000
00000100
00000000
,
00010000
00001000
00100000
01000000
,
10000000
00000000
00010000
00000000
10000000
00100000
10000000
00000000
,
01000000
00100000
00001000
00010000
,
00000100
00000000
00001000
00000000
00000100
00000010
00000100
00000000
,
00000010
00000001
00001000
00000010
,
00000100
00000000
00000001
00000000
00001000
00000001
00001000
00000000
,
00000010
00000010
00000100
00000100
,
00001000
00001000
00010000
00010000
,
00001000
00100000
00010000
00000000
01000000
00100000
10000000
00000000
,
00010000
00100000
00001000
00010000
,
00011000
00000000
00010000
00000100
,
00001100
00000000
00000100
00000010
,
00000110
00001001
00000110
00001001
,
00000220
00000000
00000000
00000330
,
00000001
00000100
00000010
00010000
,
00001000
00000000
00100000
00000000
00010000
00010000
00010000
00000000
,
10000000
00100000
01000000
00001000
,
00010000
00000000
00000100
00000000
00001000
00001000
00001000
00000000
,
00000001
00000100
00001000
00010000
,
00100000
00000000
01000000
00000000
00010000
00010000
00010000
00000000
,
10000000
01000000
00010000
00001000
,
00000010
00000000
00000100
00000000
00001000
00001000
00001000
00000000
,
00000001
00000100
00000001
00000010
,
00000100
00001000
00001100
00011000
,
00010000
01000000
10000000
00100000
,
01000000
00010000
00110000
00011000
,
00001000
00000000
00000100
00000000
00000010
00000010
00000010
00000000
,
00000100
00000000
00000001
00000000
00000010
00000010
00000010
00000000
,
00000100
00001000
00000100
00010000
,
00002000
00000000
00000000
00003000
,
00011000
00000000
00000000
00000000
,
00000000
00000000
00000000
00000000
;
#NOTES:
     dance-double:
     :
     Medium:
     11:
     :
00000000
00000000
00000000
00000000
,
00000000
00000000
00000000
00000000
,
00000000
00000000
00000000
00000000
,
00000000
00000000
00000000
00000000
,
00000000
00000000
00000000
00000000
,
00000001
00000010
00000001
00000000
00000100
00000000
00001000
00000000
,
00010000
00001000
00100000
01000000
,
10000000
00100000
10000000
00000000
01000000
00000000
00010000
00000000
,
00001000
00010000
00001010
00000101
,
00000001
00000010
00000100
00000000
00001000
00000000
00000100
00000000
,
00010000
00001000
00100000
00000000
01000000
00000000
10000000
00000000
,
00000000
10000000
00000000
01000000
00000000
00010000
00000000
00001000
,
00000010
00000001
00001000
00000010
00000000
00000000
00000000
00000000
,
00001001
00000000
00001000
00000000
00000001
00000100
00001000
00000000
,
00010000
00000000
00001000
00000000
00010000
01000000
10000000
00000000
,
01000000
00100000
00010000
00000000
00100000
00010000
00001000
00000000
,
00000100
00000000
00000010
00000000
00000001
00001000
00000001
00000000
,
00000100
00000011
00000100
00001010
,
00001000
00000000
00000100
00000000
00010000
00001000
00010000
00000000
,
00001000
00010000
00100000
00000000
00010000
00100000
10000000
00000000
,
00100000
00100000
01000000
01000000
00010000
00100000
00001000
00000000
,
00010000
00110000
10000000
11000000
,
10000000
01000000
00010000
00001000
00020000
00000000
00031000
00000000
,
00011000
00001010
00000011
00000101
,
00000001
00000010
00000100
00001000
00000001
00001000
00000001
00000000
,
00002200
00003300
00022000
00033000
,
00001000
00000000
00000000
00010000
00000000
00000000
00001000
00000000
00000000
00100000
00000000
00000000
01000000
00000000
00000000
00000000
,
00220000
00330000
22000000
33000000
,
00010000
00000000
00000000
00100000
00000000
00000000
01000000
00000000
00000000
10000000
00000000
00000000
00010000
00000000
00000000
00000000
,
20000000
00000000
00000000
00000000
00000000
00000000
30010000
00100000
,
00002000
00000000
00000000
00000000
00000000
00000000
00013000
00001000
,
00000200
00000000
00000000
00000000
00000000
00000000
00000310
00000100
,
00000001
00000000
00001000
00000001
00000000
00000000
00001000
00000000
00000010
00000000
00000100
00000000
00000010
00000000
00000000
00000000
,
00002020
00000000
00000000
00003030
,
00000001
00000100
00001000
00010000
,
00022000
00000000
00000000
00033000
,
00001000
00000000
00010000
00000000
01000000
00100000
00010000
00000000
,
22000000
00000000
00000000
33000000
,
00010000
00000000
10000000
00000000
00100000
01000000
00010000
00000000
,
00202000
00000000
00000000
00303000
,
00001000
00000000
00010000
00000000
00001000
00010000
00000100
00000010
,
00000001
00000000
00001000
00000010
00000100
00000001
00000010
00000000
,
00001010
00001100
00011000
00110000
,
10000000
00000000
00100000
10000000
00100000
01000000
00010000
00000000
,
10100000
00110000
00011000
00001100
,
00001000
00000000
00000010
00000100
00000001
00000010
00000100
00000000
,
00001100
00011000
01010000
10010000
,
10000000
00000000
00100000
01000000
00100000
10000000
00010000
00000000
,
00110000
00000000
00011000
00000000
00001000
00000100
00000001
00000000
,
00000010
00000001
00000100
00000000
00000010
00001000
00000100
00000000
,
00010000
00001000
00100000
00000000
00010000
00100000
01000000
00000000
,
10000000
00100000
01000000
00000000
00010000
00100000
00001000
00000000
,
00100000
00001000
00010000
00000100
00001000
00000010
00000100
00000000
,
00000110
00000001
00001000
00000010
,
00011000
00001000
00100000
00010000
,
00110000
01100000
11000000
10010000
,
02200000
00000000
00000000
03300000
,
10000000
10000000
00100000
00000000
01000000
00100000
10000000
00000000
,
01000000
00010000
00001000
00000000
00010000
00001000
00000010
00000000
,
00000001
00000001
00001000
00000000
00000010
00000100
00000001
00000000
,
00000100
00001000
00010000
00000000
00001000
00010000
00100000
00000000
,
10000000
10000000
00010000
00000000
00100000
01000000
10000000
00000000
,
00010000
00100000
00001000
00000000
00010000
00000100
00001000
00000000
,
00000100
00000100
00000010
00000000
00000001
00000100
00001000
00000000
,
00000100
00001000
00010000
00100000
10000000
00000000
00010000
00000000
,
10000000
00100000
01000000
01100000
,
00100000
10000000
00010000
00100000
00001000
00010000
00001000
00000000
,
00000200
00000320
00000130
00000110
,
00000010
00001000
00000001
00000010
00000100
00001000
00000001
00000000
,
00000002
00000103
00000200
00001300
,
00010000
00001000
00010000
00000000
01000000
00000000
01100000
00000000
,
00100000
00010000
00100000
00000000
01000000
10000000
01000000
00000000
,
00100000
00010000
00100000
00001000
00010000
00001000
00000100
00000000
,
00000110
00000000
00000000
00000000
,
00000000
00000000
00000000
00000000
;
#NOTES:
     dance-double:
     :
     Hard:
     15:
     :
00000000
00000000
00000000
00000000
,
00000000
00000000
00000000
00000000
,
00000000
00000000
00000000
00000000
,
00000000
00000000
00000000
00000000
,
00000000
00000000
00000000
00000000
,
00000001
00000000
00000010
00000000
00000100
00010000
00001000
00000000
00100000
00010000
00000000
01000000
00000000
00000000
01100000
00000000
,
00100000
00000000
10000000
00000000
01000000
00000000
00010000
00000000
01000000
00000000
00000000
10000000
00000000
00000000
00010000
00000000
,
01000000
00000000
00001000
00010000
00001000
00000000
00000100
00000000
00000010
00001000
00000000
00000001
00000000
00000000
00001001
00000000
,
00000000
00000110
00000000
00000001
00000100
00001000
00010000
00001000
,
00011000
00000000
00001000
00010000
01000000
00000000
00100000
00000000
00010000
00100000
00000000
01000000
10000000
00000000
00100000
00000000
,
10100000
00000000
10000000
01000000
00010000
00000000
00001000
00010000
00000000
00000100
00001000
00000000
00000100
00010000
00000010
00001000
,
00000010
00001010
00000000
00000011
00000000
00000101
00000000
00001100
,
00000100
00000000
00000100
00000000
00010000
00000000
00010000
00000000
00001000
00010000
00001000
00000000
00000000
01000000
00000000
00000000
,
01100000
00000000
01000000
00100000
10000000
00000000
01000000
00000000
00010000
00001000
00000000
00001000
00010000
00000000
00000100
00000000
,
00000110
00000000
00000100
00000010
00000001
00000000
00000100
00000000
00001000
00010000
00000000
00010000
00002000
00000000
00003000
00000000
,
00011000
00001000
00010000
01000000
00100000
00001000
00000100
00000010
,
00000100
00000010
00001000
00000000
00000000
00001001
00000000
00000000
00001000
00000001
00001000
00000000
00000110
00000000
00000000
00000000
,
00000001
00000010
00000011
00000001
00000100
00001000
00011000
00010000
,
01000000
00000000
10000000
00000000
01000000
00100000
00000000
00100000
00010000
00000000
01000000
00000000
00001000
00000000
00010000
00000000
,
00100000
00010000
00011000
00001000
00000100
00000010
00001010
00001000
,
00000100
00000000
00000001
00000000
00000100
00001000
00000000
00001000
00000100
00000000
00010000
00000000
00022000
00000000
00033000
00000000
,
00110000
00010000
01000000
00100000
10100000
10000000
01000000
00010000
,
00011000
00000000
00001000
00000000
00010000
00001000
00000000
00000100
00000020
00000000
00000030
00000000
00000200
00000000
00000300
00000000
,
00000010
00000010
00000100
00000100
00001000
00001000
00010000
00010000
,
00001000
00000000
00010000
00000000
00100000
01000000
00000000
00010000
10000000
00000000
00100000
00000000
01000000
00000000
00000000
00000000
,
00010000
01000000
00010000
01000000
00000000
00010000
00100000
00000000
00001000
00010000
00001000
00010000
00000000
00000010
00001000
00000000
,
00001010
00000000
00000000
00000011
00000000
00000000
00000101
00000000
00000000
00001100
00000000
00000000
00000001
00000010
00000001
00000000
,
00001000
00000100
00001000
00000100
00000000
00001000
00000010
00000000
00010000
00001000
00010000
00001000
00000000
00100000
00010000
00000000
,
00110000
00000000
00000000
01010000
00000000
00000000
10100000
00000000
00000000
11000000
00000000
00000000
01000000
00100000
01000000
00100000
,
00010000
00000000
00000000
00000000
10000000
00000000
00000000
00000000
10000000
00000000
00000000
00000000
01000000
00010000
00001000
00010000
,
00001000
00000000
00000000
00000000
00010000
00000000
00000000
00000000
00010000
00000000
00000000
00000000
00001000
00000100
00001000
00000100
,
00000001
00000000
00000000
00000000
00000010
00000000
00000000
00000000
00000010
00000000
00000000
00000000
00000001
00000100
00000001
00000100
,
00000010
00000000
00000010
00001000
00000000
00000000
00000100
00000000
00010000
00000000
00001000
00000000
01000000
00000000
00000000
00000000
,
01010000
00000000
10000000
01000000
00010000
00002000
00000000
00000000
,
00003020
00000000
00000000
00000000
00000032
00000000
00000000
00000000
00000103
00000020
00000000
00000000
00000130
00000010
00000100
00000010
,
00001000
00000000
00000001
00000010
00001000
00020000
00000000
00000000
,
02030000
00000000
00000000
00000000
23000000
00000000
00000000
30100000
01000000
00000000
10000000
00000000
01000000
00000000
00010000
00000000
,
10010000
00000000
01000000
00100000
10000000
02000000
00000000
00000000
,
03020000
00000000
00000000
00000000
00032000
00000000
00000000
00000000
00013000
00002000
00000000
00000000
00013000
00001000
00010000
00001000
,
00000100
00000000
00000010
00000100
00000001
00000020
00000000
00000030
,
00001010
00000000
00011000
00000000
00001000
00010000
00100000
10000000
,
11000000
00000000
01000000
10000000
00100000
00010000
00001000
00000010
,
00000100
00001000
00000000
00000000
00000010
00000001
00000000
00000000
00000010
00001000
00000000
00000000
00000001
00000100
00000010
00001000
,
00000001
00000000
00000010
00000001
00000100
00001000
00010000
01000000
,
00100000
00010000
00000000
00000000
01000000
10000000
00000000
00000000
01000000
00010000
00000000
00000000
10000000
00100000
01000000
00010000
,
10000000
00000000
01000000
00010000
00001000
00100000
00010000
00001000
,
00000100
00000010
00000000
00000000
00000001
00000010
00000000
00000000
00000100
00001000
00000000
00000000
00000010
00000100
00000001
00001000
,
00000001
00000000
00000100
00001000
00010000
00000100
00001000
00010000
,
00100000
01000000
00000000
00000000
10000000
00100000
00000000
00000000
01000000
00010000
00000000
00000000
01000000
00100000
10000000
00010000
,
10000000
00100000
01000000
00010000
00100000
00001000
00010000
01000000
,
00100000
00010000
00001000
00010000
00100000
00001000
00010000
00001000
,
00000100
00000010
00000001
00000010
00000001
00000010
00000001
00001000
,
00000100
00010000
01000000
00100000
10000000
00010000
01000000
10000000
,
01100000
00000000
10010000
00000000
00000000
10000000
00000000
00000000
00100000
00000000
01000000
00001000
00000000
00000000
00010000
00000000
,
00011000
00000000
00010010
00000000
00000000
00000010
00000000
00000000
00000100
00000000
00000001
00000010
00000000
00000000
00000100
00000000
,
00001000
00000000
00000001
00000000
00000100
00000000
00001000
00000000
00010000
00000000
01000000
00000000
10000000
00010000
10000000
00010000
,
10000000
00100000
00100000
00100000
00100000
00100000
10010000
00000000
,
00010000
01000000
00100000
10000000
00000000
01000000
00100000
00000000
00001000
00010000
00000000
01000000
00000000
00100000
00010000
00000000
,
01000000
00010000
00100000
00001000
00010000
00000100
00000010
00000001
,
00001000
00000100
00000010
00000001
00000000
00000100
00000010
00000000
00010000
00001000
00000000
00000100
00000000
00000010
00001000
00000000
,
00000010
00000000
00001000
00000000
00000100
00000000
00010000
00000000
00001000
00100000
00000000
00020000
00000000
00000000
01030000
00000000
,
00100000
01000000
00100000
10000000
00000000
01000000
00010000
00000000
00001000
00010000
00000000
01000000
00000000
00010000
00001000
00000000
,
00000100
00000001
00000010
00001000
00000001
00000100
00010000
00001000
,
00000100
00000010
00000100
00000001
00000000
00000100
00001000
00000000
00010000
00001000
00000000
00000100
00000000
00001000
00010000
00000000
,
01000000
10000000
00010000
00100000
01000000
00100000
00110000
00000000
,
00100000
00001000
00010000
01000000
00000000
00100000
00010000
00000000
01000000
00100000
00000000
10000000
00000000
01000000
00100000
00000000
,
00010000
00010000
00100000
00001000
00010000
00010000
00000100
00000010
,
00000100
00010000
00001000
00000000
00010000
00001000
00010000
00001000
00100000
00010000
00100000
00010000
00000000
01000000
00100000
10000000
,
00010000
00000000
01000000
00000000
10000000
00000000
01000000
00010000
01000000
00001000
00000000
00010000
00000000
00001000
00000010
00000000
,
00000001
00000100
00000010
00000100
00000000
00000001
00000010
00000001
00000010
00000100
00001000
00000100
00001000
00000001
00000100
00001000
,
00010000
00000000
00001000
00000000
00010000
00000000
01000000
00000000
10000000
00010000
00000000
00100000
00000000
00000000
10010000
00000000
,
10000000
00100000
10000000
00100000
01000000
00010000
01000000
00010000
00100000
00001000
00100000
00001000
00010000
00000100
00010000
00000100
,
00001000
00000000
00000001
00000000
00000100
00001000
00010000
00000000
01000000
00100000
00000000
00001000
00000000
00000000
00000000
00000000
,
00011000
00000000
00000000
00000000
,
00000000
00000000
00000000
00000000
;
