
//----- song ID: dbgl -----//
#TITLE:Death by Glamour;
#ARTIST:Toby Fox;
#BANNER:Death by Glamour.png;
#BACKGROUND:Death by Glamour-bg.png;
#CDTITLE:./CDTitles/DDR A3.png;
#MUSIC:Death by Glamour.ogg;
#SAMPLESTART:66.487;
#SAMPLELENGTH:15;
#BPMS:0=148;
#STAGE:2;
#NOTES:
     dance-single:
     :
     Beginner:
     3:
     :
0000
0000
0000
0000
,
0000
0000
0000
0000
,
0000
0000
0000
0000
,
0000
0000
0000
0000
,
0000
0000
0000
0000
,
1000
0000
0000
0000
,
0100
0000
0000
0000
,
0010
0000
0000
0000
,
0000
0000
0000
0000
,
0001
0000
0000
0000
,
0100
0000
0000
0000
,
0010
0000
0000
0000
,
0000
0000
0000
0000
,
1000
0000
0100
0000
,
1000
0000
0000
0000
,
2000
0000
0000
0000
,
3000
0000
0000
0000
,
0001
0000
0100
0000
,
0001
0000
0001
0000
,
0010
0000
0000
0000
,
1001
0000
0000
0000
,
1000
0000
0100
0000
,
1000
0000
1000
0000
,
0010
0000
0000
0000
,
1001
0000
0000
0000
,
0020
0000
0000
0000
,
0030
0000
0000
0000
,
0200
0000
0000
0000
,
0300
0000
0000
0000
,
0020
0000
0000
0000
,
0030
0000
0000
0000
,
0200
0000
0000
0000
,
0300
0000
0000
0000
,
1000
1000
0010
0000
,
0100
0000
0000
0000
,
1001
0000
0000
0000
,
0000
0000
0000
0000
,
0001
0001
0010
0000
,
0100
0000
0000
0000
,
1001
0000
0000
0000
,
0000
0000
0000
0000
,
1000
0000
0010
0000
,
0001
0000
0000
0000
,
0001
0000
0100
0000
,
1000
0000
0000
0000
,
1000
0000
0100
0000
,
0001
0000
0000
0000
,
0001
0000
0010
0000
,
1000
0000
0000
0000
,
2000
0000
0000
0000
,
3000
0000
1000
1000
,
0200
0000
0000
0000
,
0300
0000
0000
0000
,
0002
0000
0000
0000
,
0003
0000
0001
0001
,
0200
0000
0000
0000
,
0300
0000
0000
0000
,
0010
0000
0100
0000
,
0010
0010
0010
0000
,
1001
0000
0000
0000
,
1001
0000
0000
0000
,
0010
0000
0100
0000
,
0010
0010
0010
0000
,
1001
0000
0000
0000
,
1001
0000
0000
0000
,
1000
0000
0100
0000
,
0001
0001
0100
0000
,
0002
0000
0000
0000
,
0003
0000
0000
0000
,
0001
0000
0010
0000
,
1000
1000
0010
0000
,
2000
0000
0000
0000
,
3000
0000
0000
0000
,
1001
0000
0000
0000
,
0010
0000
0010
0000
,
1001
0000
0000
0000
,
0100
0000
0100
0000
,
1001
0000
0000
0000
,
1000
0000
0100
0000
,
1001
0000
0000
0000
,
0001
0000
0010
0000
,
1001
0000
0000
0000
,
0200
0000
0000
0300
,
0000
0000
0000
0000
;
#NOTES:
     dance-single:
     :
     Easy:
     7:
     :
0000
0000
0000
0000
,
0000
0000
0000
0000
,
0000
0000
0000
0000
,
0000
0000
0000
0000
,
0000
0000
0000
0000
,
0001
0100
0001
0000
,
0001
0010
0001
0000
,
1000
0100
1000
0000
,
1000
0010
1000
0000
,
0002
0000
1003
0001
,
0200
0000
0310
0100
,
0020
0000
0130
0010
,
2000
0000
3001
0000
,
0001
0100
0001
0001
,
1000
0100
1000
1000
,
0001
0100
0001
1000
,
0100
0100
0100
0000
,
0110
0000
1001
0000
,
0001
0100
0001
0000
1000
0000
0000
0000
,
0110
0000
1001
0000
,
1000
0100
1000
0000
0001
0000
0000
0000
,
1000
0010
1000
0000
,
1000
0100
1000
0000
,
0001
0010
0001
0000
,
0001
0100
0001
0000
,
1000
0100
1000
0100
,
0010
0010
0110
0000
,
0002
0000
0000
0003
,
2000
0000
0000
3000
,
0001
0100
0001
0100
,
0010
0010
0110
0000
,
2000
0000
0000
3000
,
0002
0000
0000
0003
,
1000
0100
1000
0100
,
0010
0001
0010
0000
,
0220
0000
0000
0330
,
2002
0000
0000
3003
,
0001
0100
0001
0100
,
0010
1000
0010
0000
,
0220
0000
0000
0330
,
1000
0001
1001
0000
,
1000
0000
0010
0000
1000
0001
1000
0000
,
0001
0010
0001
0000
,
0001
0000
0010
0000
0001
1000
0001
0000
,
1000
0010
1000
0000
,
1000
0000
0001
0000
0010
0100
0010
0000
,
0100
1000
0100
0000
,
0100
0000
1000
0000
0001
0010
0001
0000
,
0010
0100
0010
0000
,
0002
0000
1003
0000
,
2000
0001
3001
0000
,
0200
0000
0310
0000
,
0020
0100
0130
0000
,
0001
0100
0010
0100
,
0001
1000
0001
0000
,
1000
0100
0010
0100
,
1000
1000
1000
0000
,
2000
0000
0000
3000
,
0200
0000
0000
0300
,
0020
0000
0000
0030
,
0002
0000
0000
0003
,
0001
0100
0100
0000
,
1000
0100
0100
0000
,
0001
0010
0010
0000
,
1000
0010
0010
0000
,
0001
1000
0100
0000
,
0010
0000
0110
0000
,
1000
0001
0100
0000
,
0010
0000
0110
0000
,
1000
0100
0010
0000
,
0001
0000
1001
0000
,
0001
0100
0010
0000
,
1000
0000
1001
0000
,
0020
0000
0000
0030
,
1000
0001
1000
0000
,
0200
0000
0000
0300
,
0001
1000
0001
0000
,
0002
0000
0000
0003
,
0010
0100
0010
0000
,
2000
0000
0000
3000
,
0100
0010
0100
0000
,
0020
0000
0130
0000
,
0200
0010
0010
0310
,
0000
0000
0000
0000
;
#NOTES:
     dance-single:
     :
     Medium:
     11:
     :
0000
0000
0000
0000
,
0000
0000
0000
0000
,
0000
0000
0000
0000
,
0000
0000
0000
0000
,
0000
0000
0000
0000
,
1000
0000
0000
0100
0000
0000
0010
0000
0001
0000
0100
0000
0001
0000
1000
0000
,
0000
0000
1000
0000
0010
0000
0100
0000
0001
0000
1000
0001
0000
0000
1001
0000
,
1000
0000
0000
0100
0000
0000
0001
0000
0100
0000
1000
0000
0001
0000
0010
0000
,
0000
0000
0010
0000
0001
0000
1000
0000
0100
0000
0010
0100
0000
0000
0010
0000
,
0011
0000
0000
0000
0110
0000
0000
0000
1100
0000
0000
1000
0000
0000
1001
0000
,
0000
0000
0001
0000
0100
0000
0000
0000
0110
0000
0000
1001
0000
0000
0000
0000
,
1010
0000
0000
0000
0110
0000
0000
0000
0101
0000
0000
0001
0000
0000
1001
0000
,
0000
0000
1000
0000
0100
0000
0000
0000
0110
0000
0000
1001
0000
0000
0000
0000
,
0001
0010
0001
0010
0100
1000
0100
MMMM
,
0100
0010
0100
0010
0001
0000
1001
0000
,
1000
0010
1000
0010
0100
0001
0100
MMMM
,
0100
0010
0100
0001
1000
0000
1001
0000
,
0011
MMMM
1010
0000
0001
0010
0100
0000
,
1010
MMMM
0011
0000
1000
0010
MMMM
0000
,
0101
MMMM
1100
0000
0001
0100
0010
0000
,
1100
MMMM
0101
0000
1000
0100
MMMM
0000
,
0011
0000
MMMM
0000
1100
0000
1000
0010
,
0100
0000
0110
0000
1000
0001
MMMM
0000
,
1100
0000
MMMM
0000
0011
0000
0001
0100
,
0010
0000
0110
0000
0001
1000
MMMM
0000
,
0001
0010
0001
0010
0100
1000
0100
1000
,
1010
MMMM
0101
MMMM
,
0001
0100
1000
0100
0001
0000
MMMM
0000
,
0001
0000
0000
0001
0000
0000
1000
0000
0010
0000
0010
0000
0100
0000
0000
0000
,
1000
0100
1000
0100
0010
0001
0010
0001
,
0101
MMMM
1010
MMMM
,
1000
0100
0001
0100
1000
0000
MMMM
0000
,
1000
0000
0000
1000
0000
0000
0001
0000
0100
0000
0100
0000
0010
0000
0000
0000
,
1010
MMMM
1100
MMMM
,
1010
1100
1010
MMMM
,
0011
MMMM
0101
MMMM
,
0011
0101
0011
MMMM
,
0001
0100
1000
0000
MMMM
0000
0110
0000
,
1000
0100
0001
0000
MMMM
0000
0110
0000
,
1000
0010
0100
MMMM
1000
0100
0010
MMMM
,
1000
0010
0100
0001
1000
0000
MMMM
0000
,
0020
0000
0030
MMMM
0020
0000
0030
0000
0200
0000
0300
MMMM
0200
0000
0300
0000
,
0001
0100
0001
0000
1000
0100
1000
0000
,
0020
0000
0030
MMMM
0020
0000
0030
0000
0200
0000
0300
MMMM
0200
0000
0300
0000
,
0001
0100
0010
1000
0002
0003
MMMM
0000
,
2000
0000
3000
MMMM
2000
0000
3000
0000
0002
0000
0003
MMMM
0002
0000
0003
0000
,
1000
0100
0010
0000
0001
0100
0010
0000
,
2000
0000
3000
MMMM
2000
0000
3000
0000
0002
0000
0003
MMMM
0002
0000
0003
0000
,
1000
0100
0001
0100
2000
3000
MMMM
0000
,
0001
0100
0001
0100
0010
1000
0010
1000
,
0020
0000
0030
MMMM
0020
0000
0030
MMMM
0020
0000
0030
MMMM
0020
0000
0030
0000
,
1000
0100
1000
0100
0010
0001
0010
0001
,
0200
0000
0300
MMMM
0200
0000
0300
MMMM
0200
0000
0300
MMMM
0200
0000
0300
0000
,
0001
1000
0100
0000
0100
1000
0001
0000
,
0002
0000
0003
MMMM
0002
0000
0003
MMMM
0002
0000
0003
MMMM
0002
0000
0003
0000
,
1000
0001
0010
0000
0010
0001
1000
0000
,
2000
0000
3000
MMMM
2000
0000
3000
MMMM
2000
0000
3000
MMMM
2000
0000
3000
0000
,
2000
0000
3010
0100
0002
0000
0013
0100
,
1000
MMMM
0110
MMMM
,
0001
0100
0001
0100
0010
0000
MMMM
0000
,
1000
0100
1000
0100
0010
0000
MMMM
0000
,
0002
0000
0023
0000
0230
0000
1300
0001
,
2000
0000
3020
0000
0230
0000
0301
1000
,
0001
0000
0000
0001
0000
0000
0001
0000
0001
0000
0000
0000
MMMM
0000
0000
0000
,
1000
0000
0000
1000
0000
0000
1000
0000
1000
0000
0000
0000
MMMM
0000
0000
0000
,
2000
0000
3001
0010
0002
0000
1003
0100
,
1000
0010
0100
0001
1000
0000
MMMM
0000
,
0010
0000
0000
0010
0000
0000
0010
0000
0010
0000
0000
0000
MMMM
0000
0000
0000
,
0100
0000
0000
0100
0000
0000
0100
0000
0100
0000
0000
0000
MMMM
0000
0000
0000
,
MMMM
1010
MMMM
0101
,
MMMM
0011
MMMM
1100
,
0001
0000
0000
0010
0000
0000
0100
0000
1000
0000
0000
0000
MMMM
0000
0000
0000
,
1000
0000
0000
0010
0000
0000
0100
0000
0001
0000
0000
0000
MMMM
0000
0000
0000
,
0101
0011
0101
0011
,
1010
1100
1010
1100
,
0001
0100
0001
0000
1000
0100
1000
0000
,
0110
MMMM
1001
MMMM
,
0011
1010
MMMM
1100
,
0110
0011
MMMM
1001
,
0011
0101
1010
1100
,
0101
MMMM
0011
0101
,
1000
0100
1000
0000
0001
0100
0001
0000
,
0010
0000
0000
0010
0100
0000
0100
0000
1000
0000
1000
0000
0001
0000
0000
0000
,
0000
0000
0000
0000
;
#NOTES:
     dance-single:
     :
     Hard:
     14:
     :
0000
0000
0000
0000
,
0000
0000
0000
0000
,
0000
0000
0000
0000
,
0000
0000
0000
0000
,
0000
0000
0000
0000
,
0001
0000
0000
0000
0200
0000
0000
0000
0010
0000
0000
0010
0000
0000
0310
0000
,
0000
0000
0010
0000
1000
0000
0000
0000
0100
0000
0000
0220
0000
0000
0330
0000
,
1000
0000
0000
0000
0200
0000
0000
0000
0010
0000
0000
0010
0000
0000
0310
0000
,
0000
0000
0010
0000
0001
0000
0000
0000
0100
0000
0000
0220
0000
0000
0330
0000
,
0001
0000
0010
0000
0100
0000
1000
0000
0010
0000
1000
0001
0000
1000
0001
0000
,
0020
0000
0030
MMMM
0020
0000
0030
0000
0200
0000
0300
MMMM
0200
0000
0300
0000
,
1000
0000
0010
0000
0100
0000
0001
0000
0010
0000
0001
1000
0000
0001
1000
0000
,
0020
0000
0030
MMMM
0020
0000
0030
0000
0200
0000
0300
MMMM
0200
0000
0300
0000
,
0001
0000
1000
0000
0010
0000
1000
0100
0000
1000
0100
0000
0010
0000
0001
0100
,
0001
0000
0100
0000
1000
0000
0100
0001
0000
0100
0001
0000
1000
0000
MMMM
0000
,
1000
0000
0001
0000
0010
0000
0001
0100
0000
0001
0100
0000
0010
0000
1000
0100
,
1000
0000
0100
0000
0001
0000
0100
1000
0000
0100
1000
0000
0001
0000
MMMM
0000
,
0001
0000
0010
0000
1000
0000
0010
0000
0001
0000
0100
0010
0000
0100
0010
0000
,
1000
0000
0010
0000
0001
0000
0010
0000
1000
0000
0100
0010
0000
0000
MMMM
0000
,
1000
0000
0010
0000
0001
0000
0010
0000
1000
0000
0100
0010
0000
0100
0010
0000
,
0001
0000
0010
0000
1000
0000
0010
0000
0001
0000
0100
0010
0000
0000
MMMM
0000
,
0001
0000
0100
0000
0010
0000
0100
0000
0001
0000
0010
0100
0000
1000
0010
0000
,
1000
0000
0100
0000
0001
0000
0100
0000
1000
0000
0100
0010
0000
0000
MMMM
0000
,
1000
0000
0100
0000
0010
0000
0100
0000
1000
0000
0010
0100
0000
0001
0010
0000
,
0001
0000
0100
0000
1000
0000
0100
0000
0001
0000
0100
0010
0000
0000
MMMM
0000
,
1000
0000
0100
0000
1000
0000
0001
0100
0000
0010
1000
0000
0001
0000
0010
0000
,
0001
0000
0100
0000
0001
0010
0000
0100
0000
1000
0001
0000
0100
0000
0010
0000
,
1000
0001
1000
0000
MMMM
0000
0000
0000
MMMM
0000
0000
0000
MMMM
0000
0000
0000
,
1001
0000
0000
0110
0000
0000
1001
0000
0100
0000
0100
0000
0100
0000
MMMM
0000
,
0001
0000
0010
0000
0001
0000
1000
0010
0000
0100
0001
0000
1000
0000
0100
0000
,
1000
0000
0010
0000
1000
0100
0000
0010
0000
0001
1000
0000
0010
0000
0100
0000
,
0001
1000
0001
0000
MMMM
0000
0000
0000
MMMM
0000
0000
0000
MMMM
0000
0000
0000
,
1001
0000
0000
0110
0000
0000
1001
0000
0100
0000
0100
0000
0100
0000
MMMM
0000
,
0001
0000
0100
0000
0010
0000
1000
0001
0100
0000
MMMM
0000
1000
0000
MMMM
0000
,
0100
0000
0001
0000
0010
0100
0000
1000
0001
0000
MMMM
0000
0010
0000
MMMM
0000
,
0001
0100
0001
0000
MMMM
0000
0000
0000
MMMM
0000
0000
0000
MMMM
0000
0000
0000
,
1010
0000
0000
0110
0000
0000
0101
0000
0010
0000
0010
0000
0010
0000
0000
0000
,
1000
0000
0010
0000
0100
0000
0001
1000
0010
0000
MMMM
0000
0001
0000
MMMM
0000
,
0010
0000
1000
0000
0100
0010
0000
0001
1000
0000
MMMM
0000
0100
0000
MMMM
0000
,
1000
0100
0010
0001
0000
0000
MMMM
0000
1000
0100
0010
0001
0000
0000
MMMM
0000
,
1000
1000
0001
0001
1001
0000
MMMM
0000
,
0020
0000
0030
MMMM
0020
0100
0130
0000
,
0200
0000
0300
MMMM
0200
0010
0310
0000
,
0001
0100
1000
0000
1000
0100
0001
0000
,
0011
0010
0110
0100
1100
MMMM
1001
0000
,
0200
0000
0300
MMMM
0200
0010
0310
0000
,
0020
0000
0030
MMMM
0020
0100
0130
0000
,
1000
0010
0001
0000
0001
0010
1000
0000
,
1100
0100
0110
0010
0011
MMMM
1001
0000
,
2000
0000
0000
0000
3001
0010
0000
0010
0002
0000
0000
0000
1003
0010
0000
0010
,
1000
0000
0001
0100
0001
0000
MMMM
0000
0001
0000
1000
0100
1000
0000
MMMM
0000
,
2000
0000
0000
0000
3001
0100
0000
0100
0020
0000
0000
0000
1030
0100
0000
0100
,
0010
MMMM
0011
MMMM
0101
MMMM
1100
MMMM
,
2000
0000
0000
0000
3001
0010
0000
0100
2000
0000
0000
0000
3010
0100
0000
0001
,
1000
0000
0010
0100
0010
0000
MMMM
0000
0100
0000
0010
0100
0010
0000
MMMM
0000
,
2000
0000
0000
0000
3001
0010
0000
0001
0200
0000
0000
0000
0310
1000
0000
0001
,
0100
0000
0000
0100
0000
0000
0100
0000
0110
0000
MMMM
0000
1001
0000
0000
0000
,
2000
0000
0000
0000
3100
0000
0010
0002
0000
0000
0000
0000
0103
0000
0010
0000
,
1000
0000
0001
0000
0010
0000
1000
0020
0000
0000
0030
0000
0100
0000
0010
0000
,
0001
0000
0010
0001
0000
0010
0001
0000
0200
0000
0300
MMMM
0200
0000
0300
0000
,
0010
0000
1000
0010
0000
1000
0010
0000
0200
0000
0300
MMMM
0200
0000
0300
0000
,
0000
0000
0001
0000
1000
0000
0100
0020
0000
0000
0000
0000
0130
0000
1000
0000
,
1000
0000
0001
0000
0100
0000
0001
0020
0000
0000
0000
0000
0031
0000
0100
0000
,
0010
0000
1000
0100
0000
1000
0100
0000
0020
0000
0030
MMMM
0020
0000
0030
0000
,
0001
0000
0100
0001
0000
0100
0001
0000
0020
0000
0030
MMMM
0020
0000
0030
0000
,
0002
0000
0000
0000
0013
0000
0100
2000
0000
0000
0000
0000
3010
0000
0100
0000
,
0001
0000
1000
0000
0100
0000
0001
0200
0000
0000
0300
0000
0010
0000
0100
0000
,
1000
0000
0100
1000
0000
0100
1000
0000
0020
0000
0030
MMMM
0020
0000
0030
0000
,
0100
0000
0001
0100
0000
0001
0100
0000
0020
0000
0030
MMMM
0020
0000
0030
0000
,
0000
0000
1000
0000
0001
0000
0010
0200
0000
0000
0000
0000
0310
0000
0001
0000
,
0001
0000
1000
0000
0010
0000
1000
0200
0000
0000
0000
0000
1300
0000
0010
0000
,
0100
0000
0001
0010
0000
0001
0010
0000
0200
0000
0300
MMMM
0200
0000
0300
0000
,
1000
0000
0010
1000
0000
0010
1000
0000
0200
0000
0300
MMMM
0200
0000
0300
0000
,
1000
0010
1010
MMMM
0001
0010
0011
MMMM
,
1000
0100
1000
0001
0101
MMMM
1001
MMMM
,
0001
0100
0101
MMMM
1000
0100
1100
MMMM
,
0001
0010
0001
1000
1010
MMMM
1001
MMMM
,
0001
0100
0110
MMMM
1000
0100
0110
MMMM
,
0011
0001
0101
MMMM
1010
1000
1100
MMMM
,
1001
0000
0001
0010
0100
0000
MMMM
0000
1001
0000
1000
0010
0100
0000
MMMM
0000
,
1001
0000
0001
0100
0010
0000
MMMM
0000
1001
0000
1000
0100
0010
0000
MMMM
0000
,
1000
0100
0001
0000
0100
0000
MMMM
0000
0001
0100
1000
0000
0100
0000
MMMM
0000
,
0001
0010
0000
0010
0100
0000
0100
0000
1000
0000
MMMM
0000
1001
0000
0000
0000
,
0000
0000
0000
0000
;
#NOTES:
     dance-single:
     :
     Challenge:
     17:
     :
0000
0000
0000
0000
,
0000
0000
0000
0000
,
0000
0000
0000
0000
,
0000
0000
0000
0000
,
0000
0000
0000
0000
,
1000
0000
0000
0000
1100
0000
0000
0000
0001
0000
0000
0011
0000
0000
0101
0000
,
0000
0000
0100
0000
0110
0000
0000
0000
0010
0000
0000
2002
0000
0000
3003
0000
,
0001
0000
0000
0000
0101
0000
0000
0000
1000
0000
0000
1010
0000
0000
1100
0000
,
0000
0000
0100
0000
0110
0000
0000
0000
0010
0000
0000
2002
0000
0000
3003
0000
,
0020
0000
0030
MMMM
0020
0000
0030
0000
0200
0000
0300
MMMM
0200
0000
0300
0000
,
2000
0000
3000
MMMM
2000
0000
3000
0000
0002
0000
0003
MMMM
0002
0000
0003
0000
,
0020
0000
0030
MMMM
0020
0000
0030
0000
0200
0000
0300
MMMM
0200
0000
0300
0000
,
2000
0000
3000
MMMM
2000
0000
3000
0000
0002
0000
0003
MMMM
0002
0000
0003
0000
,
1000
0010
0100
0000
0101
0000
0001
0010
0000
1000
0010
0001
1000
0000
MMMM
0000
,
0001
0100
0010
0000
1010
0000
1000
0100
0000
0001
0100
1000
0001
0000
MMMM
0000
,
1000
0100
0010
0100
1000
0000
0001
0100
0000
1000
0001
0010
1000
0000
MMMM
0000
,
0001
0010
0100
0010
0001
0000
1000
0100
0000
0001
1000
0010
0001
0000
MMMM
0000
,
0011
0000
MMMM
0000
1100
0000
MMMM
0000
1010
0000
0010
0100
0010
1000
0001
0000
,
0101
0000
MMMM
0000
1010
0000
MMMM
0000
1100
0000
0100
0010
0000
0010
0001
0000
,
1001
0000
MMMM
0000
1010
0000
MMMM
0000
0101
0000
0100
0010
0100
0001
0010
0000
,
0011
0000
MMMM
0000
0110
0000
MMMM
0000
1100
0000
1000
0100
0000
0010
0001
0000
,
1000
0010
1000
0000
0001
0100
0001
0000
0010
0001
0100
0000
MMMM
0010
1000
0000
,
0001
0010
0001
0000
1000
0100
1000
0000
0010
1000
0100
0000
MMMM
0010
0001
0000
,
1000
0100
0001
0000
1000
0010
0001
0000
1000
0010
1000
0010
0100
0001
0100
0000
,
0001
0100
1000
0000
0001
0010
1000
0000
0001
0100
0001
0100
0010
1000
0010
0000
,
MMMM
0000
1010
0000
0010
0100
0001
0010
0000
0001
0100
0010
1000
0100
0010
0000
,
MMMM
0000
0011
0000
0010
0100
1000
0010
0000
1000
0100
0010
0001
0100
0010
0000
,
1000
0000
0010
0000
0100
0000
0001
0000
MMMM
0000
0000
0000
0000
0000
0000
0000
MMMM
0000
0000
0000
0000
0000
0000
0000
MMMM
0000
0000
0000
0000
0000
0001
1000
,
0001
0000
0000
0001
0100
0000
0100
0000
0010
0000
0010
0000
1000
0000
MMMM
0000
,
1010
0000
MMMM
0000
0101
0000
0001
0010
0000
0001
0100
0001
0100
0010
1000
0000
,
1100
0000
MMMM
0000
0010
0001
0000
0011
0000
0100
0010
0100
0010
1000
0001
0000
,
0100
0000
0010
0000
1000
0000
0001
0000
MMMM
0000
0000
0000
0000
0000
0000
0000
MMMM
0000
0000
0000
0000
0000
0000
0000
MMMM
0000
0000
0000
0000
0000
1000
0001
,
1000
0000
0000
1000
0010
0000
0010
0000
0100
0000
0100
0000
0001
0000
MMMM
0000
,
0001
0000
0011
0000
0010
1000
0010
0001
0000
1000
0100
0010
0001
0000
MMMM
0000
,
0001
0000
0101
0000
1000
0100
0000
1010
0000
0010
0100
0000
0110
0000
1001
0000
,
0100
0000
0010
0000
1000
0000
0001
0000
MMMM
0000
0000
0000
0000
0000
0000
0000
MMMM
0000
0000
0000
0000
0000
0000
0000
MMMM
0000
0000
0000
0000
0000
0001
0100
,
0010
0000
0000
0010
1000
0000
1000
0000
0001
0000
0001
0000
0100
0000
MMMM
0000
,
1000
0000
1100
0000
0100
0001
0100
1000
0000
0001
0010
0100
1000
0000
MMMM
0000
,
1000
0000
1010
0000
0001
0010
0000
0101
0000
0100
0010
0000
0110
0000
1001
0000
,
0010
0100
0001
1000
MMMM
0000
MMMM
0000
0010
0100
0001
1000
MMMM
0000
MMMM
0000
,
0010
0100
0001
1000
0010
0100
0001
1000
0020
0000
0000
0000
1030
0100
0010
0001
,
0100
MMMM
0100
MMMM
0100
0010
1000
0001
0010
MMMM
0010
MMMM
0010
0001
0010
0100
,
1000
0000
0000
0100
0001
0000
0000
0100
1000
0000
0010
1000
0001
0000
0010
0001
,
1000
MMMM
1000
MMMM
1000
0010
0100
0000
0001
MMMM
0001
MMMM
0001
0010
0100
0000
,
1000
0001
0100
0000
0001
1000
0100
0000
0110
0000
MMMM
0000
1000
0100
0010
0001
,
0010
MMMM
0010
MMMM
0010
0001
0100
0010
1000
MMMM
1000
MMMM
1000
0100
0010
0001
,
0100
0000
0000
0010
1000
0000
0000
0100
0001
0000
0000
0010
1000
0000
0000
0100
,
0001
MMMM
0001
MMMM
0001
MMMM
0001
0100
1000
MMMM
1000
MMMM
1000
MMMM
1000
0100
,
0001
0000
0010
0100
1000
0000
1001
0000
0220
0000
0330
MMMM
0220
0000
0330
0000
,
1000
0100
0010
0100
1000
0010
0100
0000
0001
0010
0100
1000
0001
0100
0010
0000
,
1000
0100
1000
MMMM
1000
0010
1000
MMMM
1000
0100
1000
MMMM
1000
0010
1000
MMMM
,
1000
0001
0100
0010
0100
0001
1000
0000
0001
0010
0100
1000
0100
0010
0001
0000
,
MMMM
0001
0010
0000
MMMM
0010
0100
0000
MMMM
0100
1000
0000
MMMM
1000
0001
0000
,
0010
0001
0010
0001
0100
0001
0100
0000
0010
1000
0010
0000
1000
0100
1000
0000
,
0001
0010
0001
MMMM
0001
0100
0001
MMMM
0001
0010
0001
MMMM
0001
0100
0001
MMMM
,
0001
0100
0001
0100
0010
1000
0010
1000
0100
1000
0100
0010
0001
1000
0100
0010
,
0001
0000
0000
0001
0000
0000
0001
0000
0002
0000
0000
0000
1003
0000
0000
0000
,
1010
0000
MMMM
0000
1100
0000
0100
0010
0001
0000
MMMM
0000
0011
0000
0010
0001
,
0100
0000
MMMM
0000
0110
0000
0010
1000
0000
0000
MMMM
0000
1010
0000
1000
0000
,
2200
0000
3300
MMMM
2200
0000
3300
0000
0220
0000
0330
MMMM
0220
0000
0330
0000
,
0022
0000
0033
MMMM
0022
0000
0033
0000
0220
0000
0330
MMMM
0220
0000
0330
0000
,
1000
0001
1000
0000
0100
0010
0001
0010
0000
0000
0020
0000
0030
MMMM
0020
0000
,
0031
0100
0001
0000
0010
0100
1000
0100
0000
0000
0200
0000
0300
MMMM
0200
0000
,
1300
0010
1000
0010
0000
0100
0001
0000
1000
0100
0010
0001
0010
0100
1000
0000
,
0001
0100
0001
0100
0000
0010
1000
0000
0001
0010
0100
1000
0100
0010
0001
0000
,
2000
0000
3100
0010
0001
0000
MMMM
0000
0002
0000
0103
0010
1000
0000
MMMM
0000
,
1000
0010
1000
0000
0100
0010
0100
0010
0000
0000
0110
0000
MMMM
0000
1001
0000
,
0001
0000
0100
0010
0000
0010
1000
0000
0002
0000
0013
0100
0010
0000
MMMM
0000
,
1000
0000
0010
0100
0000
0100
0001
0000
2000
0000
3100
0010
0100
0000
MMMM
0000
,
1000
0010
0100
0000
0001
0010
0001
0100
0000
0000
0110
0000
MMMM
0000
0110
0000
,
1000
0010
0100
0000
0001
1000
0001
1000
0000
0000
1001
0000
MMMM
0000
1001
0000
,
0001
0000
0010
1000
0000
0010
0001
0000
MMMM
0000
0011
0000
MMMM
0000
1100
0000
,
1000
0000
0010
0001
0000
0010
1000
0000
MMMM
0000
1010
0000
MMMM
0000
0101
0000
,
0001
0000
MMMM
0000
1000
0000
MMMM
0000
0001
0010
0100
1000
MMMM
1000
0100
0010
,
0001
0000
1000
0000
1001
0000
MMMM
0000
1000
0010
0000
0020
0030
MMMM
0020
0000
,
1030
0000
MMMM
0000
0001
0000
MMMM
0000
1000
0100
0010
0001
MMMM
0001
0010
0100
,
1000
0000
0001
0000
1001
0000
MMMM
0000
0001
0010
0000
0020
0030
MMMM
0020
0000
,
0031
0100
0001
MMMM
0001
0100
0001
MMMM
0001
0100
0001
0100
0001
MMMM
0001
MMMM
,
0001
0000
0011
0000
0101
0000
MMMM
0000
1000
0010
1000
0100
MMMM
0000
1100
0000
,
1001
0000
0001
0100
0010
MMMM
0100
0010
0001
0000
1000
0100
0010
MMMM
0100
0010
,
1000
0100
1000
0100
0010
0001
0010
0001
0100
0010
1000
0000
MMMM
0000
1001
0000
,
0001
0010
0100
1000
0001
0010
0100
1000
MMMM
MMMM
0010
0100
0010
0100
0001
1000
,
0100
0001
0000
0001
0100
0000
MMMM
0000
1000
0000
1000
0000
0001
0000
0000
0000
,
0000
0000
0000
0000
;
#NOTES:
     dance-double:
     :
     Easy:
     7:
     :
00000000
00000000
00000000
00000000
,
00000000
00000000
00000000
00000000
,
00000000
00000000
00000000
00000000
,
00000000
00000000
00000000
00000000
,
00000000
00000000
00000000
00000000
,
00000001
00000000
00000100
00000000
,
00000010
00001000
00000010
00000000
,
00000010
00000000
00010000
00000000
,
00001000
00010000
00001000
00000000
,
00002000
00000000
00013000
00001000
,
02000000
00000000
03100000
01000000
,
00200000
00000000
10300000
00010000
,
20000000
00000000
30010000
00000000
,
10000000
01000000
10000000
01000000
,
00100000
00010000
00100000
00000000
,
00100000
00001000
00100000
00001000
,
00010000
00001000
00010000
00000000
,
00011000
00000000
00011000
00000000
,
00010000
00001000
00010000
00000000
00000100
00000000
00000000
00000000
,
00000110
00000000
00000110
00000000
,
00000001
00001000
00000001
00000000
00001000
00000000
00000000
00000000
,
00000001
00000100
00000010
00000000
,
00000010
00010000
00001000
00000000
,
00010000
00001000
00010000
00000000
,
00010000
00001000
01000000
00000000
,
00010000
00100000
00010000
00100000
,
01000000
01000000
01100000
00000000
,
00200000
00000000
00000000
00300000
,
00100000
00010000
00100000
00000000
,
00100000
00001000
00010000
00001000
,
00010000
00000100
00000110
00000000
,
00000200
00000000
00000000
00000300
,
00000100
00001000
00000100
00000000
,
00001000
00000010
00001000
00000010
,
00000100
00000100
00000110
00000000
,
00000020
00000000
00000000
00000030
,
00000010
00000100
00000010
00000000
,
00000010
00010000
00001000
00010000
,
00001000
01000000
01100000
00000000
,
02000000
00000000
00000000
03000000
,
01000000
01000000
01100000
00000000
,
10000000
00000000
00100000
00000000
10000000
01000000
10000000
00000000
,
00010000
00000000
00110000
00000000
,
00100000
00000000
00001000
00000000
00010000
00001000
00010000
00000000
,
00011000
00000000
00011000
00000000
,
00001000
00000000
00010000
00000000
00000010
00001000
00000010
00000000
,
00000100
00000000
00000110
00000000
,
00000100
00000000
00000001
00000000
00000010
00000100
00000010
00000000
,
00000110
00000000
00001001
00000000
,
00000001
00000100
00001000
00000000
,
00010000
00000000
00011000
00000000
,
00001000
00010000
00100000
10000000
,
10010000
00000000
10010000
00000000
,
10000000
01000000
00010000
00000000
,
00001000
00000000
00011000
00000000
,
00010000
00001000
00000010
00000001
,
00001001
00000000
00001001
00000000
,
00000200
00000000
00000000
00000300
,
00000020
00000000
00000000
00000030
,
00002000
00000000
00000000
00003000
,
00000200
00000000
00000000
00000300
,
00020000
00000000
00000000
00030000
,
00002000
00000000
00000000
00003000
,
00200000
00000000
00000000
00300000
,
02000000
00000000
00000000
03000000
,
00200000
00000000
00000000
00300000
,
00020000
00000000
00000000
00030000
,
02000000
00000000
00000000
03000000
,
00002000
00000000
00000000
00003000
,
00020000
00000000
00000000
00030000
,
00000200
00000000
00000000
00000300
,
00020000
00000000
00000000
00030000
,
00022000
00000000
00000000
00033000
,
00001000
00010000
00100000
10000000
,
00100000
01000000
00010000
00100000
,
00010000
10000000
01000000
00010000
,
00001000
00001000
00011000
00000000
,
00010000
00001000
00000010
00000001
,
00001000
00000010
00000100
00000001
,
00001000
00000001
00000100
00001000
,
00010000
00010000
00011000
00000000
,
00002000
00000000
00013000
00000000
,
00020000
00001000
00001000
00031000
,
00000000
00000000
00000000
00000000
;
#NOTES:
     dance-double:
     :
     Medium:
     11:
     :
00000000
00000000
00000000
00000000
,
00000000
00000000
00000000
00000000
,
00000000
00000000
00000000
00000000
,
00000000
00000000
00000000
00000000
,
00000000
00000000
00000000
00000000
,
00000001
00000000
00000000
00000100
00000000
00000000
00000010
00000000
00001000
00000000
00000100
00000000
00001000
00000000
00000010
00000000
,
00000000
00000000
00000010
00000000
00010000
00000000
00001000
00000000
00010000
00000000
00000000
00011000
00000000
00000000
00001000
00000000
,
00100000
00000000
00000000
00010000
00000000
00000000
01000000
00000000
10000000
00000000
01000000
00000000
00010000
00000000
10000000
00000000
,
00000000
00000000
10000000
00000000
01000000
00000000
00100000
00000000
00010000
00000000
00000000
10010000
00000000
00000000
10000000
00000000
,
01000000
00000000
00100000
00000000
01000000
00000000
00010000
00000000
00001000
00000000
00000000
00010000
00000000
00000000
00011000
00000000
,
00000000
00000000
00001000
00000000
00000100
00000000
00000001
00000000
00001000
00000000
00000000
00001001
00000000
00000000
00000000
00000000
,
00000001
00000000
00000010
00000000
00000100
00000000
00000010
00000000
00001000
00000000
00000000
00010000
00000000
00000000
00011000
00000000
,
00000000
00000000
00010000
00000000
00100000
00000000
10000000
00000000
00010000
00000000
00000000
10010000
00000000
00000000
00000000
00000000
,
10000000
00100000
10000000
00100000
01000000
MMMMMMMM
01000000
00100000
,
01000000
00010000
00100000
00010000
0010MMMM
MMMM1000
0001MMMM
00000000
,
00001000
00010000
00001000
00010000
00000100
MMMMMMMM
00000100
00001000
,
00000010
00001000
00000100
00000010
00000001
00000000
00001001
00000000
,
00000011
MMMMMMMM
00001010
00000000
00000001
00000100
00001000
00000000
,
00011000
MMMMMMMM
00011000
00000000
00010000
00001000
00010000
00000000
,
00101000
MMMMMMMM
00110000
00000000
00100000
00010000
01000000
00000000
,
01100000
MMMMMMMM
01100000
00000000
00010000
10000000
00010000
00000000
,
10100000
MMMMMMMM
00110000
00000000
10000000
01000000
00010000
00000000
,
00011000
MMMMMMMM
00011000
00000000
00001000
00010000
00001000
00000000
,
00010010
MMMMMMMM
00001010
00000000
00000010
00001000
00000100
00000000
,
00000110
MMMMMMMM
00000110
00000000
00001000
00000001
00001000
00000000
,
00000001
00000100
00000010
00001000
00000100
00000010
00000001
00000000
,
00001000
00000100
MMMMMMMM
00000000
00001000
00010000
MMMMMMMM
00000000
,
00010000
00001000
01000000
00010000
01000000
00000000
MMMMMMMM
00000000
,
00010000
00000000
00000000
00010000
00000000
00000000
10000000
00000000
01000000
00000000
00100000
00000000
01000000
00000000
00000000
00000000
,
10000000
01000000
00100000
00010000
01000000
00100000
10000000
00000000
,
00010000
01000000
MMMMMMMM
00000000
00010000
00001000
MMMMMMMM
00000000
,
00001000
00010000
00000100
00001000
00000100
00000000
MMMMMMMM
00000000
,
00001000
00000000
00000000
00001000
00000000
00000000
00000001
00000000
00000100
00000000
00000010
00000000
00000100
00000000
00000000
00000000
,
00000110
MMMMMMMM
00001001
MMMMMMMM
,
00000101
00001100
00011000
MMMMMMMM
,
00110000
MMMMMMMM
01010000
MMMMMMMM
,
00110000
10100000
10010000
MMMMMMMM
,
10000000
00010000
01000000
00000000
MMMMMMMM
00000000
01100000
00000000
,
10000000
01000000
00010000
00000000
00001000
00000000
00011000
00000000
,
00010000
00000100
00001000
00000000
00000010
00001000
00000100
00000000
,
00000010
MMMMMMMM
00000010
MMMMMMMM
00000010
00000000
MMMMMMMM
00000000
,
00000020
00000000
00000030
MMMMMMMM
00000000
00000000
00000000
00000000
00000200
00000000
00000300
MMMMMMMM
00000000
00000000
00000000
00000000
,
00000001
00001000
00000001
00000000
00001000
00000100
00001000
00000100
,
00020000
00000000
00030000
MMMMMMMM
00000000
00000000
00000000
00000000
00002000
00000000
00003000
MMMMMMMM
00000000
00000000
00000000
00000000
,
00010000
00001000
00100000
00010000
10000000
00000000
MMMMMMMM
00000000
,
00200000
00000000
00300000
MMMMMMMM
00000000
00000000
00000000
00000000
02000000
00000000
03000000
MMMMMMMM
00000000
00000000
00000000
00000000
,
10000000
00010000
10000000
00000000
00010000
01000000
00010000
01000000
,
00002000
00000000
00003000
MMMMMMMM
00000000
00000000
00000000
00000000
00020000
00000000
00030000
MMMMMMMM
00000000
00000000
00000000
00000000
,
00001000
00010000
00000010
00001000
00000001
00000000
MMMMMMMM
00000000
,
00000001
00000100
00000001
00000100
00000010
00001000
00000010
00001000
,
00000200
00000000
00000300
MMMMMMMM
00000200
00000000
00000300
MMMMMMMM
00000200
00000000
00000300
MMMMMMMM
00000200
00000000
00000300
00000000
,
00010000
00001000
00010000
00001000
00100000
00010000
00100000
00010000
,
02000000
00000000
03000000
MMMMMMMM
02000000
00000000
03000000
MMMMMMMM
02000000
00000000
03000000
MMMMMMMM
02000000
00000000
03000000
00000000
,
10000000
00100000
10000000
00100000
01000000
00010000
01000000
00010000
,
00200000
00000000
00300000
MMMMMMMM
00200000
00000000
00300000
MMMMMMMM
00200000
00000000
00300000
MMMMMMMM
00200000
00000000
00300000
00000000
,
00001000
00010000
00001000
00010000
00000100
00001000
00000100
00001000
,
00000020
00000000
00000030
MMMMMMMM
00000020
00000000
00000030
MMMMMMMM
00000020
00000000
00000030
MMMMMMMM
00000020
00000000
00000030
00000000
,
00000002
00000000
00000103
00001000
00020000
00000000
00031000
00010000
,
00100000
MMMMMMMM
01100000
MMMMMMMM
,
10000000
00100000
10000000
00100000
01000000
00000000
MMMMMMMM
00000000
,
00010000
00100000
00010000
00100000
01000000
00000000
MMMMMMMM
00000000
,
01000000
0010MMMM
MMMM1000
0001MMMM
,
MMMM0100
0001MMMM
MMMM1000
MMMMMMMM
,
00001000
00000000
00000000
00010000
00000000
00000000
00000100
00000000
00010000
00000000
00000000
00000000
MMMMMMMM
00000000
00000000
00000000
,
00001000
00000000
00000000
01000000
00000000
00000000
00010000
00000000
01000000
00000000
00000000
00000000
MMMMMMMM
00000000
00000000
00000000
,
20000000
00000000
30100000
00010000
00002000
00000000
00013000
00001000
,
00000100
MMMMMMMM
00000110
MMMMMMMM
,
00000001
00000100
00000001
00000100
00000010
00000000
MMMMMMMM
00000000
,
00001000
00000100
00001000
00000100
00000010
00000000
MMMMMMMM
00000000
,
00000010
MMMM0100
0001MMMM
MMMM1000
,
0010MMMM
MMMM1000
0001MMMM
MMMMMMMM
,
00010000
00000000
00000000
00001000
00000000
00000000
00100000
00000000
00001000
00000000
00000000
00000000
MMMMMMMM
00000000
00000000
00000000
,
00010000
00000000
00000000
00000010
00000000
00000000
00001000
00000000
00000010
00000000
00000000
00000000
MMMMMMMM
00000000
00000000
00000000
,
00000011
00000101
00001010
00001100
,
00000110
00001100
00010100
00011000
,
00001000
00010000
00001000
00000000
00100000
00010000
00100000
00000000
,
00010000
01000000
00100000
00000000
01100000
00000000
MMMMMMMM
00000000
,
10100000
11000000
00110000
01010000
,
01100000
01010000
01001000
00011000
,
00010000
00001000
00010000
00000000
00000010
00001000
00000010
00000000
,
00001000
00000100
00000010
00000000
00000110
00000000
MMMMMMMM
00000000
,
00000001
00000100
00001000
00000000
MMMMMMMM
00000000
00011000
00000000
,
00010000
00100000
10000000
00000000
MMMMMMMM
00000000
10010000
00000000
,
00000000
00000000
00000000
00000000
;
#NOTES:
     dance-double:
     :
     Hard:
     14:
     :
00000000
00000000
00000000
00000000
,
00000000
00000000
00000000
00000000
,
00000000
00000000
00000000
00000000
,
00000000
00000000
00000000
00000000
,
00000000
00000000
00000000
00000000
,
10000000
00000000
00000000
00000000
00200000
00000000
00000000
00000000
01000000
00000000
00000000
01000000
00000000
00000000
01300000
00000000
,
00000000
00000000
01000000
00000000
00010000
00000000
00000000
00000000
00100000
00000000
00000000
00002000
00000000
00000000
00000000
00000000
,
00013000
00000000
00000000
00000000
00020000
00000000
00000000
00000000
00000010
00000000
00000000
00000010
00000000
00000000
00030010
00000000
,
00000000
00000000
00000010
00000000
00001000
00000000
00000000
00000000
00000001
00000000
00000000
00002000
00000000
00000000
00000000
00000000
,
00003001
00000000
00000100
00000000
00000010
00000000
00000100
00000000
00000001
00000000
00000010
00000100
00000000
00001000
00000100
00000000
,
00000020
00000000
00000030
MMMMMMMM
00000020
00000000
00000030
00000000
00000200
00000000
00000300
MMMMMMMM
00000200
00000000
00000300
00000000
,
00000001
00000000
00000100
00000000
00000010
00000000
00010000
00000000
00001000
00000000
00010000
00001000
00000000
00010000
00001000
00000000
,
00020000
00000000
00030000
MMMMMMMM
00020000
00000000
00030000
00000000
00002000
00000000
00003000
MMMMMMMM
00002000
00000000
00003000
00000000
,
00001000
00000000
00100000
00000000
00001000
00000000
01000000
00010000
00000000
01000000
00010000
00000000
00100000
00000000
01000000
10000000
,
01000000
00000000
10000000
00000000
00100000
00000000
01000000
00010000
00000000
01000000
00010000
00000000
00100000
00000000
MMMMMMMM
00000000
,
00100000
00000000
00001000
00000000
00010000
00000000
00001000
00010000
00000000
00001000
00010000
00000000
00000010
00000000
00001000
00000100
,
00001000
00000000
00000010
00000000
00000100
00000000
00000001
00000010
00000000
00000001
00000010
00000000
00000100
00000000
MMMMMMMM
00000000
,
00000001
00000000
00000010
00000000
00000001
00000000
00000100
00000000
00001000
00000000
00010000
00001000
00000000
00010000
00001000
00000000
,
00010000
00000000
00100000
00000000
10000000
00000000
00100000
00000000
00010000
00000000
00100000
01000000
00000000
00000000
MMMMMMMM
00000000
,
10000000
00000000
00100000
00000000
00010000
00000000
00100000
00000000
10000000
00000000
01000000
00010000
00000000
01000000
00010000
00000000
,
00001000
00000000
00000010
00000000
00000100
00000000
00001000
00000000
00000100
00000000
00001000
00000001
00000000
00000000
MMMMMMMM
00000000
,
00000001
00000000
00000100
00000000
00000001
00000000
00000010
00000000
00001000
00000000
00010000
00001000
00000000
00010000
00001000
00000000
,
00010000
00000000
01000000
00000000
10000000
00000000
01000000
00000000
00010000
00000000
01000000
00100000
00000000
00000000
MMMMMMMM
00000000
,
10000000
00000000
01000000
00000000
00010000
00000000
01000000
00000000
10000000
00000000
00100000
00010000
00000000
00100000
00010000
00000000
,
00001000
00000000
00000100
00000000
00000010
00000000
00001000
00000000
00000010
00000000
00001000
00000001
00000000
00000000
MMMMMMMM
00000000
,
00000001
00000000
00000010
00000000
00000001
00000100
00000000
00000100
MMMM1000
00000000
00010000
00000000
0010MMMM
00000000
00010000
00000000
,
MMMM1000
00000000
00010000
00000000
00000100
00010000
00000000
00001000
00000000
00001000
01000000
00000000
0001MMMM
00000000
00100000
00000000
,
00010000
01000000
00100000
00000000
MMMMMMMM
00000000
00000000
00000000
MMMMMMMM
00000000
00000000
00000000
MMMMMMMM
00000000
00000000
00000000
,
00011000
00000000
00000000
00001000
00010000
00000000
00100000
00000000
10000000
00000000
10000000
00000000
10000000
00000000
MMMMMMMM
00000000
,
10000000
00000000
00100000
00000000
10000000
01000000
00000000
01000000
0001MMMM
00000000
00001000
00000000
MMMM0010
00000000
00001000
00000000
,
0001MMMM
00000000
00001000
00000000
01000000
00001000
00000000
00010000
00000000
00010000
00000100
00000000
MMMM1000
00000000
00000010
00000000
,
00001000
00000100
00000010
00000000
MMMMMMMM
00000000
00000000
00000000
MMMMMMMM
00000000
00000000
00000000
MMMMMMMM
00000000
00000000
00000000
,
00011000
00000000
00000000
00010000
00001000
00000000
00000010
00000000
00000001
00000000
00000001
00000000
00000001
00000000
MMMMMMMM
00000000
,
00000001
00000100
MMMM0010
00001000
00010000
01000000
0001MMMM
00100000
,
00001000
00000010
MMMM0100
00010000
00001000
00100000
0001MMMM
01000000
,
00100000
01000000
00100000
00000000
MMMMMMMM
00000000
00000000
00000000
MMMMMMMM
00000000
00000000
00000000
MMMMMMMM
00000000
00000000
00000000
,
00011000
00000000
00000000
01010000
00000000
00000000
11000000
00000000
10000000
00000000
10000000
00000000
10000000
00000000
MMMMMMMM
00000000
,
10000000
01000000
0010MMMM
00010000
00001000
00000100
MMMM1000
00000010
,
00010000
00100000
0100MMMM
00001000
00010000
00000010
MMMM1000
00000100
,
00000010
00000100
00000010
00000000
MMMMMMMM
00000000
00000000
00000000
00000010
00000100
00000010
00000000
MMMMMMMM
00000000
00000000
00000000
,
00000001
00000100
00001000
00010000
00011000
00000000
MMMMMMMM
00000000
,
02200000
00000000
03300000
MMMMMMMM
02000000
00100000
03100000
00000000
,
10000000
01000000
00010000
00000000
00001000
00000010
00000001
00000000
,
00000220
00000000
00000330
MMMMMMMM
00000200
00000010
00000310
00000000
,
00000001
00000100
00001000
00000000
00010000
00100000
10000000
00000000
,
02000000
00000000
03000000
MMMMMMMM
02000000
00000000
03000000
00000000
00200000
00000000
00300000
MMMMMMMM
00200000
00000000
00300000
00000000
,
10000000
00010000
00100000
00001000
00010000
00000010
00001000
00000000
,
00000200
00000000
00000300
MMMMMMMM
00000200
00000000
00000300
00000000
00000020
00000000
00000030
MMMMMMMM
00000020
00000000
00000030
00000000
,
00000001
00001000
00000100
00010000
00001000
01000000
00010000
00000000
,
10000000
00000000
00100000
00000000
01000000
00010000
01000000
00010000
00100000
00000000
00001000
00000000
00010000
00000100
00010000
00000100
,
00010000
MMMM1000
0010MMMM
MMMM1000
0001MMMM
MMMM0010
0001MMMM
MMMM1000
,
0001MMMM
00000000
00000100
00000000
00001000
00000010
00001000
00000010
00000100
00000000
00000001
00000000
00000010
00000100
00000010
00000001
,
00001000
MMMMMMMM
00001010
MMMMMMMM
00000110
MMMMMMMM
00000101
MMMMMMMM
,
00000001
00000000
00000010
00000000
00000100
00001000
00000100
00001000
00000010
00000000
00010000
00000000
00001000
01000000
00001000
01000000
,
00001000
0001MMMM
MMMM0010
0001MMMM
MMMM1000
0010MMMM
MMMM1000
0001MMMM
,
MMMM1000
00000000
01000000
00000000
00010000
00100000
00010000
00100000
01000000
00000000
10000000
00000000
00100000
01000000
00100000
10000000
,
00010000
MMMMMMMM
00110000
MMMMMMMM
01100000
MMMMMMMM
11000000
MMMMMMMM
,
20000000
00000000
00000000
00000000
31000000
00000000
00100000
00020000
00000000
00000000
00000000
00000000
01030000
00000000
00001000
00000000
,
0001MMMM
00100000
0001MMMM
00001000
MMMM0100
00001000
0001MMMM
00000000
,
00001000
00000000
00010000
00000010
00000000
00010000
00000010
00000000
00002000
00000000
00003000
MMMMMMMM
00002000
00000000
00003000
00000000
,
00000001
00000000
00000010
00000100
00000000
00000010
00000100
00000000
00002000
00000000
00003000
MMMMMMMM
00002000
00000000
00003000
00000000
,
MMMM0001
00000100
00000010
00010000
MMMM0100
00000010
00000100
00001000
,
MMMM0010
00000000
00010000
00000000
00001000
00000000
01000000
00020000
0000MMMM
00000000
00000000
00000000
00130000
00000000
00010000
00000000
,
01000000
00000000
10000000
01000000
00000000
10000000
01000000
00000000
00020000
00000000
00030000
MMMMMMMM
00020000
00000000
00030000
00000000
,
00100000
00000000
01000000
10000000
00000000
01000000
10000000
00000000
00020000
00000000
00030000
MMMMMMMM
00020000
00000000
00030000
00000000
,
20000000
00000000
00000000
00000000
30100000
00000000
01000000
00020000
00000000
00000000
00000000
00000000
00130000
00000000
00001000
00000000
,
0001MMMM
01000000
0001MMMM
00001000
MMMM0010
00001000
0001MMMM
00000000
,
00001000
00000000
00010000
00000100
00000000
00010000
00000010
00000000
00002000
00000000
00003000
MMMMMMMM
00002000
00000000
00003000
00000000
,
00000001
00000000
00000100
00000010
00000000
00000100
00000001
00000000
00002000
00000000
00003000
MMMMMMMM
00002000
00000000
00003000
00000000
,
MMMM0001
00000010
00000100
00010000
MMMM0010
00000100
00000010
00001000
,
MMMM0100
00000000
00010000
00000000
00001000
00000000
00100000
00020000
0000MMMM
00000000
00000000
00000000
01030000
00000000
00010000
00000000
,
00100000
00000000
10000000
00100000
00000000
00010000
00100000
00000000
00020000
00000000
00030000
MMMMMMMM
00020000
00000000
00030000
00000000
,
01000000
00000000
00100000
10000000
00000000
01000000
10000000
00000000
00020000
00000000
00030000
MMMMMMMM
00020000
00000000
00030000
00000000
,
10000000
01000000
11000000
MMMMMMMM
00100000
00010000
00110000
MMMMMMMM
,
00001000
00000100
00001000
00000001
00000011
MMMMMMMM
00001001
MMMMMMMM
,
00000001
00000100
00000101
MMMMMMMM
00000010
00001000
00001010
MMMMMMMM
,
00010000
01000000
00010000
10000000
10100000
MMMMMMMM
10010000
MMMMMMMM
,
00010000
00100000
MMMM1000
00010000
MMMM1000
00000010
00000100
0001MMMM
,
MMMM1000
0010MMMM
MMMM1000
0100MMMM
MMMM1000
00010000
00011000
MMMMMMMM
,
00010000
00000010
00010000
00000000
00000100
00000000
MMMMMMMM
00000000
00000100
00000010
00000001
00000000
00001000
00000000
MMMMMMMM
00000000
,
00001000
00000100
00001000
00000000
00000100
00010000
00000100
00000000
00010000
00001000
00010000
00001000
00010000
00000000
MMMMMMMM
00000000
,
00010000
00001000
00100000
00000000
00010000
01000000
00100000
00000000
10000000
00010000
00100000
00000000
01000000
10000000
01000000
00000000
,
10000000
01000000
00000000
01000000
00010000
00000000
MMMMMMMM
00000000
00010000
00000000
00001000
00000000
00011000
00000000
00000000
00000000
,
00000000
00000000
00000000
00000000
;
#NOTES:
     dance-double:
     :
     Challenge:
     17:
     :
00000000
00000000
00000000
00000000
,
00000000
00000000
00000000
00000000
,
00000000
00000000
00000000
00000000
,
00000000
00000000
00000000
00000000
,
00000000
00000000
00000000
00000000
,
10000000
00000000
00000000
00000000
01000000
00000000
00000000
00000000
00010000
00000000
00000000
00010000
00000000
00000000
00011000
00000000
,
00000000
00000000
00001000
00000000
00000010
00000000
00000000
00000000
00000001
00000000
00000000
00002002
00000000
00000000
00003003
00000000
,
00000001
00000000
00000000
00000000
00000100
00000000
00000000
00000000
00001000
00000000
00000000
00001000
00000000
00000000
00011000
00000000
,
00000000
00000000
00010000
00000000
00100000
00000000
00000000
00000000
10000000
00000000
00000000
20020000
00000000
00000000
30030000
00000000
,
00200000
00000000
00300000
MMMMMMMM
00200000
00000000
00300000
00000000
02000000
00000000
03000000
MMMMMMMM
02000000
00000000
03000000
00000000
,
10000000
01000000
00010000
00001000
00000010
00000001
00001000
00000000
,
00000020
00000000
00000030
MMMMMMMM
00000020
00000000
00000030
00000000
00000200
00000000
00000300
MMMMMMMM
00000200
00000000
00000300
00000000
,
00000001
00000100
00001000
00010000
00100000
10000000
00010000
00000000
,
10000000
00100000
10000000
00000000
01000000
00000000
00100000
00010000
00000000
00100000
00001000
00000000
00022000
00000000
00033000
MMMMMMMM
,
00022000
00000000
00033000
00000000
00010000
00000100
00010000
00000100
00000000
00001000
00000010
00000000
00000110
00000000
MMMMMMMM
00000000
,
00000001
00000010
00000001
00000000
00000100
00000000
00000010
00001000
00000000
00000010
00010000
00000000
00022000
00000000
00033000
MMMMMMMM
,
00022000
00000000
00033000
00000000
00001000
01000000
00001000
01000000
00000000
00010000
00100000
00000000
01100000
00000000
MMMMMMMM
00000000
,
10000000
00000000
01000000
00000000
0001MMMM
00000000
00001000
00000000
MMMM0010
00000000
00000100
00001000
00000000
00000100
00010000
00000000
,
0010MMMM
00000000
01000000
00000000
00001000
00000000
00010000
00000000
MMMM0100
00000000
00000010
00000001
00000000
00000000
MMMMMMMM
00000000
,
00000001
00000000
00000100
00000000
MMMM1000
00000000
00010000
00000000
0010MMMM
00000000
01000000
00010000
00000000
01000000
00001000
00000000
,
MMMM0010
00000000
00000100
00000000
00010000
00000000
00001000
00000000
0100MMMM
00000000
00100000
10000000
00000000
00000000
MMMMMMMM
00000000
,
10000000
01000000
0010MMMM
00000000
00001000
00100000
0100MMMM
00000000
0001MMMM
00000000
MMMM1000
00000000
0001MMMM
00000000
MMMM1000
00000000
,
00000010
00000100
0001MMMM
00000000
00001000
00000000
0001MMMM
00000100
00000010
00000000
00000001
00001000
00000000
00000000
MMMMMMMM
00000000
,
00000001
00000100
MMMM0010
00000000
00010000
00000010
MMMM0100
00000000
MMMM1000
00000000
0001MMMM
00000000
MMMM1000
00000000
0001MMMM
00000000
,
00100000
01000000
MMMM1000
00000000
00010000
00000000
MMMM1000
01000000
00100000
00000000
10000000
00010000
00000000
00000000
MMMMMMMM
00000000
,
10000000
00000000
01000000
00000000
00100000
00001000
00000000
00001000
0001MMMM
00000000
MMMM0100
00000000
0001MMMM
00000000
MMMM1000
00000000
,
00100000
00000000
00010000
00000000
0100MMMM
00100000
00000000
00010000
00000000
00001000
00010000
00001000
00010000
00000000
MMMMMMMM
00000000
,
00010000
00000000
00000010
00000000
00001000
00000000
00000010
00000000
MMMMMMMM
00000000
00000000
00000000
00000000
00000000
00000000
00000000
MMMMMMMM
00000000
00000000
00000000
00000000
00000000
00000000
00000000
MMMMMMMM
00000000
00000000
00000000
00000000
00000000
00000001
00001000
,
00000001
00000000
00000000
00000001
00000100
00000000
00000100
00000000
00000010
00000000
00001000
00000000
00001001
00000000
00000000
00000000
,
00000001
00000000
00000100
00000000
00000010
00010000
00000000
00010000
MMMM1000
00000000
0100MMMM
00000000
MMMM1000
00000000
0001MMMM
00000000
,
00000010
00000000
00001000
00000000
MMMM0100
00000010
00000000
00001000
00000000
00010000
00001000
00010000
00001000
00000000
MMMMMMMM
00000000
,
00001000
00000000
00100000
00000000
00010000
00000000
00100000
00000000
MMMMMMMM
00000000
00000000
00000000
00000000
00000000
00000000
00000000
MMMMMMMM
00000000
00000000
00000000
00000000
00000000
00000000
00000000
MMMMMMMM
00000000
00000000
00000000
00000000
00000000
10000000
00010000
,
10000000
00000000
00000000
10000000
01000000
00000000
01000000
00000000
00100000
00000000
00010000
00000000
10010000
00000000
00000000
00000000
,
10100000
00000000
MMMMMMMM
00000000
01010000
00000000
MMMMMMMM
00000000
10000000
00100000
01000000
00000000
00010000
00100000
00001000
00000000
,
00011000
00000000
MMMMMMMM
00000000
00010100
00000000
MMMMMMMM
00000000
00001000
00000100
00000010
00000000
00000001
00001000
00000001
00000000
,
00000100
00000000
00000010
00000000
00001000
00000000
00000001
00000000
MMMMMMMM
00000000
00000000
00000000
00000000
00000000
00000000
00000000
MMMMMMMM
00000000
00000000
00000000
00000000
00000000
00000000
00000000
MMMMMMMM
00000000
00000000
00000000
00000000
00000000
00000001
00000100
,
00000001
00000000
00000000
00000001
00001000
00000000
00000100
00000000
00000001
00000000
00000100
00000000
00000110
00000000
00000000
00000000
,
00000011
00000000
MMMMMMMM
00000000
00001100
00000000
MMMMMMMM
00000000
00000001
00000010
00000100
00000000
00001000
00000010
00010000
00000000
,
00011000
00000000
MMMMMMMM
00000000
01001000
00000000
MMMMMMMM
00000000
00010000
01000000
00100000
00000000
10000000
00010000
10000000
00000000
,
01000000
00100000
00010000
10000000
MMMMMMMM
00000000
00000000
00000000
10000000
01000000
00100000
00010000
MMMMMMMM
00000000
00000000
00000000
,
10000000
01000000
00010000
00000000
00001000
00000010
00000001
00000000
00002000
00000000
00000000
00003000
MMMMMMMM
00000000
00000000
00000000
,
00000220
00000000
00000330
MMMMMMMM
00000220
00000000
00000330
00000000
00022000
00000000
00033000
MMMMMMMM
00022000
00000000
00033000
00000000
,
02200000
00000000
03300000
MMMMMMMM
02200000
00000000
03300000
00000000
10000000
00100000
10000000
00100000
01000000
00010000
01000000
00010000
,
00200000
00000000
00300000
MMMMMMMM
00202000
00000000
00303000
MMMMMMMM
00022000
00000000
00033000
MMMMMMMM
00020200
00000000
00030300
00000000
,
00000100
00010000
00000100
00010000
00001000
00100000
00001000
00100000
00010000
00000000
MMMMMMMM
00000000
10010000
00000000
00000000
00000000
,
02200000
00000000
03300000
MMMMMMMM
02200000
00000000
03300000
00000000
00022000
00000000
00033000
MMMMMMMM
00022000
00000000
00033000
00000000
,
00000220
00000000
00000330
MMMMMMMM
00000220
00000000
00000330
00000000
00000001
00000010
00000001
00000010
00000100
00001000
00000100
00001000
,
00000020
00000000
00000030
MMMMMMMM
00020020
00000000
00030030
MMMMMMMM
00022000
00000000
00033000
MMMMMMMM
02002000
00000000
03003000
00000000
,
01000000
00001000
01000000
00001000
00010000
00000010
00010000
00000010
00001000
00000000
MMMMMMMM
00000000
00001001
00000000
00000000
00000000
,
00000001
00000100
00000010
00001000
00000100
00000000
00000010
00000100
00001000
00000100
00010000
00001000
00010000
00000000
00001000
00100000
,
0001MMMM
0100MMMM
MMMM1000
MMMM0100
0001MMMM
0010MMMM
MMMM1000
MMMM0010
,
00000001
00000010
00000100
00001000
00000010
00000000
00000100
00000010
00000100
00001000
00010000
00001000
00010000
00000000
00001000
00000000
,
00100000
00010000
01000000
00000000
00100000
10000000
01000000
00000000
02200000
00000000
03300000
MMMMMMMM
02200000
00000000
03300000
00000000
,
10000000
01000000
00100000
00010000
01000000
00000000
00100000
01000000
00010000
01000000
00001000
00010000
00001000
00000000
00010000
00000010
,
MMMM1000
MMMM0100
0001MMMM
0100MMMM
MMMM1000
MMMM0010
0001MMMM
0010MMMM
,
10000000
00100000
01000000
00010000
00100000
00000000
01000000
00100000
01000000
00010000
00001000
00010000
00001000
00000000
00010000
00000000
,
00000010
00000000
00000000
00000010
00000000
00000000
00000010
00000000
00000020
00000000
00000030
MMMMMMMM
00000020
00000000
00000030
00000000
,
00000011
00000000
MMMMMMMM
00000000
00000101
00000000
00000100
00000010
00001000
00000000
MMMMMMMM
00000000
00001010
00000000
00000010
00010000
,
00001000
00000000
00100000
00000000
00001000
00000000
00010000
00002000
00003000
MMMMMMMM
00002000
00000000
00013000
00000000
00000000
00000000
,
00000010
MMMM1000
00000100
0001MMMM
MMMM1000
0010MMMM
01000000
0001MMMM
,
MMMM1000
00000010
MMMM0100
0001MMMM
MMMM1000
0010MMMM
MMMM1000
00000000
,
00010000
00001000
00010000
00000000
00000100
00001000
00000100
00000010
00000000
00000010
00000001
00000000
00000200
00000000
00000300
MMMMMMMM
,
00000200
00000000
00000310
00010000
00001000
00000000
00100000
00010000
00000000
00000000
02000000
00000000
03000000
MMMMMMMM
02000000
00000000
,
03100000
00010000
00100000
00010000
00000000
00001000
00010000
00001000
00010000
00000000
MMMMMMMM
00000000
00011000
00000000
MMMMMMMM
00000000
,
00001000
00000010
00001000
00000010
00000000
00001000
00010000
00001000
00010000
00000000
MMMMMMMM
00000000
01100000
00000000
MMMMMMMM
00000000
,
10100000
00000000
MMMMMMMM
00000000
11000000
00000000
01000000
00100000
00010000
00000000
MMMMMMMM
00000000
00110000
00000000
00100000
00001000
,
00010000
00000000
00000010
00000000
00010000
00000000
00001000
00020000
00030000
MMMMMMMM
00020000
00000000
00031000
00000000
00000000
00000000
,
00100000
0001MMMM
01000000
MMMM1000
0001MMMM
MMMM0010
00000100
MMMM1000
,
0001MMMM
00100000
0100MMMM
MMMM1000
0001MMMM
MMMM0010
0001MMMM
00000000
,
00001000
00010000
00001000
00000000
01000000
00010000
01000000
00100000
00000000
00100000
10000000
00000000
02000000
00000000
03000000
MMMMMMMM
,
02000000
00000000
03100000
00001000
00010000
00000000
00000010
00001000
00000000
00000000
00000200
00000000
00000300
MMMMMMMM
00000200
00000000
,
00000310
00001000
00000010
00001000
00000000
00010000
00001000
00010000
00001000
00000000
MMMMMMMM
00000000
00011000
00000000
MMMMMMMM
00000000
,
00010000
00100000
00010000
00100000
00000000
00010000
00001000
00010000
00001000
00000000
MMMMMMMM
00000000
00011000
00000000
MMMMMMMM
00000000
,
00010000
00000010
00001000
00000000
00000010
00000100
00000001
00000000
00000010
00000100
00000010
00000100
00000000
00000010
00000001
00000000
,
00000011
MMMMMMMM
00000110
MMMMMMMM
00001100
00000100
00010000
MMMMMMMM
,
00001000
00100000
00010000
00000000
00100000
01000000
10000000
00000000
00100000
01000000
00100000
01000000
00000000
00100000
10000000
00000000
,
10100000
MMMMMMMM
01100000
MMMMMMMM
01010000
01000000
00001000
MMMMMMMM
,
00001000
0001MMMM
00001000
MMMM0000
00001000
0001MMMM
00001000
MMMM0000
00001000
0001MMMM
00001000
0001MMMM
00001000
00000000
MMMMMMMM
00000000
,
00010000
00000100
00001000
00000010
MMMM0100
00000010
00001000
00000100
00010000
00001000
00100000
00010000
0100MMMM
00000000
00001000
00000000
,
00010000
MMMM1000
00010000
0000MMMM
00010000
MMMM1000
00010000
0000MMMM
00010000
MMMM1000
00010000
MMMM1000
00010000
00000000
MMMMMMMM
00000000
,
00001000
01000000
00010000
00100000
0100MMMM
00100000
00010000
01000000
00001000
00010000
00000010
00001000
MMMM0100
00000000
00010000
00000000
,
00001000
00010000
00100000
01000000
00010000
00100000
01000000
00000000
00010000
00001000
00010000
00001000
00000010
00000001
00000010
00000000
,
00000001
00000100
00000000
00000100
00001000
00000000
00010000
00000000
00100000
00000000
00100000
00000000
10000000
00000000
00000000
00000000
,
00000000
00000000
00000000
00000000
;
