
//----- song ID: dwtd -----//
#TITLE:Dance With The Dead;
#ARTIST:BEMANI Sound Team "SYUNN";
#BANNER:Dance With The Dead.png;
#BACKGROUND:Dance With The Dead-bg.png;
#CDTITLE:./CDTitles/DANCERUSH STARDOM.png;
#MUSIC:Dance With The Dead.ogg;
#SAMPLESTART:26.565;
#SAMPLELENGTH:15;
#BPMS:0=150;
#BGSTAGE:15;
#NOTES:
     dance-single:
     :
     Beginner:
     3:
     :
0000
0000
0000
0000
,
0000
0000
0000
0000
,
0000
0000
0000
0000
,
0000
0000
0000
0000
,
0000
0000
0000
0000
,
0110
0000
0000
0000
,
0000
0000
0000
0000
,
0000
0000
0000
0000
,
1001
0000
0000
0000
,
1000
0000
0001
0000
,
1000
0000
0001
0000
,
0100
0000
0010
0000
,
0100
0000
0010
0000
,
1000
0000
0010
0000
,
1000
0000
0001
0000
,
0020
0000
0000
0030
,
0200
0000
0000
0300
,
0010
0000
0001
0000
,
0010
0000
0001
0000
,
1000
0000
0010
0000
,
0100
0100
0100
0000
,
0001
0000
0100
0000
,
0001
0000
1000
0000
,
0100
0000
1000
0000
,
0100
0000
0010
0000
,
0001
0000
1000
0000
,
0100
0000
0100
0000
,
0010
0000
0010
0000
,
0100
0100
0100
0000
,
1000
0000
0001
0000
,
0001
0000
0100
0000
,
0001
0000
1000
0000
,
0010
0000
1000
0000
,
0002
0000
0000
0003
,
2000
0000
0000
3000
,
0002
0000
0000
0003
,
2000
0000
0000
3000
,
0010
0000
0000
0000
,
0100
0000
0000
0000
,
0001
0000
0000
0000
,
1000
0000
0000
0000
,
0001
0000
0100
0000
,
0001
0000
0100
0000
,
0010
0000
1000
0000
,
0010
0000
1000
0000
,
0001
0001
0001
0000
,
1000
1000
1000
0000
,
0200
0000
0000
0300
,
1000
0000
0000
0000
,
0010
0000
0100
0000
,
0010
0000
1000
0000
,
0002
0000
0003
0000
,
2000
0000
3000
0000
,
0010
0000
0100
0000
,
0010
0000
0100
0000
,
0001
0000
0000
0001
,
0000
0000
1000
0000
,
0100
0000
0010
0000
,
0000
0010
0000
0000
,
0001
0000
2002
0000
,
0000
0000
3003
0000
,
1000
0000
0001
0000
,
0000
0001
0000
0000
,
0100
0000
0010
0000
,
0000
0000
1000
0000
,
1001
0000
0000
0000
,
0000
0000
0000
0000
;
#NOTES:
     dance-single:
     :
     Easy:
     8:
     :
0000
0000
0000
0000
,
0000
0000
0000
0000
,
0000
0000
0000
0000
,
0000
0000
0000
0000
,
0000
0000
0000
0000
,
1001
0000
0000
0000
,
1000
0000
0000
0000
,
0001
0000
0000
0000
,
0110
0000
1000
0000
,
0001
0100
0001
0100
,
0010
1000
1001
0000
,
1000
0010
1000
0010
,
0100
0110
1001
0000
,
1000
1000
0100
0100
,
0010
0010
0001
0001
,
0200
0320
1030
0001
,
2002
0000
0000
3003
,
0001
1000
0010
0100
,
0010
1000
0001
0010
,
0001
0100
0001
1000
,
0100
0010
0002
0000
,
1003
0010
0220
0330
,
1000
0100
1000
0010
,
1000
0001
0010
0100
,
1000
0010
0110
0000
,
0001
0100
0101
0000
,
1100
0000
0101
0000
,
1001
0000
1010
1100
,
0101
0011
2000
3002
,
0203
0000
0310
0000
,
1000
0000
0001
0000
,
0100
0010
0100
0001
,
1000
0100
0010
0001
,
2000
0000
0000
0000
,
3002
0000
0000
0000
,
0203
0000
0000
0000
,
0320
0000
0000
0000
,
1030
0001
1001
0000
,
0010
0100
0110
0000
,
0001
0100
0101
0000
,
1000
0010
1010
0000
,
0001
0100
0001
0100
,
0010
1000
0010
1000
,
0001
0010
0001
0010
,
0100
1000
0100
1000
,
0010
0100
0010
0100
,
0010
0100
0010
0100
,
0002
2003
3002
2003
,
3001
0000
0000
0000
,
0100
1001
0100
0010
,
1001
0100
1001
0010
,
0200
0010
1000
0310
,
0002
1000
0100
1003
,
0020
0130
0002
1003
,
0200
0310
0002
0103
,
0020
0000
1030
0002
0000
0103
0020
0000
,
1030
0001
1000
0000
0100
0000
0010
0000
,
0002
0000
0103
0010
0200
0000
0310
2000
,
0000
3001
0200
0000
0310
0100
0010
0000
,
1000
0001
2002
0000
,
0000
0000
3003
1000
,
0010
0000
0100
0000
0002
0000
1003
0020
,
0000
0130
0002
0000
1003
0100
1000
0000
,
0001
0000
0000
0000
0101
0000
0000
1100
,
0000
0110
1000
0001
,
1001
0000
0000
0000
,
0000
0000
0000
0000
;
#NOTES:
     dance-single:
     :
     Medium:
     12:
     :
0000
0000
0000
0000
,
0000
0000
0000
0000
,
0000
0000
0000
0000
,
0000
0000
0000
0000
,
0000
0000
0000
0000
,
0110
0000
0000
0000
,
0001
0000
0000
0000
,
0001
0000
0000
1000
0000
0000
0010
0000
,
0110
0000
0000
1000
0001
0000
0000
1000
,
0100
0000
0000
0000
1000
0000
0000
0000
0010
0000
0000
0010
0000
0000
0100
0000
,
0001
0010
0001
0000
0011
0000
1010
0000
,
1000
0100
1000
0000
0001
0100
0001
0000
,
1000
0010
1000
0010
0100
0000
0001
0000
,
0010
0100
0010
0000
0100
0010
0100
0000
,
1000
0100
1000
0000
0001
0100
0001
0000
,
0020
0000
0230
0000
1300
0010
0100
0001
,
2000
0000
0000
0000
3100
0010
0100
0000
,
1000
0000
0000
0000
0010
0000
1000
0000
0100
0000
0000
1000
0000
0000
0001
0000
,
0010
0000
0001
0000
0100
0000
0010
0000
1000
0000
0000
0001
0000
0000
0100
0000
,
0010
0000
1000
0000
0100
0000
1000
0000
0001
0000
0000
0010
0000
0000
0100
0000
,
1000
0001
0010
0001
0200
0000
0310
0000
,
0100
0000
0001
0000
1000
0000
0100
0000
2000
0000
0000
3001
0000
0100
0000
0000
,
0001
0000
0100
0000
0010
0000
1000
0000
0100
0000
0000
0010
0000
0000
0100
0000
,
1000
0000
0001
0000
0010
0000
0100
0000
1000
0000
0000
0001
0000
0000
0010
0000
,
0001
1000
0010
0100
0001
0100
0010
0000
,
1000
0001
0000
0100
0000
0000
0001
0000
0010
0000
0010
0000
,
1000
0010
0010
0001
0100
0100
,
1000
0000
0100
0000
0001
0000
0010
0000
0001
0100
0000
0010
,
1000
0000
0001
0010
0000
0001
0100
0000
0010
1000
0000
0100
,
2000
0000
3001
0100
0010
0010
,
1000
0100
0100
0001
0100
0100
,
1000
0000
0010
0000
0100
0000
0000
0000
0001
0000
0000
0010
0000
0000
0001
0000
,
1000
0100
1000
0000
0010
0100
0010
0000
,
2000
0000
0000
0000
,
3200
0000
0000
0000
,
0320
0000
0000
0000
,
0032
0000
0000
0000
,
1003
0001
0101
0000
,
0001
0000
1000
0000
1010
0000
0010
1000
,
0100
0000
1010
0000
0001
0000
0100
0001
,
0010
0000
0011
0000
1000
0100
0010
0001
,
1000
0100
1000
0100
0010
0001
0010
0000
,
0001
0100
0001
0100
0010
1000
0010
0000
,
0100
0001
0100
0001
1000
0010
1000
0000
,
0001
0010
0001
0010
0100
1000
0100
0000
,
1000
0001
1000
0001
1000
0001
1000
0001
,
0100
0010
0100
0010
0100
0010
0100
0010
,
1000
1000
1000
0001
0001
0001
1000
1000
1000
0001
0001
0001
,
0100
0000
0000
0000
,
1001
0000
0001
0100
0010
0000
1000
0100
,
0010
0000
0001
1000
0100
0000
1000
0010
,
0100
0000
0000
0010
0000
0000
0000
1000
0000
0000
1000
0000
0000
0000
0001
0000
0000
0000
0000
0010
0000
0000
0010
0000
,
0001
0000
0000
1000
0000
0000
0000
0010
0000
0000
0010
0000
0000
0000
0100
0000
0000
0000
0000
0010
0000
0000
0010
0000
,
0000
2000
0000
0000
0000
0000
3001
0000
0000
0010
0000
0000
0200
0000
0000
0000
0000
0000
0310
0000
0000
0000
0000
0000
,
0002
0000
0000
0000
0000
0000
0000
0000
0203
0000
0000
0000
0320
0000
0000
0000
0000
0000
1030
0000
0000
0100
0000
0000
,
1000
0010
1000
0001
0010
0001
0100
0010
,
0100
0001
1000
0100
1000
0010
0001
0010
,
1000
0001
0100
0001
1000
0010
1000
0001
,
0010
0001
1000
0010
1000
0100
0001
0100
,
1000
0010
0220
0000
,
0000
0000
0330
1000
,
0001
0000
0000
0000
1000
0100
0000
0010
0001
0000
0010
0000
0001
0000
1000
0000
,
0100
1000
0001
0010
0001
0100
1000
0100
,
0001
0000
0000
0000
0110
0000
0000
0101
,
0000
0000
0000
1100
0000
0000
0001
0000
0000
0100
0100
0100
,
0010
0000
0000
0000
,
0000
0000
0000
0000
;
#NOTES:
     dance-single:
     :
     Hard:
     15:
     :
0000
0000
0000
0000
,
0000
0000
0000
0000
,
0000
0000
0000
0000
,
0000
0000
0000
0000
,
0000
0000
0000
0000
,
0110
0000
0000
0000
,
0001
0000
0000
0000
,
1000
0000
0000
0100
0000
0000
0010
0000
,
0011
0000
0000
0001
1000
0000
0000
0001
,
0100
0000
0001
0000
0010
0000
0000
0000
0100
1000
0000
0100
0010
0000
0001
0000
,
1000
0010
0100
0000
1100
0000
0101
0000
,
1000
0010
1000
0010
0100
0001
0100
0001
,
1000
0000
0100
0000
1000
0000
0100
0000
0010
0100
0010
0000
0001
0000
0100
0000
,
0010
1000
0010
1000
0001
0010
0001
0010
,
0100
1000
0100
1000
0001
0100
0010
1000
,
0001
0000
0000
0000
0001
0000
0000
0000
0001
0000
0000
0000
1000
0000
0000
0000
1000
0000
0000
0000
1000
0000
0000
0000
0001
0000
0000
0100
0000
0000
0010
0000
0000
0000
0000
0000
1000
0000
0000
0100
0000
0000
0010
0000
0000
0000
0000
0000
,
0002
0000
0000
0000
1003
0010
0100
0001
,
1000
0100
0000
0000
1000
0000
0010
0100
0001
0000
0010
0001
0000
0010
0001
0010
,
0001
0000
0100
0000
0010
1000
0000
0010
0100
0000
0010
1000
0000
0010
1000
0010
,
1000
0000
0001
0000
0010
0100
0000
0010
0001
0000
1000
0010
0000
0100
0010
0000
,
1000
0000
0000
0000
0000
0000
0001
0000
0000
0000
0000
0000
0010
0000
0000
0100
0000
0000
0000
0000
0000
0010
0000
0000
0001
0000
0000
0000
0100
0000
0000
0000
0001
0000
0000
0000
1000
0000
0000
0000
0010
0000
0000
0000
1000
0000
0000
0000
,
0010
0100
0010
0000
1000
0100
0000
0010
0002
0000
0000
1003
0000
0100
0010
0100
,
1000
0100
1000
0000
0001
0100
0000
0010
1000
0000
0001
0010
0001
0000
0100
0000
,
0010
0000
0100
0000
0010
1000
0000
0010
0100
0000
0001
0010
0000
0001
0100
0000
,
0001
0000
0010
0000
0100
1000
0100
1000
0001
0000
0100
0000
0010
0000
1000
0000
,
0100
1000
0000
0001
0010
0100
1000
0000
0010
0100
0010
0000
,
1000
0000
0100
0010
0100
0000
1000
0000
0010
0100
0010
0000
,
1000
0001
0100
0000
0100
0000
0010
0000
1000
0001
1000
0010
,
1000
0100
0001
1000
0010
0001
0100
0000
0010
1000
0100
0100
,
0020
0000
0000
0000
0031
0100
0010
0100
0001
0000
1001
0000
,
1000
0001
0100
0000
0110
0000
0001
1000
0100
0000
0110
0000
,
1000
0000
0001
0000
1000
0010
0000
0100
0010
0000
1000
0100
0000
0010
0001
0000
,
0100
0000
0010
0000
1000
0001
0000
0010
0100
0010
0100
0000
1000
0010
0000
0000
,
0200
0000
0000
0000
,
0302
0000
0000
0000
,
2003
0000
0000
0000
,
3002
0000
0000
0003
,
1010
0101
1100
0000
,
0001
0000
0000
0000
1010
0000
0000
0000
0001
0000
0000
0000
1000
0100
0010
0001
,
1000
0000
0000
0000
0011
0000
0000
0000
1000
0000
0000
0000
0001
0010
0100
1000
,
0001
0000
0000
0000
0101
0000
0000
0000
1000
0010
0100
0001
1000
0000
0001
0000
,
1000
0000
0100
0000
1000
0000
0100
0000
0010
0001
0010
0000
0100
0000
1000
0000
,
0001
0000
0100
0000
0001
0000
0100
0000
0010
1000
0010
0000
0100
0000
0001
0000
,
1000
0000
0100
0000
0010
0000
0001
0000
1000
0010
1000
0000
0100
0000
0010
0000
,
0001
0000
0100
0000
0010
0000
1000
0000
0001
0100
0001
0000
1000
0000
0001
0000
,
0100
0010
0100
0010
0100
0010
0100
0010
,
0100
0001
1000
0001
0010
0100
1000
0010
,
0100
0100
0100
0001
0001
0001
1000
1000
1000
0010
0010
0010
,
0100
0000
0000
0000
,
1001
0000
0000
0000
1000
0000
0001
0100
0010
0000
0000
0000
1000
0100
1000
0001
,
0010
0000
0000
0001
1000
0010
1000
0000
0001
0000
0000
0000
0010
0000
0100
1000
,
0001
0000
0000
0100
0000
0000
0001
0000
0000
0100
0000
0000
0000
0000
0001
0000
0000
0000
0000
0000
0001
0000
0000
0000
1000
0000
0000
0000
0010
0000
0000
0000
0000
0000
0000
0000
0000
0000
0100
0000
0000
0000
0000
0000
0100
0000
0000
0000
,
0010
0000
0000
1000
0000
0000
0010
0000
0000
1000
0000
0000
0000
0000
0001
0000
0000
0000
0000
0000
0001
0000
0000
0000
0010
0000
0000
0000
0100
0000
0000
0000
0000
0000
0000
0000
0000
0000
1000
0000
0000
0000
0000
0000
0001
0000
0000
0100
,
0000
0000
0002
0000
0000
0000
0000
0000
0000
0000
0000
0000
1003
0000
0000
0000
0000
0000
0001
0000
0000
0000
0000
0000
0100
0000
0000
0020
0000
0000
0000
0000
0000
0000
0000
0000
0130
0000
0000
0000
0000
0000
0000
0000
0000
0000
0000
0000
,
0001
2000
0000
0000
0000
3020
0000
0000
0130
0000
0000
0000
0001
0010
0100
1000
,
0001
0100
0001
0100
0010
0000
1000
0100
1000
0100
0010
0000
0001
0100
0001
0100
,
0010
0000
1000
0100
1000
0100
0010
0000
0001
1000
0010
0100
0001
0010
0100
1000
,
0010
0000
0100
0010
0100
0000
0001
0000
1000
0100
0010
0001
1000
0000
0001
1000
,
0100
0010
0001
0000
1000
0100
0010
0001
0100
0010
0100
0001
0010
0000
0100
0000
,
1000
0001
0220
0000
,
0000
0000
0330
0101
,
1000
0010
0000
0000
0100
0010
0000
1000
0001
0010
0001
0010
0001
1000
0010
0100
,
0010
0100
0001
1000
0100
0010
0100
0010
0001
1000
0010
0100
0001
0000
0010
0000
,
0100
0000
0000
0000
1010
0000
0000
0011
,
0000
0000
0000
1100
0000
0000
0001
0100
0010
0100
0100
0100
,
1001
0000
0000
0000
,
0000
0000
0000
0000
;
#NOTES:
     dance-double:
     :
     Easy:
     8:
     :
00000000
00000000
00000000
00000000
,
00000000
00000000
00000000
00000000
,
00000000
00000000
00000000
00000000
,
00000000
00000000
00000000
00000000
,
00000000
00000000
00000000
00000000
,
00001001
00000000
00000000
00000000
,
00001000
00000000
00000000
00000000
,
00000100
00000000
00000000
00000000
,
00011000
00000000
00010000
00000000
,
00001000
00100000
00010000
00100000
,
00010000
10000000
10010000
00000000
,
10000000
01000000
10000000
00010000
,
01000000
00001000
00011000
00000000
,
00010000
00010000
00000100
00000100
,
00001000
00001000
00000001
00000001
,
00000200
00002300
00013000
00100000
,
02200000
00000000
00000000
03300000
,
10000000
00010000
01000000
00100000
,
01000000
00001000
00010000
00000010
,
00000100
00000010
00001000
00000001
,
00001000
00000100
00020000
00000000
,
00031000
00100000
02200000
03300000
,
00010000
10000000
00010000
00100000
,
00001000
00010000
00000100
00001000
,
00000001
00001000
00001001
00000000
,
00000001
00000100
00001000
00000000
,
00011000
00000000
01001000
00000000
,
01010000
00000000
00110000
00101000
,
00011000
00010010
00000020
00002030
,
00003002
00000000
00000013
00000000
,
00001000
00000000
00010000
00000000
,
00001000
01000000
00010000
01000000
,
00100000
10000000
00010000
01000000
,
00002000
00000000
00000000
00000000
,
00023000
00000000
00000000
00000000
,
00030200
00000000
00000000
00000000
,
00002300
00000000
00000000
00000000
,
00003010
00010000
00011000
00000000
,
00001000
01000000
01010000
00000000
,
00010000
10000000
10100000
00000000
,
00100000
01000000
01001000
00000000
,
00001000
00010000
00001000
00000000
,
00000100
00000010
00000100
00000000
,
00000001
00000010
00000001
00000000
,
00001000
00000100
00001000
00000000
,
00000100
00010000
00001000
00100000
,
00010000
10000000
00010000
10000000
,
02000000
03020000
00032000
00003020
,
00000031
00000000
00000000
00000000
,
00000100
00000001
00001000
00000100
,
00010000
00001000
01000000
00010000
,
20000000
01000000
00010000
31000000
,
00020000
00100000
10000000
00130000
,
00002000
00013000
00020000
00030100
,
00000200
00001300
00002000
00003001
,
00000002
00000000
00000103
00000020
00000000
00001030
00000002
00000000
,
00000013
00000100
00000010
00000000
00001000
00000000
00010000
00000000
,
02000000
00000000
03100000
00010000
00200000
00000000
00310000
20000000
,
00000000
30100000
02000000
00000000
03001000
00010000
00001000
00000000
,
00010000
01000000
20020000
00000000
,
00000000
00000000
30030000
00010000
,
01000000
00000000
00100000
00000000
20000000
00000000
31000000
00200000
,
00000000
00310000
20000000
00000000
30100000
01000000
00100000
00000000
,
00010000
00000000
00000000
00000000
00011000
00000000
00000000
00001100
,
00000000
00000101
00001000
00000100
,
00011000
00000000
00000000
00000000
,
00000000
00000000
00000000
00000000
;
#NOTES:
     dance-double:
     :
     Medium:
     12:
     :
00000000
00000000
00000000
00000000
,
00000000
00000000
00000000
00000000
,
00000000
00000000
00000000
00000000
,
00000000
00000000
00000000
00000000
,
00000000
00000000
00000000
00000000
,
10010000
00000000
00000000
00000000
,
00010000
00000000
00000000
00000000
,
01000000
00000000
00000000
00001000
00000000
00000000
00010000
00000000
,
00011000
00000000
00000000
00010000
00000100
00000000
00000000
00001000
,
00000001
00000000
00000000
00000000
00000100
00000000
00000000
00000000
00000010
00000000
00000000
00000010
00000000
00000000
00001000
00000000
,
00000100
00010000
00011000
00101000
,
00100000
00010000
00100000
00000000
00010000
10000000
00010000
00000000
,
10000000
00100000
10000000
00100000
01000000
00000000
00001000
00000000
,
00010000
00000100
00010000
00000000
00000100
00001000
00000100
00000000
,
00000010
00000001
00000010
00000000
00000001
00001000
00000001
00000000
,
00000200
00000320
00010030
00001000
,
02000000
00000000
00000000
00000000
03010000
10000000
00010000
00000000
,
00100000
00000000
00000000
00000000
00001000
00000000
00010000
00000000
00000100
00000000
00000000
00010000
00000000
00000000
00000100
00000000
,
00001000
00000000
00000001
00000000
00001000
00000000
00000000
00000000
00000010
00000000
00000000
00000100
00000000
00000000
00000010
00000000
,
00001000
00000000
00000100
00000000
00010000
00000000
00000000
00000000
00001000
00000000
00000000
01000000
00000000
00000000
00001000
00000000
,
00100000
00010000
00100000
00000000
02000000
00000000
13000000
00000000
,
00010000
00000000
00100000
00000000
00001000
00000000
00000000
00000000
00020000
00000000
00000000
00030010
00000000
00001000
00000000
00000000
,
00000001
00000000
00000010
00000000
00000001
00000000
00000000
00000000
00001000
00000000
00000000
00000010
00000000
00000000
00001000
00000000
,
00000100
00000000
00010000
00000000
00001000
00000000
00000000
00000000
01000000
00000000
00000000
00010000
00000000
00000000
01000000
00000000
,
00010000
10000000
01000000
00010000
00001000
00010000
00000100
00000000
,
00001000
00000001
00000000
00000010
00000000
00000000
00000001
00000000
00000100
00000000
00000100
00000000
,
00001000
00010000
00010000
00100000
10000000
10000000
,
00010000
00000000
10000000
00000000
01000000
00000000
10000000
00000000
00010000
00100000
00000000
00001000
,
00010000
00000000
00000100
00001000
00000000
00000001
00000010
00000000
00000100
00001000
00000000
00000010
,
00002000
00000000
00003100
00010000
00001000
00001000
,
00000010
00000001
00000001
00000100
00001000
00001000
,
00010000
00000000
00001000
00000000
01000000
00000000
00000000
00000000
00010000
00000000
00000000
10000000
00000000
00000000
01000000
00000000
,
10000000
00100000
00010000
00000000
00001000
00000010
00000001
00000000
,
00002000
00000000
00000000
00000000
,
00003200
00000000
00000000
00000000
,
00020300
00000000
00000000
00000000
,
00032000
00000000
00000000
00000000
,
01003000
00010000
10010000
00000000
,
00010000
00100000
00101000
00000000
,
00001000
00010000
00010100
00000000
,
00000100
00000010
00000110
00001001
,
00000001
00000100
00000001
00000100
00000010
00001000
00000010
00000000
,
00010000
00001000
00010000
00001000
00100000
00010000
00100000
00000000
,
01000000
10000000
01000000
10000000
00010000
01000000
00010000
00000000
,
00100000
00001000
00100000
00001000
00010000
00001000
00010000
00000000
,
00000010
00000100
00000010
00000100
00000001
00001000
00000001
00001000
,
00000100
00010000
00000100
00010000
00001000
01000000
00001000
01000000
,
00010000
00010000
00010000
10000000
10000000
10000000
00010000
00010000
00010000
10000000
10000000
10000000
,
00100000
00000000
00000000
00000000
,
10010000
00000000
10000000
00100000
00010000
00000000
00010000
00001000
,
00000100
00000000
00000100
00000001
00001000
00000000
00000100
00010000
,
00001000
00000000
00000000
01000000
00000000
00000000
00000000
00010000
00000000
00000000
00010000
00000000
00000000
00000000
01000000
00000000
00000000
00000000
00000000
00010000
00000000
00000000
00010000
00000000
,
10000000
00000000
00000000
00100000
00000000
00000000
00000000
10000000
00000000
00000000
10000000
00000000
00000000
00000000
00100000
00000000
00000000
00000000
00000000
10000000
00000000
00000000
10000000
00000000
,
00000000
00020000
00000000
00000000
00000000
00000000
00130000
00000000
00000000
00001000
00000000
00000000
00020000
00000000
00000000
00000000
00000000
00000000
00031000
00000000
00000000
00000000
00000000
00000000
,
00020000
00000000
00000000
00000000
00030020
00000000
00000230
00000000
00000000
00000301
00000000
00000000
,
00001000
00000010
00001000
00000100
00010000
00000100
00010000
00001000
,
00100000
00010000
00100000
00010000
10000000
00100000
00010000
00001000
,
00010000
00000000
00000010
00001000
00000010
00000100
00000010
00010000
,
00001000
00010000
01000000
00100000
01000000
10000000
00100000
00010000
,
00001000
00000100
00002002
00000000
,
00000000
00000000
00003003
00000001
,
00000100
00000000
00000010
00000000
00001000
00000100
00010000
00001000
,
01000000
00001000
00010000
00000010
00001000
00000001
00000100
00001000
,
00010000
00000000
00000000
00000000
01100000
00000000
00000000
11000000
,
00000000
00000000
00000000
01010000
00000000
00000000
00001000
00000000
00000000
00010000
00010000
00010000
,
00001000
00000000
00000000
00000000
,
00000000
00000000
00000000
00000000
;
#NOTES:
     dance-double:
     :
     Hard:
     15:
     :
00000000
00000000
00000000
00000000
,
00000000
00000000
00000000
00000000
,
00000000
00000000
00000000
00000000
,
00000000
00000000
00000000
00000000
,
00000000
00000000
00000000
00000000
,
00011000
00000000
00000000
00000000
,
00001000
00000000
00000000
00000000
,
00010000
00000000
00000000
01000000
00000000
00000000
10000000
00000000
,
10010000
00000000
00000000
10000000
00100000
00000000
00000000
01000000
,
00010000
00000000
00100000
00000000
00001000
00000000
00000000
00000000
00010000
00000010
00000000
00001000
00000010
00000000
00000100
00000000
,
00000001
00000010
00000100
00000000
00001100
00000000
00010100
00000000
,
00010000
00001000
00010000
00001000
01000000
00010000
01000000
00010000
,
10000000
01000000
00100000
00010000
01000000
00001000
00010000
00000100
,
00001000
00000010
00001000
00000010
00000100
00000001
00000100
00000001
,
00000010
00000100
00001000
00010000
00100000
01000000
10000000
00010000
,
01000000
00000000
00000000
00000000
01000000
00000000
00000000
00000000
01000000
00000000
00000000
00000000
00100000
00000000
00000000
00000000
00100000
00000000
00000000
00000000
00100000
00000000
00000000
00000000
10000000
00000000
00000000
00010000
00000000
00000000
01000000
00000000
00000000
00000000
00000000
00000000
00001000
00000000
00000000
00010000
00000000
00000000
00000100
00000000
00000000
00000000
00000000
00000000
,
00002000
00000000
00000000
00000000
00003001
00000010
00000100
00001000
,
00000001
00001000
00000000
00000000
00000010
00000000
00010000
00001000
01000000
00000000
00010000
01000000
00000000
00100000
10000000
00100000
,
10000000
00000000
00010000
00000000
01000000
00001000
00000000
00010000
00001000
00000000
00010000
00000100
00000000
00001000
00000001
00001000
,
00000001
00000000
00000100
00000000
00000010
00001000
00000000
00000010
00000100
00000000
00001000
00010000
00000000
00001000
00000100
00000000
,
00000010
00000000
00000000
00000000
00000000
00000000
00010000
00000000
00000000
00000000
00000000
00000000
00001000
00000000
00000000
00100000
00000000
00000000
00000000
00000000
00000000
00010000
00000000
00000000
00100000
00000000
00000000
00000000
01000000
00000000
00000000
00000000
00100000
00000000
00000000
00000000
00010000
00000000
00000000
00000000
10000000
00000000
00000000
00000000
00010000
00000000
00000000
00000000
,
01000000
00100000
01000000
00000000
00010000
00100000
00000000
01000000
20000000
00000000
00000000
30100000
00000000
00010000
00001000
00000000
,
00000100
00000010
00000100
00000000
00000001
00000010
00000000
00000100
00001000
00000000
00000001
00000100
00001000
00000000
00010000
00000000
,
00001000
00000000
00100000
00000000
00010000
10000000
00000000
00100000
01000000
00000000
00010000
00100000
00000000
01000000
10000000
00000000
,
00100000
00000000
00010000
00000000
00001000
00010000
00001000
00010000
00001000
00000000
00000100
00000000
00000001
00000000
00000000
00000000
,
00001000
00000100
00000000
00010000
00001000
01000000
00010000
00000000
10000000
00100000
10000000
00000000
,
00010000
00000000
00100000
00001000
00100000
00000000
00010000
00000000
01000000
00100000
01000000
00000000
,
00010000
10000000
01000000
00000000
01000000
00000000
10000000
00000000
01000000
00010000
00001000
00010000
,
00001000
00000100
00000001
00001000
00000010
00000001
00001000
00000000
00000100
00000010
00001000
00001000
,
00000200
00000000
00000000
00000000
00010300
00001000
01000000
00010000
10000000
00000000
10100000
00000000
,
10000000
00010000
00100000
00000000
00110000
00000000
00100000
00001000
00010000
00000000
00011000
00000000
,
00010000
00000000
00000010
00000000
00001000
00000100
00000000
00000010
00000100
00000000
00001000
00000010
00000000
00000100
00000001
00000000
,
00000010
00000000
00001000
00000000
00010000
00001000
00000000
01000000
00010000
01000000
00010000
00000000
00100000
01000000
00000000
00000000
,
20000000
00000000
00000000
00000000
,
30200000
00000000
00000000
00000000
,
00320000
00000000
00000000
00000000
,
00032000
00000000
00000000
00003000
,
00001100
00000101
00000011
00000000
,
00001000
00000000
00000000
00000000
00000101
00000000
00000000
00000000
00001000
00000000
00000000
00000000
00000001
00001000
00000100
00010000
,
00001000
00000000
00000000
00000000
00110000
00000000
00000000
00000000
10000000
00000000
00000000
00000000
00010000
01000000
00100000
10000000
,
00010000
00000000
00000000
00000000
01010000
00000000
00000000
00000000
10000000
01000000
00100000
00010000
00100000
00000000
00001000
00000000
,
00010000
00000000
00000010
00000000
00001000
00000000
00000001
00000000
00000100
00000010
00000100
00000000
00000001
00000000
00001000
00000000
,
00000100
00000000
00010000
00000000
00001000
00000000
00100000
00000000
00010000
10000000
00010000
00000000
01000000
00000000
00100000
00000000
,
10000000
00000000
01000000
00000000
00010000
00000000
00001000
00000000
00000100
00000010
00000100
00000000
00000001
00000000
00001000
00000000
,
00000001
00000000
00000010
00000000
00001000
00000000
00010000
00000000
00100000
01000000
00100000
00000000
10000000
00000000
00010000
00000000
,
00100000
00001000
00010000
00000010
00001000
00000100
00010000
00001000
,
01000000
00010000
00100000
00001000
00010000
00000100
00001000
00000010
,
00001000
00001000
00001000
00000001
00000001
00000001
00001000
00001000
00001000
00000001
00000001
00000001
,
00000010
00000000
00000000
00000000
,
00001001
00000000
00000000
00000000
00000001
00000000
00000010
00000100
00001000
00000000
00000000
00000000
00000100
00010000
00000100
00000000
,
00010000
00000000
00000000
00001000
00100000
00010000
00100000
00000000
01000000
00000000
00000000
00000000
10000000
00000000
00100000
01000000
,
00010000
00000000
00000000
01000000
00000000
00000000
00010000
00000000
00000000
01000000
00000000
00000000
00000000
00000000
00001000
00000000
00000000
00000000
00000000
00000000
00001000
00000000
00000000
00000000
00010000
00000000
00000000
00000000
00000010
00000000
00000000
00000000
00000000
00000000
00000000
00000000
00000000
00000000
00001000
00000000
00000000
00000000
00000000
00000000
00001000
00000000
00000000
00000000
,
00000100
00000000
00000000
00000010
00000000
00000000
00000100
00000000
00000000
00000010
00000000
00000000
00000000
00000000
00000001
00000000
00000000
00000000
00000000
00000000
00000001
00000000
00000000
00000000
00001000
00000000
00000000
00000000
00000100
00000000
00000000
00000000
00000000
00000000
00000000
00000000
00000000
00000000
00010000
00000000
00000000
00000000
00000000
00000000
00001000
00000000
01000000
00000000
,
00000000
00000000
00020000
00000000
00000000
00000000
00000000
00000000
00000000
00000000
00000000
00000000
10030000
00000000
00000000
00000000
00000000
00000000
01000000
00000000
00000000
00000000
00000000
00000000
00010000
00000000
00000000
00002000
00000000
00000000
00000000
00000000
00000000
00000000
00000000
00000000
00013000
00000000
00000000
00000000
00000000
00000000
00000000
00000000
00000000
00000000
00000000
00000000
,
00000100
00000020
00000000
00000000
00000000
00000032
00000000
00000000
00001003
00000000
00000000
00000000
00000001
00001000
00000100
00000000
,
00010000
00001000
00010000
00001000
01000000
00000000
00001000
00010000
00001000
00010000
00000100
00000000
00010000
00001000
00010000
00001000
,
00100000
00000000
00001000
00010000
00001000
00010000
00000010
00000000
00001000
00000100
00000010
00000000
00000001
00000100
00000010
00000000
,
00001000
00000000
00000100
00010000
00001000
00000000
00100000
00000000
00010000
00100000
01000000
10000000
00010000
00000000
00100000
00001000
,
00010000
00000100
00001000
00000000
00000001
00000010
00000100
00001000
00000001
00001000
00000001
00001000
00000100
00000000
00010000
00000000
,
00001000
01000000
02200000
00000000
,
00000000
00000000
03300000
10010000
,
10000000
01000000
00000000
00000000
00100000
01000000
00000000
10000000
00010000
00100000
00010000
00100000
00001000
00010000
00000010
00001000
,
00000010
00001000
00000001
00000100
00000010
00001000
00000010
00010000
00001000
00010000
00001000
01000000
00010000
00000000
10000000
00000000
,
01000000
00000000
00000000
00000000
01100000
00000000
00000000
00011000
,
00000000
00000000
00000000
00000110
00000000
00000000
00000001
00001000
00000010
00000100
00000100
00000100
,
00001001
00000000
00000000
00000000
,
00000000
00000000
00000000
00000000
;
