
//----- song ID: daph -----//
#TITLE:Dance Phenomena;
#ARTIST:BEMANI Sound Team "Captain KING";
#SORTARTIST:Captain KING;
#BANNER:Dance Phenomena.png;
#BACKGROUND:Dance Phenomena-bg.png;
#CDTITLE:./CDTitles/DDR A3.png;
#MUSIC:Dance Phenomena.ogg;
#SAMPLESTART:15.212;
#SAMPLELENGTH:15;
#DISPLAYBPM:71:142;
#BPMS:0=142,35=284,35.5=142,35.75=71,36=142,83=284,83.5=142,83.75=71,84=142,224=284,224.5=142,224.75=71,225=142,257=284;
#STOPS:180=0.106,180.5=0.106,181=0.211,183=0.106,183.5=0.106,184=0.211,186=0.106,186.5=0.106,187=0.211;
#BGSTAGE:2;
#NOTES:
     dance-single:
     :
     Beginner:
     3:
     :
0000
0000
0000
0000
,
0000
0000
0000
0000
,
0000
0000
0000
0000
,
0000
0000
0000
0000
,
0000
0000
0000
0000
,
0001
0000
0000
0000
,
0001
0000
0000
0000
,
1000
0000
0000
0000
,
1000
0000
0000
0000
,
0000
0000
0000
0000
,
0010
0000
0000
0000
,
0100
0000
0000
0000
,
0010
0000
0000
0000
,
0001
0000
0001
0000
,
1000
0000
1000
0000
,
0001
0000
0001
0000
,
1000
0000
1000
0000
,
0000
0000
0000
0000
,
0000
0000
0000
0000
,
0010
0000
0010
0000
,
0100
0000
0000
0000
,
0000
0000
0000
0000
,
0001
0000
0001
0000
,
1000
0000
0000
0000
,
1000
0000
1000
0000
,
0010
0000
0000
0000
,
0010
0000
0010
0000
,
0100
0000
0000
0000
,
0100
0000
0100
0000
,
0001
0000
0000
0000
,
0010
0000
0001
0000
,
1000
0000
0000
0000
,
1000
0000
0010
0000
,
0010
0000
0000
0000
,
0100
0000
0001
0000
,
0100
0000
0000
0000
,
0010
0000
1000
0000
,
0020
0000
0000
0000
,
0030
0000
0000
0000
,
0200
0000
0000
0000
,
0300
0000
0000
0000
,
0001
0000
0001
0000
,
1000
0000
1000
0000
,
0001
0001
0000
0000
,
1000
1000
0000
0000
,
0001
0000
0000
1000
,
0000
0000
0001
0000
,
0000
0000
0000
0000
,
0000
1000
0000
0000
,
0000
0001
0000
0000
,
0000
1000
1000
1000
,
0000
0001
0001
0001
,
0000
0010
0000
0010
,
0000
0100
0000
0100
,
0000
0010
0000
0100
,
0000
0010
0000
0100
,
0000
0000
0000
0000
,
0000
1000
0000
0001
,
0000
1000
0000
0001
,
0000
1000
0000
0001
,
0000
1000
1000
1000
,
0000
0001
0001
0001
,
0000
0010
0000
0100
,
0000
1001
0000
0000
,
0000
0000
0000
0000
;
#NOTES:
     dance-single:
     :
     Easy:
     5:
     :
0000
0000
0000
0000
,
0000
0000
0000
0000
,
0000
0000
0000
0000
,
0000
0000
0000
0000
,
0000
0000
0000
0000
,
0001
0001
0000
0000
,
1000
1000
0000
0000
,
0010
0010
0100
0100
,
0001
0000
1000
0000
2002
0000
0000
3003
,
0000
0000
0001
0001
,
0000
0000
1000
1000
,
0000
1000
0001
0010
,
0000
0001
1000
0010
,
0000
1000
1000
0100
,
0000
0001
0001
0100
,
0000
1000
0001
0100
,
1001
0000
0000
0000
,
0000
0010
0000
0010
,
0000
0100
0000
0100
,
0010
0010
0001
0001
,
1000
0000
0001
0000
1000
0000
2002
3003
,
0000
0000
0001
0001
,
1000
0010
1000
0000
,
0000
0000
1000
1000
,
0001
0010
0001
0000
,
0001
0010
0100
0000
,
1000
0010
0100
0000
,
0001
1000
0010
0010
,
1000
0001
0010
0010
,
0000
0001
0000
0001
,
1000
0010
1000
0100
,
0000
1000
0000
1000
,
0001
0010
0001
0100
,
0001
0100
0100
0000
,
1000
0100
0100
0000
,
0010
0001
1000
1000
,
0010
1000
0001
0001
,
2000
0000
0000
0000
,
3200
0000
0000
0000
,
0320
0000
0000
0000
,
0032
0000
0000
0000
,
1003
1000
1000
0000
,
0001
0001
0001
0000
,
1000
0010
0100
0010
,
0100
0001
0001
0000
,
2002
3003
0000
0220
,
0330
0000
2002
3003
,
0000
0001
1000
0001
,
0000
0010
0100
1000
,
0000
0010
0100
0001
,
0000
1000
1000
0001
,
0001
0010
0100
0010
,
0000
0200
0000
0000
,
0000
0320
0000
0000
,
0000
0130
0100
1000
,
0001
0010
0100
0010
,
0220
0330
0000
1000
,
1000
0000
0000
0001
,
0001
0000
0001
1000
,
0010
0000
1000
0001
,
0010
0100
1000
0001
,
0001
0010
0100
1000
,
1000
0001
1000
0010
,
0100
0000
0000
0000
1001
0000
0000
0000
0000
0000
0000
0000
0001
0000
0000
1000
,
0000
0001
0000
0000
2002
0000
0000
0000
0000
0000
0000
0000
0000
0000
0000
0000
,
0000
0000
0000
0000
,
0000
0000
0000
0000
,
3003
0000
0000
0000
,
0000
0000
0000
0000
;
#NOTES:
     dance-single:
     :
     Medium:
     10:
     :
0000
0000
0000
0000
,
0000
0000
0000
0000
,
0000
0000
0000
0000
,
0000
0000
0000
0000
,
0000
0000
0000
0000
,
1000
0000
0001
0010
0000
0000
0100
1000
,
0000
0000
0010
0100
0000
0000
0001
2000
,
0000
0000
0000
0000
,
3001
1000
0001
1000
0001
0000
2002
3003
,
0001
0000
0001
0000
1000
0010
1000
0000
,
0010
0000
0010
0000
0100
0001
0100
0000
,
0010
1000
0100
0000
0010
0001
0100
0000
,
0001
1000
0100
0000
1000
0001
0100
0000
,
0001
0000
1000
0000
0001
0000
0000
0000
1000
0000
0000
1000
0000
0000
1000
0000
,
0010
0000
0100
0000
0010
0000
0000
0000
0100
0000
0000
0100
0000
0000
0100
0000
,
0001
0100
0010
0000
1000
0100
0010
0000
,
0000
0000
0001
0000
0001
0000
0000
0000
1000
0000
0000
0001
0000
1001
0000
0000
,
0000
1000
0000
1000
,
0000
0001
0000
0001
,
1000
0100
1000
0000
0001
0100
0001
0000
,
0010
0100
0010
0100
1000
0001
2002
3003
,
0001
0000
1000
0000
0010
0100
0010
0000
,
0100
0000
0001
0000
0010
0100
1000
0100
,
1000
0000
0001
0000
0100
0010
0100
0000
,
0010
0000
1000
0000
0100
0010
0001
0010
,
0100
0000
0100
0000
0010
0100
0010
0000
,
1000
0000
1000
0000
0001
1000
0001
0000
,
0100
0010
0100
0000
0001
0100
0001
0000
,
1000
0010
1000
0000
0100
0010
0001
0000
,
1000
0000
1000
0000
0010
0100
0001
0000
,
0010
0000
0010
0000
0100
1000
0100
1000
,
0001
0000
0001
0000
0100
0010
1000
0000
,
0100
0000
0100
0000
0010
0001
0010
0001
,
0010
0000
0001
0000
0010
0100
1000
0000
,
0010
0000
1000
0000
0010
0100
0001
0000
,
0010
0001
0100
0000
0010
1000
0100
0000
,
0001
0100
1000
0000
0010
0100
0001
0000
,
0000
0010
0001
0010
0002
0000
0000
0000
,
0000
1003
0010
1000
0020
0000
0000
0000
,
0000
0130
0001
0100
0001
0010
0001
0100
,
0020
0000
0000
0000
0000
0000
1030
0001
0100
0000
0000
0000
0000
0000
0000
0000
,
0010
1000
0000
1000
0000
0000
0002
0000
0000
0000
0000
0000
0000
0000
0003
0000
,
0010
0001
0000
0001
0000
0000
2000
0000
0000
0000
0000
0000
0000
0000
3000
0000
,
0100
1000
0000
1000
0000
0000
0010
0000
0000
0000
1000
0000
0001
0000
0000
0000
,
2000
0000
0000
3001
1000
0000
0000
0000
,
0001
0001
0001
0000
0000
0000
1000
1000
,
1000
0000
0000
0000
0010
0010
0010
0000
,
0000
1000
1000
0001
,
0001
0000
0010
0000
0010
0000
0001
0100
,
0001
0000
0010
0000
0010
0000
0100
1000
,
0100
0000
1000
0000
1000
0000
0010
0100
,
0010
0000
0100
0000
0100
0000
0001
0100
,
0001
0020
0000
0000
,
0000
0230
0000
0000
,
0000
1300
1000
0001
,
0001
0010
0100
0010
,
0220
0330
0010
0000
0010
0000
0100
0010
,
0100
0000
1000
0000
1000
0000
0001
1000
,
0001
0000
0100
0000
0100
0000
0001
1000
,
0100
0000
0010
0000
0010
0000
0001
1000
,
0010
0000
0100
0001
0100
0000
0001
0100
,
0001
0000
1000
0010
1000
0000
0010
1000
,
0010
0000
0100
0001
0010
0000
0100
1000
,
0010
0000
0000
0000
0000
0000
0100
0000
0100
0000
0000
0000
0001
0000
0000
1000
,
0000
1001
0000
0000
0220
0000
0000
0000
0000
0000
0000
0000
0000
0000
0000
0000
,
0000
0000
0000
0000
,
0000
0000
0000
0000
,
0330
0000
0000
0000
,
0000
0000
0000
0000
;
#NOTES:
     dance-single:
     :
     Hard:
     12:
     :
0000
0000
0000
0000
,
0000
0000
0000
0000
,
0000
0000
0000
0000
,
0000
0000
0000
0000
,
0000
0000
0000
0000
,
1000
0000
0010
0200
0000
0000
0301
0020
,
0000
0000
0130
2000
0000
0000
3010
0200
,
0000
0000
0000
0300
,
0001
1000
0001
1000
0010
0100
2002
3003
,
1000
0001
0000
0010
0001
1000
0100
1000
,
0001
1000
0000
0010
1000
0001
0100
0001
,
0010
0100
0000
0010
0100
1000
0100
1000
,
0010
0100
0000
0010
0100
0001
0100
0001
,
1000
0000
0100
0000
0010
0100
0000
0000
1000
0000
0000
1000
0000
0000
1000
0000
,
0001
0000
0100
0000
0010
0100
0000
0000
0001
0000
0000
0001
0000
0000
0001
0000
,
0010
0000
0100
0000
1000
0010
0000
0000
0100
0000
0000
0101
0000
0000
1100
0000
,
0000
0000
0001
0000
0001
0000
0000
0000
1000
0000
0000
0110
0000
1001
0000
0000
,
0000
0001
0000
0001
,
0000
1000
0000
1000
,
0001
0100
0001
0100
0010
1000
0010
1000
,
0100
0010
0001
0100
0010
0100
2002
3003
,
0001
0000
0000
0010
0000
0000
0001
0000
0000
0000
0100
0000
0010
0000
0100
0000
,
0001
0000
0000
0100
0000
0000
0010
0000
0100
0000
1000
0000
0100
0000
0001
0000
,
1000
0000
0000
0010
0000
0000
1000
0000
0000
0000
0100
0000
0010
0000
0100
0000
,
1000
0000
0000
0010
0000
0000
1000
0000
0100
0000
0100
0000
0001
0000
0100
0000
,
1000
0000
0000
0100
0000
0000
1000
0000
0000
0000
0010
0000
0100
0000
0010
0000
,
1000
0000
0000
0010
0000
0000
0100
0000
0010
0000
0001
0000
0010
0000
1000
0000
,
0001
0000
0000
0100
0000
0000
0001
0000
0000
1000
0100
0000
1000
0000
0010
0000
,
0100
0000
0000
0001
0000
0000
0010
0000
0000
0100
1000
0000
0100
0000
0010
0000
,
0001
0000
0000
0100
0000
0000
0001
0000
0000
0000
0010
0000
0100
0000
0010
0000
,
0001
0000
0000
0010
0000
0000
0100
0000
0010
0000
1000
0000
0010
0000
0001
0000
,
1000
0000
0000
0100
0000
0000
1000
0000
0000
0000
0010
0000
0100
0000
0010
0000
,
1000
0000
0000
0100
0000
0000
1000
0000
0010
0000
0010
0000
0001
0000
0010
0000
,
1000
0000
0000
0010
0000
0000
1000
0000
0000
0000
0100
0000
0010
0000
0100
0000
,
1000
0000
0000
0100
0000
0000
0010
0000
0100
0000
0001
0000
0100
0000
1000
0000
,
0001
0000
0000
0010
0000
0000
0001
0000
0000
1000
0010
0000
1000
0000
0100
0000
,
0010
0000
0000
0001
0000
0000
0100
0000
0000
0010
1000
0000
0010
0000
0100
0000
,
0001
0100
0001
0100
0010
1000
0010
1000
,
0001
0100
0001
0100
0010
1000
0010
1000
,
0100
0001
0100
1000
0010
0100
0001
1000
,
0002
0000
0000
0000
0000
0000
0103
0010
0100
0000
0000
0000
0000
0000
0000
0000
,
0001
0010
0000
0010
0000
0000
0001
0000
0000
0000
1000
0000
0010
0000
1000
0000
,
0100
0010
0000
0010
0000
0000
0100
0000
0000
0000
0010
0000
0001
0000
0010
0000
,
0001
1000
0000
1000
0000
0000
0001
0000
0000
0000
1000
0000
0010
0000
1000
0000
,
0002
0000
0000
0000
0000
0000
1003
0100
1000
0000
0000
0000
0000
0000
0000
0000
,
1010
0011
1010
0000
0000
0000
1100
0101
,
1100
0000
0000
0000
1001
0110
1001
0000
,
0000
0000
0001
0100
0001
0100
0010
1000
,
0100
1000
0100
1000
0100
0000
0010
0000
0001
0000
0100
0000
1000
0000
0100
0000
,
0001
0000
0010
0100
1000
0100
0001
0100
,
1000
0000
0001
0100
0010
1000
0100
0010
,
0100
1000
0001
0100
1000
0001
0010
1000
,
0001
0100
0020
0000
0000
0000
0000
0000
,
0000
2030
0000
0000
,
0000
0000
3001
0100
0001
0100
0010
1000
,
0010
0000
1000
0000
0100
0000
0010
0000
0001
0000
1000
0000
0001
1000
0001
1000
,
0002
0003
1000
0001
0000
1000
0010
0100
,
0001
0010
0001
1000
0000
0001
0010
0100
,
1000
0010
0100
0010
0000
0100
1000
0100
,
0001
0100
0010
0100
0000
0010
0001
0010
,
1000
0000
0010
0000
0100
0000
0001
0000
0100
0001
0000
0000
1000
0000
0000
1000
,
0000
0000
1000
0000
0100
0000
1000
0000
0100
1000
0000
0000
0001
0000
0000
0001
,
0000
0001
1000
0100
1000
0010
0100
0001
,
0010
0000
0100
0000
0000
0000
1000
0000
1000
0000
0000
0000
0110
0000
0000
1010
,
0000
0011
0000
0000
2002
0000
0000
0000
0000
0000
0000
0000
0000
0000
0000
0000
,
0000
0000
0000
0000
,
0000
0000
0000
0000
,
3003
0000
0000
0000
,
0000
0000
0000
0000
;
#NOTES:
     dance-double:
     :
     Easy:
     5:
     :
00000000
00000000
00000000
00000000
,
00000000
00000000
00000000
00000000
,
00000000
00000000
00000000
00000000
,
00000000
00000000
00000000
00000000
,
00000000
00000000
00000000
00000000
,
00001000
00001000
00000000
00000000
,
00010000
00010000
00000000
00000000
,
00000100
00000100
00010000
00010000
,
00001000
00000000
00010000
00000000
00022000
00000000
00000000
00033000
,
00000000
00000000
00010000
00010000
,
00000000
00000000
00001000
00001000
,
00000000
00010000
00001000
00100000
,
00000000
00010000
00100000
01000000
,
00000000
00100000
00100000
00010000
,
00000000
00001000
00001000
00000100
,
00000000
00000010
00000001
00001000
,
00011000
00000000
00000000
00000000
,
00000000
00001000
00000000
00001000
,
00000000
00010000
00000000
00010000
,
00001000
00001000
00100000
00100000
,
00001000
00000000
00010000
00000000
00000100
00000000
00022000
00033000
,
00000000
00000000
00010000
00010000
,
00001000
00010000
00000010
00000000
,
00000000
00000000
00000010
00000010
,
00010000
00001000
00010000
00000000
,
00001000
00000010
00000100
00000000
,
00000010
00000001
00000100
00000000
,
00000010
00001000
00000010
00010000
,
00001000
00010000
00001000
00011000
,
00000000
00001000
00000000
00001000
,
00010000
00000010
00001000
00000100
,
00000000
00000010
00000000
00000010
,
00000001
00000100
00000010
00001000
,
00000010
00010000
00010000
00000000
,
00001000
00100000
00100000
00000000
,
00010000
01000000
00010000
01000000
,
00100000
10000000
01000000
00000000
,
00020000
00000000
00000000
00000000
,
00032000
00000000
00000000
00000000
,
00003020
00000000
00000000
00000000
,
00000032
00000000
00000000
00000000
,
00001003
00001000
00001000
00000000
,
00000010
00000010
00000010
00000000
,
00010000
00000010
00010000
00001000
,
00100000
01000000
01000000
00000000
,
20020000
30030000
00000000
00022000
,
00033000
00000000
00002002
00003003
,
00000000
00000001
00000001
00001000
,
00000000
00000001
00000100
00001000
,
00000000
00000100
00001000
00010000
,
00000000
00001000
00010000
01000000
,
00000000
00010000
01000000
10000000
,
00000000
00200000
00000000
00000000
,
00000000
02300000
00000000
00000000
,
00000000
03001000
00001000
00010000
,
00010000
00001000
00010000
00001000
,
00022000
00033000
00000000
00010000
,
00010000
00000000
00000000
00001000
,
00001000
00000000
00010000
00000100
,
00001000
00000000
00000010
00001000
,
00000100
00000000
00000010
00000001
,
00001001
00000000
00000100
00010000
,
00011000
00000000
00100000
00010000
,
10010000
00000000
00000000
00000000
00000000
00000000
00000000
00000000
00000000
00000000
00000000
00000000
00010000
00000000
00000000
10000000
,
00000000
00010000
00000000
00000000
20020000
00000000
00000000
00000000
00000000
00000000
00000000
00000000
00000000
00000000
00000000
00000000
,
00000000
00000000
00000000
00000000
,
00000000
00000000
00000000
00000000
,
30030000
00000000
00000000
00000000
,
00000000
00000000
00000000
00000000
;
#NOTES:
     dance-double:
     :
     Medium:
     10:
     :
00000000
00000000
00000000
00000000
,
00000000
00000000
00000000
00000000
,
00000000
00000000
00000000
00000000
,
00000000
00000000
00000000
00000000
,
00000000
00000000
00000000
00000000
,
00100000
00000000
10000000
01000000
00000000
00000000
00100000
00010000
,
00000000
00000000
00001000
00000100
00000000
00000000
00000010
00000002
,
00000000
00000000
00000000
00000000
,
00000103
00000010
00001000
00000010
00010000
00001000
00022000
00033000
,
00001000
00000000
00001000
00000000
01000000
00010000
01000000
00000000
,
00100000
00000000
00100000
00000000
10000000
01000000
10000000
00000000
,
01000000
00100000
00010000
00000000
01000000
00010000
00100000
00000000
,
00001000
00000010
00000100
00000000
00000010
00000001
00000100
00000000
,
00000010
00000000
00001000
00000000
00000010
00000000
00000000
00000000
00010000
00000000
00000000
00010000
00000000
00000000
00010000
00000000
,
00001000
00000000
00100000
00000000
00010000
00000000
00000000
00000000
10000000
00000000
00000000
10000000
00000000
00000000
10000000
00000000
,
01000000
00100000
00010000
00000000
00100000
00001000
00010000
00000000
,
00000000
00000000
00001000
00000000
00001000
00000000
00000000
00000000
00010000
00000000
00000000
00001000
00000000
00011000
00000000
00000000
,
00000000
00001000
00000000
00001000
,
00000000
00000010
00000000
00000010
,
00000001
00000010
00000001
00000000
00001000
00000100
00001000
00000000
,
00000100
00000010
00000100
00010000
00001000
00010000
00022000
00033000
,
00001000
00000000
01000000
00000000
00010000
01000000
00010000
00000000
,
01000000
00000000
00100000
00000000
01000000
10000000
01000000
00010000
,
00100000
00000000
00001000
00000000
00010000
00001000
00010000
00000000
,
00001000
00000000
00000100
00000000
00000001
00000100
00001000
00000100
,
00000010
00000000
00000010
00000000
00001000
00000010
00001000
00000000
,
00000100
00000000
00000100
00000000
00001000
00000100
00010000
00000000
,
00001000
00100000
00010000
00000000
01000000
00100000
10000000
00000000
,
00100000
10000000
01000000
00000000
00100000
01000000
00010000
00000000
,
00001000
00000000
00001000
00000000
00100000
00001000
00010000
00000000
,
00000010
00000000
00000010
00000000
00000100
00000001
00000100
00001000
,
00000100
00000000
00000100
00000000
00000010
00010000
00001000
00000000
,
00010000
00000000
00010000
00000000
01000000
10000000
01000000
00010000
,
01000000
00000000
01000000
00000000
10000000
01000000
00100000
00000000
,
00010000
00000000
00010000
00000000
00100000
00001000
00010000
00000000
,
00001000
00010000
00001000
00000000
00010000
00001000
00000100
00000000
,
00001000
00000100
00000001
00000000
00000100
00000001
00000010
00000000
,
00000000
00000010
00000001
00000010
00000002
00000000
00000000
00000000
,
00000000
00001003
00000010
00010000
00002000
00000000
00000000
00000000
,
00000000
00103000
00010000
00100000
01000000
10000000
01000000
00100000
,
00020000
00000000
00000000
00000000
00000000
00000000
10030000
00010000
10000000
00000000
00000000
00000000
00000000
00000000
00000000
00000000
,
00010000
00100000
00000000
00100000
00000000
00000000
00002000
00000000
00000000
00000000
00000000
00000000
00000000
00000000
00003000
00000000
,
00010000
00001000
00000000
00001000
00000000
00000000
00020000
00000000
00000000
00000000
00000000
00000000
00000000
00000000
00030000
00000000
,
00000100
00001000
00000000
00001000
00000000
00000000
00000100
00000000
00000000
00000000
00000010
00000000
00000001
00000000
00000000
00000000
,
00002000
00000000
00000000
00003001
00001000
00000000
00000000
00000000
,
00000010
00001000
00000010
00000000
00000000
00000000
00010000
00001000
,
00010000
00000000
00000000
00000000
00001000
00010000
00001000
00000000
,
00000000
00010000
00010000
00100000
,
00100000
00000000
10000000
00000000
10000000
00000000
00100000
10000000
,
00100000
00000000
01000000
00000000
01000000
00000000
00010000
00100000
,
00010000
00000000
00100000
00000000
00001000
00000000
00010000
00001000
,
00010000
00000000
00000100
00000000
00001000
00000000
00000100
00000010
,
00000100
00000020
00000000
00000000
,
00000000
00000032
00000000
00000000
,
00000000
00000103
00000100
00001000
,
00001000
00010000
00001000
00010000
,
00022000
00033000
00001000
00000000
00001000
00000000
00100000
00001000
,
00100000
00000000
00010000
00000000
00010000
00000000
00100000
01000000
,
00100000
00000000
01000000
00000000
01000000
00000000
10000000
01000000
,
00010000
00000000
01000000
00000000
01000000
00000000
00010000
00001000
,
00000010
00000000
00000001
00000010
00000001
00000000
00000010
00000100
,
00000010
00000000
00000100
00001000
00000100
00000000
00010000
00001000
,
00010000
00000000
00001000
00100000
00010000
00000000
00100000
01000000
,
10000000
00000000
00000000
00000000
00000000
00000000
00100000
00000000
00100000
00000000
00000000
00000000
10000000
00000000
00000000
00010000
,
00000000
10000000
00000000
00000000
20020000
00000000
00000000
00000000
00000000
00000000
00000000
00000000
00000000
00000000
00000000
00000000
,
00000000
00000000
00000000
00000000
,
00000000
00000000
00000000
00000000
,
30030000
00000000
00000000
00000000
,
00000000
00000000
00000000
00000000
;
#NOTES:
     dance-double:
     :
     Hard:
     12:
     :
00000000
00000000
00000000
00000000
,
00000000
00000000
00000000
00000000
,
00000000
00000000
00000000
00000000
,
00000000
00000000
00000000
00000000
,
00000000
00000000
00000000
00000000
,
10000000
00000000
01000000
00020000
00000000
00000000
00031000
00000020
,
00000000
00000000
00000031
00000200
00000000
00000000
00000310
00002000
,
00000000
00000000
00000000
00003000
,
00000010
00001000
00000100
00010000
00001000
00010000
00022000
00033000
,
00001000
00000100
00000000
00000001
00000100
00001000
00000100
00000001
,
00000010
00001000
00000000
00000010
00001000
00010000
00001000
00010000
,
01000000
10000000
00000000
01000000
10000000
01000000
00010000
01000000
,
00100000
00010000
00000000
00100000
00001000
00010000
00001000
00010000
,
00000100
00000000
00001000
00000000
00000100
00000010
00000000
00000000
00000001
00000000
00000000
00000001
00000000
00000000
00000001
00000000
,
00000100
00000000
00000010
00000000
00001000
00000010
00000000
00000000
00001000
00000000
00000000
00001000
00000000
00000000
00001000
00000000
,
00000100
00000000
00010000
00000000
00001000
00010000
00000000
00000000
00001000
00000000
00000000
00010000
00000000
00000000
00001000
00000000
,
00000000
00000000
00110000
00000000
00110000
00000000
00000000
00000000
10100000
00000000
00000000
01100000
00000000
10010000
00000000
00000000
,
00000000
10000000
00000000
10000000
,
00000000
01000000
00000000
01000000
,
00100000
00010000
00100000
00010000
00001000
00000100
00001000
00000100
,
00000010
00000001
00000010
00000001
00000100
00000010
00000220
00000330
,
00000010
00000000
00000000
00000100
00000000
00000000
00000001
00000000
00000000
00000000
00000010
00000000
00000100
00000000
00001000
00000000
,
00000100
00000000
00000000
00001000
00000000
00000000
00000010
00000000
00000100
00000000
00001000
00000000
00010000
00000000
00100000
00000000
,
01000000
00000000
00000000
00100000
00000000
00000000
10000000
00000000
00000000
00000000
01000000
00000000
00100000
00000000
00010000
00000000
,
00100000
00000000
00000000
00001000
00000000
00000000
00010000
00000000
00000100
00000000
00001000
00000000
00000010
00000000
00000100
00000000
,
00000001
00000000
00000000
00000100
00000000
00000000
00000010
00000000
00001000
00000000
00000100
00000000
00010000
00000000
00001000
00000000
,
00100000
00000000
00000000
00010000
00000000
00000000
01000000
00000000
00100000
00000000
00010000
00000000
00100000
00000000
10000000
00000000
,
01000000
00000000
00000000
00100000
00000000
00000000
00010000
00000000
00000000
00100000
00010000
00000000
00100000
00000000
00001000
00000000
,
00010000
00000000
00000000
00000100
00000000
00000000
00001000
00000000
00000000
00000100
00000010
00000000
00000100
00000000
00001000
00000000
,
00000100
00000000
00000000
00000010
00000000
00000000
00000001
00000000
00000000
00000000
00000100
00000000
00000010
00000000
00000100
00000000
,
00001000
00000000
00000000
00010000
00000000
00000000
00001000
00000000
00010000
00000000
01000000
00000000
10000000
00000000
01000000
00000000
,
00100000
00000000
00000000
01000000
00000000
00000000
10000000
00000000
00000000
00000000
00100000
00000000
01000000
00000000
00100000
00000000
,
00010000
00000000
00000000
00100000
00000000
00000000
01000000
00000000
00100000
00000000
00010000
00000000
00001000
00000000
00010000
00000000
,
00000100
00000000
00000000
00000010
00000000
00000000
00000001
00000000
00000100
00000000
00000010
00000000
00001000
00000000
00000100
00000000
,
00010000
00000000
00000000
00001000
00000000
00000000
00010000
00000000
00001000
00000000
00010000
00000000
01000000
00000000
00100000
00000000
,
10000000
00000000
00000000
00100000
00000000
00000000
01000000
00000000
00000000
00100000
01000000
00000000
00100000
00000000
00010000
00000000
,
01000000
00000000
00000000
00100000
00000000
00000000
01000000
00000000
00000000
00001000
00010000
00000000
00001000
00000000
00010000
00000000
,
00001000
00000010
00000001
00000010
00000001
00000100
00000010
00000100
,
00000010
00001000
00000010
00001000
00000010
00010000
00001000
00010000
,
00001000
01000000
10000000
01000000
00010000
01000000
10000000
01000000
,
00200000
00000000
00000000
00000000
00000000
00000000
01300000
00100000
01000000
00000000
00000000
00000000
00000000
00000000
00000000
00000000
,
01000000
00010000
00000000
00010000
00000000
00000000
00100000
00000000
00000000
00000000
00001000
00000000
00010000
00000000
00001000
00000000
,
00000100
00000010
00000000
00000010
00000000
00000000
00000100
00000000
00000000
00000000
00000001
00000000
00000100
00000000
00000001
00000000
,
00000010
00000100
00000000
00000100
00000000
00000000
00000010
00000000
00000000
00000000
00000001
00000000
00000100
00000000
00001000
00000000
,
00020000
00000000
00000000
00000000
00000000
00000000
00031000
00010000
00001000
00000000
00000000
00000000
00000000
00000000
00000000
00000000
,
00011000
00110000
10100000
00000000
00000000
00000000
11000000
01010000
,
00011000
00000000
00000000
00000000
00001010
00000101
00001001
00000000
,
00000000
00000000
00000001
00000100
00001000
00000100
00000001
00000100
,
00000001
00000100
00000001
00000100
00000001
00000000
00000010
00000000
00000100
00000000
00000010
00000000
00001000
00000000
00010000
00000000
,
00001000
00000000
00010000
00100000
10000000
00100000
00010000
00001000
,
00010000
00000000
00001000
00010000
00000100
00000010
00000001
00000010
,
00001000
00000010
00000001
00000100
00000010
00000100
00000001
00001000
,
00000100
00010000
00002000
00000000
00000000
00000000
00000000
00000000
,
00000000
00023000
00000000
00000000
,
00000000
00000000
00031000
00010000
00001000
00010000
01000000
10000000
,
01000000
00000000
10000000
00000000
00100000
00000000
01000000
00000000
00010000
00000000
00100000
00000000
00001000
00010000
00001000
00010000
,
00002000
00003000
00010000
00001000
00000000
00010000
00000010
00001000
,
00000100
00000010
00000100
00000001
00000000
00000100
00000010
00000001
,
00000100
00000010
00001000
00000100
00000000
00010000
00001000
00000100
,
00001000
00010000
00001000
00010000
00000000
00001000
00010000
01000000
,
00100000
00000000
01000000
00000000
10000000
00000000
01000000
00000000
10000000
00010000
00000000
00000000
01000000
00000000
00000000
01000000
,
00000000
00000000
01000000
00000000
00100000
00000000
01000000
00000000
00010000
01000000
00000000
00000000
00010000
00000000
00000000
00010000
,
00000000
00010000
00100000
00010000
00100000
00001000
00010000
00000100
,
00000010
00000000
00000001
00000000
00000000
00000000
00001000
00000000
00001000
00000000
00000000
00000000
00000110
00000000
00000000
00001010
,
00000000
00000011
00000000
00000000
00002002
00000000
00000000
00000000
00000000
00000000
00000000
00000000
00000000
00000000
00000000
00000000
,
00000000
00000000
00000000
00000000
,
00000000
00000000
00000000
00000000
,
00003003
00000000
00000000
00000000
,
00000000
00000000
00000000
00000000
;
