
//----- song ID: dual -----//
#TITLE:DUAL STRIKER;
#ARTIST:Mayumi Morinaga,Fernweh by BEMANI Sound Team "L.E.D. & HuΣeR";
#BANNER:DUAL STRIKER.png;
#BACKGROUND:DUAL STRIKER-bg.png;
#CDTITLE:./CDTitles/BEMANI 2021 manatsu no utagassen 5 ban shoubu.png;
#MUSIC:DUAL STRIKER.ogg;
#SAMPLESTART:74.556;
#SAMPLELENGTH:15;
#BPMS:0=185;
#STAGE:15;
#NOTES:
     dance-single:
     :
     Beginner:
     7:
     :
0000
0000
0000
0000
,
0000
0000
0000
0000
,
0000
0000
0000
0000
,
0000
0000
0000
0000
,
0000
0000
0000
0000
,
0000
0000
0000
0000
,
0001
0010
0001
0000
,
0100
0001
0100
0000
,
0010
1000
0010
1000
,
0100
1000
0100
0000
,
1000
0001
1000
0000
,
0001
1000
0001
0000
,
0100
0010
0100
0010
,
0100
0010
0100
0000
,
0001
0100
0001
0000
,
1000
0010
1000
0000
,
0100
1000
0100
1000
,
0001
0010
0001
0000
,
2000
0000
0000
0000
,
3000
0000
0000
0000
,
0002
0000
0000
0000
,
0003
0000
0000
0000
,
0200
0000
0000
0000
,
0300
0000
0000
0000
,
0020
0000
0000
0000
,
0030
0000
0000
0000
,
1000
0100
1000
1000
,
0010
1000
0010
0000
,
0100
0001
0100
0100
,
0001
0010
0001
0000
,
1000
0100
0010
0000
,
0001
0100
0010
0000
,
1000
0010
0100
0001
,
0010
0100
1000
0000
,
1001
0000
0000
1000
,
0001
1000
0001
0000
,
0110
0000
0000
0100
,
0010
0100
0010
0000
,
1001
0000
0000
0001
,
0010
0100
1000
0000
,
0001
0001
0001
0000
,
1000
1000
1000
0000
,
0001
0100
0001
0100
,
0010
1000
0010
0010
,
1000
0100
0001
0100
,
1000
0001
1000
0000
,
1000
0100
1000
0100
,
0010
0001
0010
0010
,
0001
0100
1000
0100
,
0001
0000
0000
0000
,
1001
0000
0000
0000
,
0000
0000
0000
0000
0000
0000
0000
0110
,
0000
0110
0000
0000
0000
0000
0000
0000
,
0000
0000
0000
0000
,
1001
0000
0000
0000
,
0000
0000
0000
0000
0000
0000
0000
0110
,
0000
0110
0000
0000
0000
0000
0000
0000
,
0000
0000
0000
0000
,
1000
0100
0010
0001
,
1000
0100
0010
0000
,
0001
0100
0010
1000
,
0001
0100
0010
0000
,
1000
0001
0100
0010
,
1000
0001
0010
0100
,
1000
1000
0001
0001
,
0100
0010
0110
0000
,
0001
0010
1000
0010
,
0002
0000
0003
0000
,
1000
0010
0001
0010
,
2000
0000
3000
0000
,
0001
0100
0001
0100
,
0010
1000
0100
0010
,
0100
0000
1000
0000
0001
0000
0000
1000
,
0000
0001
1001
0000
,
1000
0100
0010
0100
,
0010
0001
1000
0001
,
0100
0100
0010
0010
,
1000
0001
1000
0000
,
0001
0100
0010
0100
,
0010
1000
0001
1000
,
0100
0100
0010
0010
,
0001
1000
0001
0000
1000
0000
0000
0000
,
0001
0100
0010
1000
,
0100
0010
0001
0110
,
1000
0001
0100
0001
,
0010
0100
1000
0110
,
0002
0000
0000
0003
,
2000
0000
0000
3000
,
0001
0010
0100
1000
,
1010
0000
0101
0000
,
2002
0000
0000
0000
,
0000
0000
0000
0000
,
0000
0000
0000
0000
,
0000
0000
0000
0000
,
3003
0000
0000
0000
,
0000
0000
0000
0000
;
#NOTES:
     dance-single:
     :
     Easy:
     9:
     :
0000
0000
0000
0000
,
0000
0000
0000
0000
,
0000
0000
0000
0000
,
0000
0000
0000
0000
,
0000
0000
0000
0000
,
0000
0000
0000
0000
,
0001
1000
0001
0001
,
1000
0001
1000
1000
,
0010
0100
0010
0110
,
0000
0000
0000
0000
,
1000
0100
1000
0100
,
0001
0100
0001
0100
,
1000
0100
1000
0100
,
1000
0001
1000
0000
,
0001
0100
0001
0100
,
1000
0100
1000
0100
,
0001
0100
0001
0100
,
0001
1000
0001
0000
,
2000
0000
0000
3000
,
0020
0000
0000
0030
,
0200
0000
0000
0300
,
0002
0000
0000
0003
,
1000
0000
0010
0000
,
0100
0000
0001
0000
,
1000
0000
0100
0000
,
0010
0000
0001
0000
,
1000
0100
1000
0000
0001
0000
0000
0000
,
1000
0010
1000
0000
0001
0000
0000
0000
,
1000
0100
0010
0000
0001
0000
0000
0000
,
1000
1000
1000
0000
,
0001
0100
0001
0000
1000
0000
0000
0000
,
0001
0010
0001
0000
1000
0000
0000
0000
,
0001
0100
0010
0000
1000
0000
0000
0000
,
0001
0001
0001
0000
,
1001
0000
0000
0000
,
1000
0100
1000
0100
0010
0001
0010
0000
,
1001
0000
0000
0000
,
0001
0100
0001
0100
0010
1000
0010
0000
,
1001
0000
0000
0000
,
0001
0010
0100
1000
0100
0010
0001
0000
,
1000
0100
0001
0100
,
1000
0001
1000
0001
1000
0000
1001
0000
,
0001
0100
0001
0010
,
0100
1000
0001
1000
0100
0000
0010
0000
,
0002
0000
0103
0000
,
2000
0100
3100
0000
,
1001
0000
0010
1000
,
0100
0001
0010
1000
,
0100
0000
0000
0100
0020
0000
0000
0000
,
0030
0000
0000
0000
,
1001
1000
0100
0010
,
0001
0000
0100
0000
0010
0000
1000
0001
,
0000
1000
0001
0000
0100
0000
0001
0000
,
0010
0000
0100
0000
1000
0001
1000
0000
,
0001
0010
1000
0010
,
0001
0000
1000
0000
0100
0000
0010
0001
,
0000
0010
0001
0000
1000
0000
0002
0000
,
0000
0000
0003
0000
,
0001
0010
0001
0000
1000
0010
1000
0000
,
0001
0010
0100
1000
,
0001
0100
0001
0000
1000
0100
1000
0000
,
0001
0100
0010
1000
,
0001
1000
0001
0000
1000
0000
0100
0000
,
0001
0000
0100
0000
1000
0000
0001
0100
,
0000
0001
0200
0000
0000
0000
0000
0000
,
0310
0000
0010
0000
0010
0010
0000
0000
,
1000
0001
1000
0001
1000
0000
0000
0000
,
0100
0100
0100
0000
,
1000
0000
0001
0010
0001
0000
0000
0000
,
0100
0001
1000
0000
,
1001
0000
0110
0000
,
0001
0000
0100
0010
0100
0000
0010
1000
,
0000
0001
2000
0000
0000
0000
0000
0000
,
3000
1000
0100
0010
,
0001
0000
0100
0000
0010
1000
0010
0000
,
1000
0000
0001
0000
0100
0001
0100
0000
,
0001
0011
1000
1010
,
0001
1000
1001
0000
,
0001
0100
0001
0100
0001
0000
0000
0000
,
1000
0100
1000
0100
1000
0000
0000
0000
,
0001
0001
0010
0010
,
0100
0000
0100
0000
1000
0001
1000
0000
,
0001
0000
0010
0000
0001
1000
0100
0000
,
1000
0010
0100
0001
,
1000
0000
0010
0000
1000
0001
0100
0000
,
0001
0010
0100
1000
,
0002
0000
0000
0003
,
2000
0000
0000
3000
,
0001
0100
0001
0100
0010
0100
0010
0000
,
1000
0100
1000
0100
0010
0000
0000
0000
,
0002
0000
0000
0000
,
0000
0000
0000
0003
,
2000
0000
0000
0000
,
0000
0000
0000
0000
,
3000
0000
0000
0000
,
0000
0000
0000
0000
;
#NOTES:
     dance-single:
     :
     Medium:
     13:
     :
0000
0000
0000
0000
,
0000
0000
0000
0000
,
0000
0000
0000
0000
,
0000
0000
0000
0000
,
0000
0000
0000
0000
,
0000
0000
0000
0000
,
0001
1000
0001
1000
,
0001
0000
0010
0000
0100
0000
1000
0001
,
0000
1000
0001
0000
0100
0000
0010
0200
,
0000
0000
0000
0300
,
0001
0000
0000
0100
0000
0000
0001
0000
0010
0000
0000
0100
0000
0000
0010
0000
,
0100
0000
0000
1000
0000
0000
0100
0000
1000
0000
0010
0000
0100
0000
0001
0000
,
1000
0000
0000
0100
0000
0000
1000
0000
0100
0000
0000
0010
0000
0000
0100
0000
,
0010
0000
0000
0001
0000
0000
0010
0000
0001
0000
0100
0000
0010
0000
1000
0000
,
0001
0000
0000
0100
0000
0000
1000
0000
0100
0000
0000
0001
0000
0000
1000
0000
,
0100
0000
0000
0001
0000
0000
0100
0000
1000
0000
0001
0000
0010
0000
0100
0000
,
1000
0000
0000
0010
0000
0000
0001
0000
0010
0000
0000
1000
0000
0000
0001
0000
,
0010
0000
0000
1000
0000
0000
0010
0000
0001
0000
1000
0000
0100
0000
0010
0000
,
0001
0000
0100
0001
0000
1000
0000
0000
,
0010
0000
1000
0100
0000
0000
1000
0000
,
0001
0000
0100
0001
0000
0010
0000
0000
,
0001
0000
1000
0100
0000
0000
0010
0000
,
0001
0000
0011
0000
,
0101
0000
1010
0000
,
1100
0000
2000
0000
,
3200
0000
0320
0000
,
0031
0100
0010
1000
0001
0100
0010
1000
,
0001
0100
0001
0010
0100
1000
0001
0001
,
1000
0100
0010
0001
1000
0100
0010
0001
,
1000
0010
0100
0001
1000
0100
0010
0010
,
0001
0100
0001
0100
0010
1000
0010
0000
,
1000
0100
1000
0100
0010
0001
0010
0000
,
0001
0100
0001
1000
0010
0100
0010
1000
,
0001
0000
0010
0000
0100
0000
1000
0000
0001
1000
0001
1000
0001
0000
0000
0000
,
2002
0000
0000
0000
3003
0000
1000
0100
,
0010
0001
0100
0010
1000
0100
0010
0000
,
2002
0000
0000
0000
3003
0000
1000
0010
,
0100
0001
0010
0100
1000
0010
0100
0000
,
2002
0000
0000
0000
3003
0000
1000
0010
,
0000
0000
0100
0000
0001
0000
0000
0000
1000
0000
0000
0001
0000
0000
1000
0000
,
0002
0000
0023
0000
0230
0000
1300
0010
,
0100
0001
1000
0001
0100
0000
1001
0000
,
1000
0010
0100
0010
1000
0000
0100
0010
,
0001
0100
0001
0010
0001
0000
1001
0001
,
1000
0000
0010
0100
0010
0000
1000
0001
,
0010
0001
0100
0000
0010
1000
0100
0000
,
0110
0000
1100
0110
,
0101
0110
1100
0110
,
1001
0000
0000
0001
2000
0000
0000
0000
,
3000
0000
0000
0000
,
0001
0010
0001
0010
0100
1000
0100
1000
,
0010
1000
0010
1000
0001
0100
0001
0100
,
0000
0001
1000
0000
0010
1000
0100
1000
,
0000
0100
0010
0001
0010
0100
1000
0000
,
0001
0100
0001
0100
0010
1000
0010
1000
,
0100
1000
0100
1000
0001
0010
0001
0010
,
0000
0001
1000
0000
0100
1000
0020
0000
,
0000
0000
0100
0130
,
1000
0000
0000
0100
0010
0000
0001
0000
1000
0000
0000
0100
0010
0000
0001
0000
,
1000
0010
0100
0010
1000
0001
0010
0100
,
1000
0000
0000
0001
0010
0000
0100
0000
1000
0000
0000
0001
0010
0000
0100
0000
,
1000
0000
0001
0000
0100
0000
0010
0000
1000
0000
0100
0000
1000
0001
1000
0000
,
0010
0000
0000
1000
0100
0000
0010
0000
0001
0000
0000
0100
0010
0000
1000
0000
,
0200
0000
0302
0000
0203
0000
1300
0001
,
0000
0001
1000
0000
0010
0100
0000
0001
,
1000
0100
0010
0001
1000
1000
0000
0000
,
0001
0000
0000
0010
0100
0000
1000
0000
0001
0000
0000
0010
0100
0000
1000
0000
,
0001
0100
0010
0100
0001
1000
0100
0010
,
0001
0000
0000
1000
0100
0000
0010
0000
0001
0000
0000
1000
0100
0000
0010
0000
,
0001
0000
1000
0000
0010
0000
0100
0000
0001
0000
0010
0000
0001
1000
0001
0000
,
0100
0000
0000
0001
0010
0000
0100
0000
1000
0000
0000
0010
0100
0000
0001
0000
,
0010
0100
0000
1000
0010
0000
0100
0010
,
0000
1000
0001
0000
0100
0010
0000
1000
,
0001
0010
0100
1000
0002
0000
1003
0000
,
0001
0100
0010
1000
0001
0010
0100
1000
,
0001
0100
1000
0100
0001
0010
0100
1000
,
0010
1000
0100
0010
0001
0100
0010
1000
,
0100
0010
0001
0100
0001
0001
1000
1000
,
0010
1000
0100
1000
0010
1000
0100
0010
,
0001
0100
0001
0010
0001
0100
0010
1000
,
0001
0100
0001
0100
1000
0100
1000
0100
,
0001
0000
0000
0000
0001
0000
0000
0000
1000
0000
0001
1000
0001
0000
0000
0000
,
1000
0000
0000
0010
0100
0000
0001
0000
1000
0000
0100
0000
0010
0000
0001
0000
,
1000
0000
0000
0001
0100
0000
0010
0000
1000
0000
0100
0000
0010
0000
0000
0000
,
0001
0000
0100
0001
0000
0100
0001
0000
1000
0001
0000
1000
0001
0000
0000
0000
,
1000
0000
0010
1000
0000
0010
1000
0000
0001
0000
1000
0000
0001
0000
0000
0000
,
2002
0000
0000
0000
,
0000
0000
0000
3003
,
1000
0100
0010
0001
0100
0010
1000
0001
,
0100
0000
0010
0000
1000
0000
0100
0000
0001
0000
0000
0100
0000
0000
1000
0000
,
0001
0100
0001
0000
0100
0001
0000
1000
,
0100
0000
1000
0100
0000
1000
0010
1000
,
0001
0010
0001
0000
0010
0001
0000
1000
,
0100
0000
1000
0100
0000
1000
0001
1000
,
0000
0000
0000
0000
;
#NOTES:
     dance-single:
     :
     Hard:
     17:
     :
0000
0000
0000
0000
,
0000
0000
0000
0000
,
0000
0000
0000
0000
,
0000
0000
0000
0000
,
0000
0000
0000
0000
,
0000
0000
0000
0000
,
0001
1000
0000
0000
0000
0000
0000
0000
,
0000
0000
0000
0000
0000
0000
0000
0110
,
0000
0100
0020
0000
0000
0000
0000
0030
,
0000
0000
0000
0000
,
1000
0000
0000
0100
0010
0000
0001
0000
1000
0000
0000
0100
0010
0000
0001
0000
,
1000
0000
0000
0100
0010
0000
0001
0000
1000
0000
0010
0000
0100
0001
0100
0010
,
1000
0000
0000
0001
0010
0000
0100
0000
1000
0000
0000
0001
0010
0000
0100
0000
,
1000
0000
0000
0001
0010
0000
0100
0000
1000
0000
1000
0000
0010
0100
0010
0100
,
0010
0000
0000
0100
0001
0000
0010
0000
0100
0000
0000
1000
0010
0000
0100
0000
,
0001
0000
0000
0010
0100
0000
1000
0000
0010
0000
0100
0000
0010
1000
0010
0100
,
0001
0000
0000
1000
0100
0000
0010
0000
0001
0000
0000
0100
0010
0000
1000
0000
,
0100
0000
0100
0000
0010
0000
0010
0000
0001
0010
0001
0010
0100
1000
0100
1000
,
0002
0000
0000
0203
,
0320
0000
0000
2030
0000
0000
3020
0000
,
0230
0000
0000
0302
0000
0000
2003
0000
,
0000
3200
0000
0000
0320
0000
0032
0000
,
1003
0000
2020
3030
,
0202
0303
0022
0033
,
2200
0000
3300
0000
0220
0000
0330
0001
,
0000
0001
0000
0001
2000
0000
3000
0000
,
0001
0000
1000
0100
1000
0000
0010
0000
0100
0001
0100
0001
0100
0000
0000
0000
,
0001
0000
0010
0001
0010
0000
0100
0000
1000
0010
1000
0010
1000
0000
0000
0000
,
0001
0000
1000
0001
1000
0000
0100
0000
0010
0001
0010
0001
0010
0000
0000
0000
,
0001
0000
0010
0100
0010
0000
0001
0000
1000
0000
1000
0000
0001
0100
0010
1000
,
0010
0000
1000
0100
1000
0000
0010
0000
0100
0000
0001
0010
0001
0000
1000
0000
,
0100
0000
1000
0001
1000
0000
0010
0000
0100
0000
0001
0010
0001
0000
1000
0000
,
0001
0000
0100
0010
0100
0000
0001
0000
1000
0001
1000
0001
1000
0000
0001
0000
,
0100
0000
0100
0000
0010
0000
0010
0000
1000
0010
1000
0010
0100
0001
0100
0001
,
0200
0000
0000
0000
0000
0000
0000
0000
0300
0000
0000
0000
0001
1000
0001
1000
,
0100
1000
0100
1000
0001
0010
0001
0010
0100
1000
0100
1000
0001
1000
0001
1000
,
0002
0000
0000
0000
0000
0000
0000
0000
0003
0000
0000
0000
1000
0001
1000
0001
,
0010
0001
0010
0001
1000
0100
1000
0100
0010
0001
0010
0001
1000
0001
1000
0001
,
2000
0000
0000
0000
3000
0000
0001
0010
,
0000
0000
0001
0000
0100
0000
0000
0000
0010
0000
0000
0100
0000
0000
0010
0000
,
1000
0100
0100
0001
,
1000
0001
1000
0001
1000
0000
1001
0000
,
0001
0000
1000
0010
0100
0000
0001
0000
0010
0000
0001
0000
0100
0000
0000
0000
,
0001
0000
0010
0000
1000
0000
0010
0000
0001
1000
0001
1000
0001
0000
0000
0000
,
1000
0001
0010
0100
1000
0010
0100
0100
,
0001
0000
0010
0000
0100
0000
0001
0000
0100
0000
1000
0000
0001
1000
0001
1000
,
0001
0100
0110
0000
1010
0000
1100
0000
,
0011
0101
0110
1001
,
0001
0000
0000
0101
0000
0000
0001
0000
1000
0000
0000
1100
0000
0000
1000
0000
,
0020
0000
0000
0030
,
1000
0001
0000
0000
0000
0000
0000
0000
,
0000
0000
0000
0000
0000
0000
0000
0110
,
0000
0100
0010
0000
0000
0000
0000
0000
,
0000
0000
0000
0000
,
1000
0010
0000
0000
0000
0000
0000
0000
,
0000
0000
0000
0000
0000
0000
0000
0101
,
0000
0001
0100
0000
0000
0000
0000
0000
,
0000
0000
0002
2003
,
3001
0000
0100
0001
0000
0100
0010
0000
1000
0000
0010
1000
0000
0100
1000
0000
,
0001
0000
0010
0100
0000
0010
0001
0000
0100
0000
0010
1000
0000
0001
1000
0000
,
0100
0000
0010
0001
0000
1000
0100
0000
0010
0000
0100
1000
0000
0001
0010
0000
,
0001
0000
0100
0010
0000
1000
0010
0000
0100
0000
0100
0000
0001
0010
0100
1000
,
0001
0000
0010
0100
0000
0001
0100
0000
1000
0000
0001
0100
0000
0010
1000
0000
,
0100
0000
0010
1000
0000
0010
0100
0000
1000
0000
0001
0010
0000
0100
1000
0000
,
0001
0000
0100
0010
1000
0000
0001
0000
1000
0010
0100
0000
0001
0000
1000
0000
,
0001
0010
0100
1000
0001
0010
0100
1000
0001
0000
0001
0000
0000
0000
0000
0000
,
1000
0000
0010
1000
0000
0010
0100
0000
0001
0000
0100
0001
0000
0010
0001
0000
,
1000
0000
0100
0010
0000
0100
1000
0000
0010
0000
0100
0001
0000
1000
0001
0000
,
0010
0000
0100
1000
0000
0001
0010
0000
0100
0000
0010
0001
0000
1000
0100
0000
,
1000
0000
0010
0100
0000
0001
0100
0000
0010
0000
0010
0000
1000
0100
0010
0001
,
1000
0000
0100
0010
0000
1000
0010
0000
0001
0000
1000
0010
0000
0100
0001
0000
,
0010
0000
0100
0001
0000
0100
0010
0000
0001
0000
1000
0100
0000
0010
0001
0000
,
1000
0000
1100
0000
0001
0001
0000
1001
,
0000
0000
0001
0000
1000
0000
0000
0000
0001
0000
0000
1000
0000
0000
0010
0000
,
0100
0000
0001
0100
0001
0000
1000
0100
1000
0001
1000
0001
0010
0001
0010
0000
,
0001
0100
0010
1000
0001
0100
0010
1000
0001
0100
0001
1000
0001
0000
0000
0000
,
1000
0100
0010
0001
1000
0000
1000
0010
0100
0001
1000
0000
1000
0100
0010
0001
,
1000
0000
1000
0010
0100
0001
1000
0000
0001
1000
0001
1000
0001
0000
0000
0000
,
1000
0010
0100
0000
0001
0100
0010
0000
1000
0100
0010
0000
0001
0010
0100
0000
,
1000
0010
0100
0000
0001
0010
0100
0000
1000
0001
1000
0001
1000
0000
0000
0000
,
0010
0000
1000
0001
0000
1000
0001
0000
0010
0000
0001
1000
0000
0001
1000
0000
,
0100
0000
0000
0000
0000
0000
0100
0000
0000
0000
0000
0000
0100
0000
0000
1000
0001
1000
0001
0000
0000
1000
0000
0000
,
0001
0000
1000
0100
0000
0010
0001
0000
1000
0000
0001
0010
0000
0100
1000
0000
,
0001
0000
0100
0010
0000
1000
0010
0000
0100
0000
0001
0010
0000
0100
0010
0000
,
0001
0000
1000
0100
0000
1000
0010
0000
1000
0100
0000
1000
0010
0000
1000
0100
,
0010
0000
0001
0100
0000
0001
0010
0000
0001
0000
0001
0000
0100
0000
0100
0000
,
0002
0000
0000
0000
,
2000
0000
0000
3003
,
0001
0100
0001
0100
0010
1000
0010
1000
0001
0100
0001
1000
0010
0100
0010
1000
,
0001
1000
0100
0010
0001
1000
0001
0010
0100
0000
0000
1000
0000
0000
0001
0000
,
1000
0100
1000
1000
0010
1000
1000
0001
,
1000
1000
0001
1000
1000
0100
0010
0001
,
1000
0010
1000
1000
0100
1000
1000
0001
,
1000
1000
0001
1000
1000
0001
0010
0100
,
0000
0000
0000
0000
;
#NOTES:
     dance-double:
     :
     Easy:
     9:
     :
00000000
00000000
00000000
00000000
,
00000000
00000000
00000000
00000000
,
00000000
00000000
00000000
00000000
,
00000000
00000000
00000000
00000000
,
00000000
00000000
00000000
00000000
,
00000000
00000000
00000000
00000000
,
00001000
00010000
00001000
01000000
,
00010000
00100000
00010000
10000000
,
01000000
00100000
01000000
01100000
,
00000000
00000000
00000000
00000000
,
10000000
01000000
10000000
01000000
,
00100000
00010000
00100000
00000000
,
00001000
00010000
00001000
00010000
,
00000100
00001000
00000100
00000000
,
00000010
00000001
00000010
00000001
,
00000100
00000001
00000100
00000000
,
00000010
00001000
00000010
00001000
,
00000010
00010000
00000010
00000000
,
00020000
00000000
00000000
00030000
,
00002000
00000000
00000000
00003000
,
02000000
00000000
00000000
03000000
,
00020000
00000000
00000000
00030000
,
10000000
00000000
01000000
00000000
,
00100000
00000000
00001000
00000000
,
00010000
00000000
00000100
00000000
,
00000010
00000000
00000001
00000000
,
00001000
00000100
00001000
00000000
00000001
00000000
00000000
00000000
,
00001000
00000010
00001000
00000000
00000100
00000000
00000000
00000000
,
00010000
00001000
00010000
00000000
00001000
00000000
00000000
00000000
,
00100000
00010000
01000000
00000000
,
00010000
10000000
00010000
00000000
00100000
00000000
00000000
00000000
,
01000000
10000000
01000000
00000000
00100000
00000000
00000000
00000000
,
00001000
00010000
00001000
00000000
00010000
00000000
00000000
00000000
,
00000100
00001000
00000010
00000000
,
00000110
00000000
00000000
00000000
,
00000001
00000100
00000001
00000100
00000010
00001000
00000010
00000000
,
00000110
00000000
00000000
00000000
,
00010000
00001000
00010000
00001000
00100000
00010000
00100000
00000000
,
01100000
00000000
00000000
00000000
,
10000000
01000000
00100000
00000000
00010000
01000000
00001000
00000000
,
00010000
00000100
00001000
00000100
,
00000010
00000100
00000010
00000100
00000010
00000000
00000110
00000000
,
00000001
00000000
00000001
00000000
00001000
00000100
00001000
00000000
,
00000100
00010000
00000100
00000000
00010000
00000000
00000000
00000000
,
00002000
00000000
01003000
00000000
,
00020000
00100000
00130000
00000000
,
10010000
00000000
10000000
01000000
,
00010000
00001000
00000010
00000001
,
00000100
00000000
00000000
00000100
00000020
00000000
00000000
00000000
,
00000030
00000000
00000000
00000000
,
00001001
00000001
00000100
00000010
,
00010000
00000000
00001000
00000000
00100000
00000000
00010000
01000000
,
00000000
00010000
00100000
00000000
01000000
00000000
10000000
00000000
,
00010000
00000000
01000000
00000000
00010000
10000000
00010000
00000000
,
10000000
01000000
00100000
00001000
,
00010000
00000000
00001000
00000000
00000010
00000000
00000001
00000100
,
00000000
00000001
00001000
00000000
00000100
00000000
00000020
00000000
,
00000000
00000000
00000030
00000000
,
00000001
00000100
00000001
00000000
00001000
00000100
00001000
00000000
,
00000010
00000100
00001000
00010000
,
00100000
01000000
00100000
00000000
10000000
00010000
10000000
00000000
,
01000000
00010000
01000000
10000000
,
00010000
00100000
00010000
00000000
10000000
00100000
10000000
00000000
,
00100000
00010000
00001000
00000100
,
00000002
00000010
00001000
00000103
,
00000001
00001000
00000001
00001000
00000001
00000000
00000000
00000000
,
00001000
00000100
00001000
00000001
00001000
00000000
00000000
00000000
,
00000010
00000010
00000010
00000000
,
00010000
00000000
00001000
00010000
00001000
00000000
00100000
00010000
,
01000000
00010000
10000000
00000000
,
10010000
00000000
01100000
00000000
,
10000000
00000000
01000000
00000000
00010000
00000000
00001000
00000010
,
00000000
00000001
00000020
00000000
00000000
00000000
00000000
00000000
,
00000030
00000001
00001000
00000001
,
00000100
00000000
00000001
00000000
00001000
00000010
00001000
00000000
,
00000100
00000000
00010000
00000000
00001000
00010000
00001000
00000000
,
01000000
00010000
01000000
00000000
00010000
00100000
00010000
00000000
,
10000000
01000000
01100000
00000000
,
10000000
01000000
10000000
01000000
10000000
00000000
00000000
00000000
,
00010000
00100000
00010000
00100000
00010000
00000000
00000000
00000000
,
00100000
00100000
00001000
00001000
,
00010000
00000000
00010000
00000000
00001000
00010000
00001000
00000000
,
00010000
00000000
00000010
00000000
00001000
00000100
00001000
00000000
,
00000001
00000000
00000010
00000000
00000100
00001000
00000100
00000000
,
00001000
00000001
00000010
00001000
,
00010000
01000000
10000000
00000000
,
00020000
00000000
00000000
00030000
,
00200000
00000000
00000000
00300000
,
00001000
00010000
00000100
00000000
00001000
00000010
00000100
00000000
,
00000001
00000010
00000100
00001000
00000100
00000000
00000000
00000000
,
00020000
00000000
00000000
00000000
,
00000000
00000000
00000000
00030000
,
00002000
00000000
00000000
00000000
,
00000000
00000000
00000000
00000000
,
00003000
00000000
00000000
00000000
,
00000000
00000000
00000000
00000000
;
#NOTES:
     dance-double:
     :
     Medium:
     13:
     :
00000000
00000000
00000000
00000000
,
00000000
00000000
00000000
00000000
,
00000000
00000000
00000000
00000000
,
00000000
00000000
00000000
00000000
,
00000000
00000000
00000000
00000000
,
00000000
00000000
00000000
00000000
,
00001000
00010000
00001000
00010000
,
00000010
00000000
00010000
00000000
00000010
00000000
00010000
00001000
,
00000000
00010000
00001000
00000000
00100000
00000000
00001000
00200000
,
00000000
00000000
00000000
00300000
,
00010000
00000000
00000000
01000000
00000000
00000000
00010000
00000000
00100000
00000000
00000000
01000000
00000000
00000000
10000000
00000000
,
00100000
00000000
00000000
10000000
00000000
00000000
00100000
00000000
01000000
00000000
00010000
00000000
01000000
00000000
00000000
00000000
,
00010000
00000000
00000000
00100000
00000000
00000000
00001000
00000000
00010000
00000000
00000000
00001000
00000000
00000000
00010000
00000000
,
00000010
00000000
00000000
00001000
00000000
00000000
00000100
00000000
00000010
00000000
00000001
00000000
00000010
00000000
00000000
00000000
,
00000001
00000000
00000000
00001000
00000000
00000000
00000100
00000000
00001000
00000000
00000000
00000001
00000000
00000000
00000100
00000000
,
00001000
00000000
00000000
00010000
00000000
00000000
00001000
00000000
00010000
00000000
00100000
00000000
10000000
00000000
00000000
00000000
,
00010000
00000000
00000000
10000000
00000000
00000000
01000000
00000000
10000000
00000000
00000000
00010000
00000000
00000000
01000000
00000000
,
00010000
00000000
00000000
00100000
00000000
00000000
01000000
00000000
10000000
00000000
01000000
00000000
00010000
00000000
00000000
00000000
,
00001000
00000000
00010000
00001000
00000000
00000010
00000000
00000000
,
00000001
00000000
00001000
00000001
00000000
00000000
00000100
00000000
,
00000001
00000000
00000010
00000100
00000000
00001000
00000000
00000000
,
00000100
00000000
00010000
00001000
00000000
00000000
00010000
00000000
,
00001000
00000000
00101000
00000000
,
00110000
00000000
01100000
00000000
,
11000000
00000000
20000000
00000000
,
32000000
00000000
03200000
00000000
,
00310000
01000000
00010000
01000000
00010000
00100000
00010000
00100000
,
00001000
00010000
00001000
00010000
00000010
00001000
00000010
00001000
,
00000100
00000010
00000100
00000010
00000001
00001000
00000001
00001000
,
00000002
00000000
00000203
00000000
00002300
00000000
00013000
00001000
,
01000000
00001000
01000000
00001000
00100000
00010000
00100000
00010000
,
10000000
01000000
10000000
01000000
10000000
00100000
10000000
00100000
,
01000000
00010000
01000000
00010000
00100000
00001000
00100000
00001000
,
00010000
00000100
00001000
00000100
00000010
00000001
00000010
00000000
,
00002002
00000000
00000000
00000000
00003003
00000000
00001000
00000001
,
00000010
00000100
00010000
00001000
00100000
00010000
01000000
00100000
,
20000000
00000000
00000000
00000000
30000000
00000000
00100000
10000000
,
01000000
00100000
00010000
00100000
00001000
00010000
00000100
00001000
,
00000020
00000000
00000000
00000000
00000030
00000000
00001000
00000001
,
00000000
00000000
00000010
00000000
00000001
00000000
00000000
00000000
00001000
00000000
00000000
00000100
00000000
00000000
00000001
00000000
,
00000200
00002300
00003002
00000023
,
00000130
00010000
00001000
00010000
00000100
00000000
00001100
00000000
,
00000001
00000000
00000100
00000000
00001000
00000000
00010000
00100000
,
01000000
00100000
10000000
00100000
01000000
00000000
00010000
10000000
,
01000000
00000000
00100000
01000000
00100000
00000000
00010000
00100000
,
00001000
00010000
00001000
00000000
00010000
00000100
00001000
00000100
,
00000010
00000000
00000011
00000001
,
00000101
00001000
00001100
00000100
,
00010100
00000000
00000000
00001000
00020000
00000000
00000000
00000000
,
00030000
00000000
00000000
00000000
,
00001000
00010000
00001000
00010000
00001000
01000000
00010000
01000000
,
00100000
10000000
00100000
10000000
00000000
01000000
00010000
00001000
,
00000000
00010000
00100000
00000000
00010000
00001000
00000100
00000001
,
00000000
00000001
00001000
00000001
00000100
00000001
00001000
00000000
,
00000001
00000100
00000001
00000010
00000100
00010000
00001000
00010000
,
00000010
00001000
00000100
00010000
00001000
00100000
00010000
01000000
,
00000000
00010000
00100000
00000000
01000000
10000000
00200000
00000000
,
00000000
00000000
01000000
01300000
,
10000000
00000000
00000000
01000000
00100000
00000000
00010000
00000000
10000000
00000000
00000000
00100000
01000000
00000000
00010000
00000000
,
10000000
01000000
00100000
00001000
00010000
00000100
00000010
00000000
,
00000001
00000000
00000000
00000100
00000010
00000000
00001000
00000000
00000001
00000000
00000000
00000010
00000100
00000000
00001000
00000000
,
00000001
00000010
00000100
00010000
00001000
00100000
01000000
00000000
,
10000000
00000000
00000000
01000000
00100000
00000000
00001000
00000000
00010000
00000000
00000000
00000100
00000010
00000000
00000001
00000000
,
00002000
00000000
00003200
00000000
00000302
00000000
00000103
00001000
,
00000000
00001000
00000001
00000000
00000100
00000010
00000000
00001000
,
00000001
00000010
00000100
00010000
00001000
00001000
00000000
00000000
,
00010000
00001000
01000000
00010000
00100000
00000000
01000000
10000000
,
01000000
00010000
01000000
00100000
00001000
00000000
00010000
00000100
,
00000010
00000000
00000001
00000100
00001000
00000000
00000100
00000001
,
00000000
00000001
00000010
00000100
00001000
00000000
00000010
00000000
,
00000100
00000000
00001000
00010000
00001000
00000000
01000000
00100000
,
01000000
00000000
00000000
00010000
00000000
00000000
10000000
00000000
00010000
00000000
00000000
00000000
10000000
00000000
01000000
00000000
,
00000000
00100000
00010000
00000000
10000000
00100000
00000000
00010000
,
00000000
00001000
00000100
00000001
00002000
00000000
00003001
00000000
,
00000001
00000010
00000001
00000010
00000001
00000100
00000001
00000100
,
00000010
00010000
00001000
00010000
00000010
00010000
00001000
00000000
,
00100000
00010000
01000000
00100000
10000000
01000000
00100000
00001000
,
00010000
00100000
01000000
00001000
00010000
01000000
10000000
00000000
,
10000000
00100000
10000000
00100000
00010000
00001000
00010000
00001000
,
00000010
00000001
00000010
00000001
00000010
00001000
00010000
00000000
,
00001000
00010000
00001000
00000100
00000010
00010000
00001000
00000010
,
00000100
00000000
00000000
00000000
00000100
00000000
00000000
00000000
00000100
00000000
00001000
00000001
00001000
00000000
00000000
00000000
,
00000001
00000000
00000000
00001000
00000001
00000000
00000100
00000000
00000010
00000000
00001000
00000000
00000010
00000000
00010000
00000000
,
00001000
00000000
00000000
00100000
00010000
00000000
00100000
00000000
01000000
00000000
10000000
00000000
00010000
00000000
00000000
00000000
,
10000000
00000000
00010000
00100000
00000000
00010000
00100000
00000000
00001000
00010000
00000000
00001000
00010000
00000000
00000000
00000000
,
00000100
00000000
00001000
00000010
00000000
00001000
00000010
00000000
00001000
00000000
00000001
00000000
00001000
00000000
00000000
00000000
,
00002002
00000000
00000000
00000000
,
00000000
00000000
00000000
00003003
,
00000001
00000100
00000010
00001000
00010000
01000000
00100000
10000000
,
01000000
00000000
00010000
00000000
00001000
00000000
00000010
00000000
00000001
00000000
00000000
00000010
00000000
00000000
00001000
00000000
,
00010000
00001000
00010000
00000000
00000100
00010000
00000000
00000010
,
00010000
00000000
00001000
00010000
00000000
00000100
00010000
00001000
,
00010000
00001000
00100000
00000000
00001000
01000000
00000000
00001000
,
00010000
00000000
00001000
00100000
00000000
00010000
00100000
01000000
,
00000000
00000000
00000000
00000000
;
#NOTES:
     dance-double:
     :
     Hard:
     17:
     :
00000000
00000000
00000000
00000000
,
00000000
00000000
00000000
00000000
,
00000000
00000000
00000000
00000000
,
00000000
00000000
00000000
00000000
,
00000000
00000000
00000000
00000000
,
00000000
00000000
00000000
00000000
,
00001000
00010000
00000000
00000000
00000000
00000000
00000000
00000000
,
00000000
00000000
00000000
00000000
00000000
00000000
00000000
00011000
,
00000000
00010000
00002000
00000000
00000000
00000000
00000000
00003000
,
00000000
00000000
00000000
00000000
,
00001000
00000000
00000000
00100000
00001000
00000000
01000000
00000000
00010000
00000000
00000000
00100000
00001000
00000000
01000000
00000000
,
00010000
00100000
10000000
00100000
00001000
00010000
01000000
10000000
,
00100000
00000000
00000000
01000000
00001000
00000000
00010000
00000000
00100000
00000000
00000000
01000000
00001000
00000000
00010000
00000000
,
00100000
00000000
01000000
00000000
00001000
00000000
00010000
00000000
00000100
00000000
00001000
00000000
00000001
00001000
00000001
00000000
,
00001000
00000000
00000000
00000100
00010000
00000000
00000010
00000000
00001000
00000000
00000000
00000100
00010000
00000000
00000010
00000000
,
00001000
00000001
00000010
00001000
00010000
00000100
00001000
00000010
,
00000100
00000000
00000000
00001000
00010000
00000000
00000100
00000000
00000010
00000000
00000000
00001000
00010000
00000000
00000100
00000000
,
00000010
00000000
00000001
00000000
00000100
00000000
00001000
00000000
00010000
00000000
00100000
00000000
10000000
00100000
10000000
00100000
,
20000000
00000000
00000000
32000000
,
03200000
00000000
00000000
00302000
00000000
00000000
00023000
00000000
,
00032000
00000000
00000000
00003200
00000000
00000000
00000302
00000000
,
00000000
00002003
00000000
00000000
00003200
00000000
00000320
00000000
,
00000031
00000000
00000202
00000303
,
00002020
00003030
02020000
03030000
,
20200000
00000000
30300000
00000000
00020000
00000000
00000000
10030000
,
00000000
10000000
00000000
10000000
00020000
00000000
00030000
00000000
,
10000000
00000000
01000000
00100000
01000000
00000000
00100000
00000000
00001000
00010000
00001000
00010000
00001000
00000000
00000000
00000000
,
00010000
00000000
00000100
00001000
00000100
00000000
00000010
00000000
00000001
00001000
00000001
00001000
00000001
00000000
00000000
00000000
,
00000100
00000000
00000010
00001000
00000010
00000000
00010000
00000000
00001000
00010000
00001000
00010000
00001000
00000000
00000000
00000000
,
00100000
00000000
00010000
01000000
00010000
00000000
10000000
00000000
01000000
00000000
01000000
00000000
00100000
00001000
00010000
00001000
,
00100000
00000000
01000000
00100000
01000000
00000000
00100000
00000000
00001000
00000000
00010000
00001000
00010000
00000000
00000010
00000000
,
00001000
00000000
00000100
00000010
00000100
00000000
00001000
00000000
00000001
00000000
00000100
00000010
00000100
00000000
00000001
00000000
,
00000010
00000100
00001000
00000010
00000100
00001000
00010000
00100000
,
01000000
00000000
00010000
00000000
00100000
00000000
01000000
00000000
10000000
01000000
10000000
01000000
00100000
00010000
00100000
00010000
,
20000000
00000000
00000000
00000000
00000000
00000000
00000000
00000000
30000000
00000000
00000000
00000000
00010000
10000000
01000000
00000000
,
00010000
00001000
00100000
00000000
00001000
00010000
00000100
00000000
00001000
00000100
00000010
00000000
00000001
00001000
00000001
00001000
,
00000002
00000000
00000000
00000000
00000000
00000000
00000000
00000000
00000003
00000000
00000000
00000000
00001000
00000001
00000100
00000000
,
00001000
00010000
00000010
00000000
00010000
00001000
01000000
00000000
00010000
01000000
00100000
00000000
10000000
00010000
10000000
00010000
,
20000000
00000000
00000000
00000000
30000000
00000000
10000000
01000000
,
00000000
00000000
00010000
00000000
00001000
00000000
00000000
00000000
00000010
00000000
00000000
00000001
00000000
00000000
00001000
00000000
,
00000001
00001000
00001000
00010000
,
00010000
10000000
00010000
10000000
00010000
00000000
10010000
00000000
,
10000000
00000000
00010000
00100000
00010000
00000000
01000000
00000000
00100000
00000000
00010000
00000000
00001000
00000000
00000000
00000000
,
00000010
00001000
00010000
00001000
00000100
00000001
00001000
00000000
,
00000001
00000000
00000100
00001000
00010000
00000000
00010000
00100000
,
10000000
00000000
01000000
00000000
00010000
00000000
00000000
00000000
00010000
00000000
01000000
00000000
10000000
00010000
10000000
00010000
,
10000000
00000000
11000000
00110000
,
00001100
00000000
00000011
00000000
00001001
00000000
00000001
00000100
,
00001000
00000000
00000000
00010000
00000000
00000000
00100000
00000000
00010000
00000000
00000000
00001000
00000000
00000000
00010000
00000000
,
02000000
00000000
00000000
03000000
,
10000000
00010000
00000000
00000000
00000000
00000000
00000000
00000000
,
00000000
00000000
00000000
00000000
00000000
00000000
00000000
00011000
,
00000000
00001000
00010000
00000000
00000000
00000000
00000000
00000000
,
00000000
00000000
00000000
00000000
,
00000001
00001000
00000000
00000000
00000000
00000000
00000000
00000000
,
00000000
00000000
00000000
00000000
00000000
00000000
00000000
00011000
,
00000000
00010000
00001000
00000000
00000000
00000000
00000000
00000000
,
00000000
00000000
00002000
00023000
,
00031000
00000000
00010000
00000100
00000000
00001000
00000100
00000000
00000010
00000000
00000001
00001000
00000000
00000100
00001000
00000000
,
00000010
00000000
00000100
00001000
00000000
00010000
00001000
00000000
00100000
00000000
00010000
00000000
01000000
00000000
00001000
00000000
,
00010000
00000000
01000000
10000000
00000000
01000000
00100000
00000000
00001000
00000000
00010000
00100000
00000000
00010000
00001000
00000000
,
00000100
00000000
00000001
00000010
00000000
00000100
00001000
00000000
00000001
00000000
00000010
00000000
00001000
00000000
00010000
00000000
,
01000000
00000000
10000000
00100000
00000000
10000000
01000000
00000000
00100000
00000000
00001000
00010000
00000000
00001000
00100000
00000000
,
00010000
00000000
01000000
00001000
00000000
00010000
00000100
00000000
00001000
00000000
00000010
00000000
00000001
00000000
00000010
00000000
,
00001000
00000000
00000001
00000100
00000001
00000000
00000010
00000000
00000100
00010000
00000100
00000000
00010000
00000000
00001000
00000000
,
00100000
00010000
00100000
00010000
01000000
00100000
01000000
00100000
10000000
00000000
10000000
00000000
00000000
00000000
00000000
00000000
,
00010000
10000000
00100000
00010000
00001000
00000000
00001000
00010000
,
00000100
00000001
00000100
00000010
00000001
00000000
00001001
00001000
,
00000002
00000000
00000103
00001000
02000000
00000000
03010000
10000000
,
00100000
00010000
00001000
00010000
00000010
00000000
00000110
00000000
,
00000001
00000000
00000000
00000000
00000100
00000010
00000100
00000010
00010000
00000000
00000000
00000000
00001000
01000000
00001000
01000000
,
00010000
00000000
00000000
01000000
00000000
00000000
10000000
00000000
01000000
00000000
00000000
00000000
00001000
00000000
00010000
00000000
,
00000000
00010000
00002000
00000000
00000010
00000010
00000000
00023000
,
00000000
00000000
00100000
00000000
00100000
00000000
00000000
00000000
00031000
00000000
00000000
00010000
00000000
00000000
00001000
00000000
,
00010000
00000000
00000100
00001000
00000100
00000000
00000010
00000001
00000010
00000000
00000001
00001000
00000001
00001000
00000001
00000000
,
00001000
00000100
00001000
00000100
00010000
00000100
00010000
00000000
00001000
00010000
00001000
00010000
00001000
00000000
00000000
00000000
,
00100000
00010000
01000000
00000000
00100000
00000000
10000000
01000000
00100000
00000000
00010000
00000000
00100000
00001000
00010000
00000000
,
00000100
00000000
00001000
00000010
00000100
00000000
00000001
00000000
00000010
00000100
00000010
00000100
00000010
00000000
00000000
00000000
,
00000001
00000100
00000010
00000000
00001000
00000010
00010000
00000000
00001000
00010000
00001000
00000000
00100000
00010000
01000000
00000000
,
00010000
00100000
01000000
00000000
10000000
00100000
01000000
00000000
00010000
10000000
00010000
10000000
00010000
00000000
00000000
00000000
,
10000000
00000000
00100000
01000000
00000000
00100000
01000000
00000000
00100000
00000000
00010000
00001000
00000000
00010000
00001000
00000000
,
00010000
00000000
00000000
00000000
00000000
00000000
00010000
00000000
00000000
00000000
00000000
00000000
00010000
00000000
00000000
00001000
00010000
00001000
00010000
00000000
00000000
00000000
00000000
00000000
,
00001000
00000000
00000010
00000001
00000000
00000001
00000100
00000000
00001000
00010000
00000000
00010000
00001000
00000000
00000000
00000000
,
00010000
00000000
00100000
10000000
00000000
10000000
01000000
00000000
00010000
00000000
00001000
00010000
00000000
00001000
00010000
00000000
,
00001000
00000000
00000100
00001000
00000000
00001000
00010000
00000000
00010000
00100000
00000000
00100000
00010000
00000000
00001000
00000000
,
00010000
00000000
01000000
00010000
00000000
00010000
00001000
00000000
00000010
00000000
00000010
00000000
00000001
00000000
00000001
00000000
,
00002000
00000000
00000000
00000000
,
00000002
00000000
00000000
00003003
,
00000001
00000100
00000001
00000100
00000010
00001000
00000010
00001000
00000100
00001000
00000100
00001000
00000100
00010000
00000100
00010000
,
00001000
00010000
00001000
00010000
00001000
01000000
00001000
01000000
00010000
00000000
00000000
00100000
00000000
00000000
01000000
00000000
,
10000000
01000000
10000000
10000000
00100000
01000000
01000000
00010000
,
00100000
00100000
00001000
00010000
00010000
00000010
00001000
00000100
,
00000010
00000001
00000100
00000100
00000010
00001000
00001000
00000100
,
00010000
00010000
00001000
01000000
01000000
00010000
00100000
01000000
,
00000000
00000000
00000000
00000000
;
