
//----- song ID: doub -----//
#TITLE:DOUBLE TORNARD;
#ARTIST:evo-X;
#BANNER:DOUBLE TORNARD.png;
#BACKGROUND:DOUBLE TORNARD-bg.png;
#CDTITLE:./CDTitles/DDR HOTTEST PARTY.png;
#MUSIC:DOUBLE TORNARD.ogg;
#SAMPLESTART:65.883;
#SAMPLELENGTH:15;
#BPMS:0=153;
#STAGE:3;
#NOTES:
     dance-single:
     :
     Beginner:
     4:
     :
0000
0000
0000
0000
,
0000
0000
0000
0000
,
0000
0000
0000
0000
,
0000
0000
0000
0000
,
0000
0000
0000
0000
,
0000
0000
0000
0000
,
0001
0000
0010
0000
,
0001
0001
0100
0000
,
0010
0000
0000
0000
,
0000
0000
0000
0000
,
1000
0000
0100
0000
,
1000
1000
0010
0000
,
0100
0000
0000
0000
,
0000
0000
0000
0000
,
0001
0000
0010
0000
,
0100
0000
0000
0000
,
0010
0000
0100
0000
,
1000
0000
0000
0000
,
1000
0000
0010
0000
,
0100
0000
0000
0000
,
0010
0000
0100
0000
,
0001
0000
0000
0000
,
0001
0000
0010
0000
,
0100
0000
0010
0000
,
0001
0001
0100
0000
,
0010
0000
0000
0000
,
1000
0000
0010
0000
,
0100
0000
0010
0000
,
1000
1000
0100
0000
,
0010
0000
0000
0000
,
0001
0000
0100
0000
,
0010
0000
0000
0000
,
0100
0000
0010
0000
,
1000
0000
0000
0000
,
1000
0000
0100
0000
,
0010
0000
0000
0000
,
0100
0000
0010
0000
,
0001
0000
0000
0000
,
0001
0000
0010
0000
,
0100
0100
0001
0000
,
0001
0000
0100
0000
,
1000
0000
0000
0000
,
1000
0000
0010
0000
,
0100
0100
1000
0000
,
1000
0000
0100
0000
,
0001
0000
0000
0000
,
0002
0000
0000
0000
,
0003
0000
0000
0000
,
0200
0000
0000
0000
,
0300
0000
0000
0000
,
0020
0000
0000
0000
,
0030
0000
0000
0000
,
2000
0000
0000
0000
,
3000
0000
0000
0000
,
1000
0000
0010
0000
,
1000
0100
1000
0000
,
0010
0000
0000
0000
,
0000
0000
0000
0000
,
0001
0000
0010
0000
,
0001
0100
0001
0000
,
0010
0000
0000
0000
,
0000
0000
0000
0000
,
1000
0000
0100
0000
,
0010
0000
0010
0000
,
0001
0000
0100
0000
,
0001
0000
0000
1001
,
0000
0000
0000
0000
;
#NOTES:
     dance-single:
     :
     Easy:
     7:
     :
0000
0000
0000
0000
,
0000
0000
0000
0000
,
0000
0000
0000
0000
,
0000
0000
0000
0000
,
0000
0000
0000
0000
,
0000
0000
0000
0000
,
0001
0100
0001
0010
,
0001
0100
0010
0010
,
1000
0100
1000
0010
,
1000
0100
0010
0010
,
0001
0100
0010
1000
,
0100
0010
0001
0001
,
1000
0100
0010
0001
,
0100
0010
1000
0000
,
2000
0000
3001
0000
,
1000
0000
0100
0010
0000
0000
0000
0000
,
0002
0000
1003
0000
,
0001
0000
0100
0010
0000
0000
0000
0000
,
1000
1000
0010
0000
,
1000
1000
0100
0000
,
0001
0001
0010
0000
,
0001
0001
0100
0000
,
0001
0010
0001
0000
1000
0000
0010
0000
,
0100
0000
0110
0000
,
1000
0010
1000
0000
0001
0000
0100
0000
,
0010
0000
0110
0000
,
0001
0100
0001
0000
1000
0000
0100
0000
,
0001
0100
1000
0000
,
1000
0100
1000
0000
0001
0000
0100
0000
,
1000
0100
0001
0000
,
0020
0000
0130
0000
,
0100
0010
0100
0010
0000
0000
0000
0000
,
0200
0000
0310
0000
,
0010
0100
0010
0100
0000
0000
0000
0000
,
1000
0000
1100
0000
,
0001
0000
0101
0000
,
1000
0010
1000
0001
,
0010
0001
0010
0000
,
0001
0000
0100
0000
0010
1000
0001
0000
,
1000
0000
0100
0000
0010
0100
0010
0000
,
0001
0000
0100
0000
0010
1000
0100
0000
,
1000
0000
0000
0000
,
1000
0000
0100
0000
0010
0001
1000
0000
,
0001
0000
0100
0000
0010
0100
0010
0000
,
1000
0000
0100
0000
0010
0001
0100
0000
,
0001
0000
0000
0000
,
2000
0000
0000
3000
,
0200
0000
0000
0300
,
0020
0000
0000
0030
,
0002
0000
0000
0003
,
0011
0000
0001
0000
,
0101
0000
0000
0000
,
1010
0000
1000
0000
,
1100
0000
0000
0000
,
0001
0100
1000
0100
,
0001
0000
0010
0000
0100
1000
0100
0000
,
1000
0100
0001
0100
,
1000
0000
1001
0000
,
1000
0010
0001
0010
,
1000
0000
0100
0000
0010
0001
0010
0000
,
0001
0010
1000
0010
,
0001
0000
1001
0000
,
2000
0000
3010
0000
,
1000
0100
0010
0001
1000
0000
0000
0000
,
0002
0000
0013
0000
,
0001
0100
0010
1000
0000
0000
1001
0000
,
0000
0000
0000
0000
;
#NOTES:
     dance-single:
     :
     Medium:
     12:
     :
0000
0000
0000
0000
,
0000
0000
0000
0000
,
0000
0000
0000
0000
,
0000
0000
0000
0000
,
0000
0000
0000
0000
,
0000
0000
0000
0000
,
0002
0000
0100
0000
1000
0000
0103
0010
,
2000
0000
0001
0000
0100
0000
3001
0100
,
0020
0000
1000
0000
0100
0000
1030
0001
,
0200
0000
0010
0000
0001
0000
0310
1000
,
0200
0000
0001
0000
0010
0000
1300
0001
,
0020
0000
1000
0000
0100
0000
0031
1000
,
0002
0000
0010
0000
0100
0000
0013
0100
,
0010
0100
0010
0100
0001
1000
0001
0000
,
0010
0001
1000
0100
1000
0010
0100
0010
,
1000
0001
1000
0100
0000
0000
0000
0000
,
1000
0100
1000
0010
0100
0010
1000
0100
,
1000
0001
0010
0100
0000
0000
0000
0010
,
0001
1000
0001
0100
0001
0010
0100
0010
,
0001
1000
0001
0100
0000
0000
0000
0001
,
1000
0100
1000
0010
0100
0010
1000
0100
,
1000
0001
0010
0100
0110
0000
1001
0000
,
0000
0000
0001
0000
0000
0101
0000
0000
1100
0000
0000
1000
0000
0000
0010
0000
,
0000
1000
0100
0010
0001
0100
0010
1000
,
0000
0000
1000
0000
0000
1100
0000
0000
0101
0000
0000
0001
0000
0000
0010
0000
,
0000
0001
0100
0010
1000
0100
0010
0001
,
0000
0000
0001
0000
0000
0011
0000
0000
1010
0000
0000
1000
0000
0000
0100
0000
,
0000
1000
0010
0100
0001
0010
0100
1000
,
0000
0000
1000
0000
0000
1010
0000
0000
0011
0000
0000
0001
0000
0000
0100
0000
,
0000
0001
0010
0100
1000
0010
0100
0001
,
1000
0010
0100
0010
1000
0001
0010
0100
,
1000
0100
0010
0001
0000
0000
0000
0000
,
1000
0010
0100
0001
0010
0001
0100
0010
,
1000
0001
0010
0001
0000
0000
0000
0001
,
1000
0010
0100
0001
0010
0100
1000
0001
,
0100
0010
1000
0010
0000
0000
0000
1000
,
0100
0010
0100
0010
0001
1000
0010
1000
,
0100
0010
0100
0010
0110
0000
1001
0000
,
1000
0010
0100
0001
1000
0010
0001
0010
,
1000
0010
0100
0001
1000
0100
0010
0000
,
0001
0100
0010
1000
0001
0100
1000
0100
,
0001
0100
0010
1000
0001
0010
0100
0000
,
1000
0100
0010
0001
0100
1000
0100
0001
,
1000
0100
0010
0001
0100
0010
1000
0000
,
0001
0010
0100
1000
0010
0001
0010
1000
,
0001
0010
0100
1000
0010
0100
0001
0000
,
2000
0000
3200
0000
,
0320
0000
0032
0000
,
2003
0000
3200
0000
,
0320
0000
0032
0000
,
1003
0000
1000
0010
0100
0000
0100
0001
,
1000
0000
1000
0100
0010
0000
0110
0000
,
0001
0000
0001
0100
0010
0000
0010
1000
,
0001
0000
0001
0010
0100
0000
0110
0000
,
1000
0100
0001
0100
1000
0100
0001
0100
,
1000
0010
0100
0001
0010
0100
1000
0010
,
0100
0001
0100
1000
0100
0001
0100
1000
,
0100
0001
1000
0010
0100
0001
1000
0000
,
0001
0100
1000
0100
0001
0100
1000
0100
,
0001
0010
0100
1000
0010
0100
0001
0010
,
0100
1000
0100
0001
0100
1000
0100
0001
,
0100
1000
0001
0010
0100
1000
0001
0000
,
1000
0010
0100
1000
0100
0010
1000
0000
,
0001
0010
0100
0000
1000
0100
0010
0000
,
0001
0010
0100
0001
0100
0010
0001
0000
,
1000
0000
0100
0000
0010
0000
0001
0000
0000
1000
0001
0000
1001
0000
0000
0000
,
0000
0000
0000
0000
;
#NOTES:
     dance-single:
     :
     Hard:
     15:
     :
0000
0000
0000
0000
,
0000
0000
0000
0000
,
0000
0000
0000
0000
,
0000
0000
0000
0000
,
0000
0000
0000
0000
,
0000
0000
0000
0000
,
0001
0000
1000
0000
0010
0100
0000
0010
0100
0000
0010
1000
0000
0010
1000
0000
,
0001
0010
1000
0001
0100
1000
0001
0000
,
1000
0000
0001
0000
0010
0100
0000
0010
0100
0000
0010
0001
0000
0010
0001
0000
,
1000
0100
0001
1000
0010
0001
1000
0000
,
0001
0000
0100
0000
0010
1000
0000
0100
0001
0000
0100
0010
0000
0100
1000
0000
,
0010
0100
0001
0100
0010
1000
0001
0000
,
1000
0000
0100
0000
0010
0001
0000
0100
1000
0000
0100
0010
0000
0100
0001
0000
,
1000
0010
1000
0010
0100
0010
0100
0010
0100
0001
0100
0001
1000
0001
1000
0001
,
2000
0000
3200
0000
,
0301
0100
1000
0010
0000
0000
0000
0000
,
0002
0000
0203
0000
,
1300
0100
0001
0010
0000
0000
0000
0000
,
0001
0000
0000
0001
0100
0000
0000
0000
0001
0000
0000
0001
0010
0000
0000
0000
,
1000
0000
0000
1000
0010
0000
0000
0000
1000
0000
0000
1000
0100
0000
0000
0000
,
1000
0000
0000
0100
0010
0000
0000
0000
0001
0000
0000
0100
0010
0000
0000
0000
,
1000
0000
0000
0100
0010
0000
0000
0000
0001
0010
0100
1000
0001
0100
1000
0100
,
0001
0000
0010
0000
0100
1000
0100
1000
0100
0000
0010
0001
0100
0000
0010
0000
,
2000
3020
0230
0302
2003
3200
0320
0032
,
1003
0000
0100
0000
0010
0001
0010
0001
0010
0000
0100
1000
0010
0000
0100
0000
,
0002
0023
0230
2300
3002
0203
0320
2030
,
3001
0000
0100
0000
0010
1000
0100
1000
0010
0000
0100
0001
0010
0000
0100
0000
,
2000
3200
0302
2003
3020
0032
2003
3002
,
1003
0000
0010
0000
0100
0001
0010
0001
0100
0000
0010
1000
0100
0000
0010
0000
,
0001
0010
0001
0010
0100
0010
0100
0010
0100
1000
0100
1000
0001
1000
0001
1000
,
0002
0000
0023
0000
,
1030
0010
0001
0100
0000
0000
0000
0000
,
2000
0000
3020
0000
,
0031
0010
1000
0100
0000
0000
0000
0000
,
1000
0000
0000
1000
0100
0000
0100
0000
1000
0000
0000
1000
0010
0000
0010
0000
,
0100
0000
0000
0100
0001
0000
0001
0000
0010
0000
0000
0010
0001
0000
1000
0000
,
0001
0000
0000
0001
0100
0000
0100
0000
0010
0000
0000
0010
1000
0000
1000
0000
,
0100
0000
0000
0100
1000
0000
1000
0000
0001
1000
0001
1000
0100
0010
0100
0010
,
0001
0000
1000
0000
0001
0100
0001
0100
0001
0000
1000
0100
1000
0100
1000
0000
,
0010
0000
0100
0000
0001
0010
0001
0010
0001
0000
1000
0010
1000
0010
1000
0000
,
0001
0000
0100
0000
0010
0100
0010
0100
0010
0000
1000
0001
1000
0001
1000
0000
,
0100
0000
0010
0000
0001
1000
0001
1000
0001
0000
0100
0010
0100
0010
0100
0000
,
0001
0000
0100
0000
0010
1000
0010
0100
0001
0000
1000
0100
0010
0001
0010
0000
,
0100
0000
1000
0000
0001
0100
0001
1000
0010
0000
1000
0100
1000
0100
0010
0000
,
0001
0000
1000
0000
0010
0100
0010
1000
0100
0000
0010
0001
1000
0001
0100
0000
,
0010
0000
1000
0000
0100
0010
0001
1000
0100
0000
1000
0010
0100
0001
0100
0000
,
0002
0000
0203
0000
,
0320
0000
0000
0000
1030
0100
0001
0100
,
2000
0000
3020
0000
,
0230
0000
0000
0000
0301
1000
0010
0000
,
1000
1000
0001
0001
,
1000
1000
0001
0001
,
1000
0001
1000
0001
1000
0001
1000
0001
0100
0010
0100
0010
0100
0010
0100
0010
,
1000
0010
1000
0010
0100
0001
0100
0001
1000
0001
0010
0100
1000
0001
1000
0000
,
0001
0000
0010
1000
0010
0000
0001
0000
1000
0000
0100
0001
0100
0000
1000
0000
,
0001
0000
0010
0100
1000
0000
0001
0000
0100
0010
0100
0010
0100
0000
0010
0000
,
1000
0000
0010
0001
0010
0000
1000
0000
0001
0000
0100
1000
0100
0000
0001
0000
,
1000
0000
0100
0010
0001
0000
1000
0000
0010
0100
0010
0100
0010
0000
0100
0000
,
0001
0100
0010
1000
0001
0000
0010
0000
0100
1000
0001
0010
0100
0000
1000
0000
,
0001
0010
0100
0000
0100
1000
0001
0000
1000
0100
0001
0100
1000
0000
0001
0000
,
1000
0010
0100
0001
1000
0000
0100
0000
0010
0001
1000
0100
0010
0000
0001
0000
,
1000
0100
1000
0100
0010
0001
0100
0001
0010
0100
0010
0100
1000
0001
1000
0010
,
0100
0000
0001
0010
1000
0000
0010
0000
0001
0000
1000
0010
0001
0000
0010
0000
,
1000
0000
0001
0100
1000
0000
0100
0000
0001
0010
0100
1000
0001
0000
1000
0000
,
0001
0000
1000
0100
0001
0000
0100
0000
1000
0000
0001
0100
1000
0000
0100
0000
,
0001
0010
0100
0000
1000
0010
0100
0000
0000
0001
1000
0000
0001
0000
0000
0000
,
0000
0000
0000
0000
;
#NOTES:
     dance-double:
     :
     Easy:
     7:
     :
00000000
00000000
00000000
00000000
,
00000000
00000000
00000000
00000000
,
00000000
00000000
00000000
00000000
,
00000000
00000000
00000000
00000000
,
00000000
00000000
00000000
00000000
,
00000000
00000000
00000000
00000000
,
00000001
00001000
00000001
00001000
,
00000001
00000100
00000010
00000010
,
00001000
00000100
00001000
00000100
,
00010000
00001000
00010000
00010000
,
00001000
01000000
00001000
01000000
,
00010000
00100000
00010000
00010000
,
10000000
01000000
00100000
00010000
,
00100000
01000000
10000000
00000000
,
20000000
00000000
30010000
00000000
,
10000000
00000000
01000000
00100000
00000000
00000000
00000000
00000000
,
00002000
00000000
00013000
00000000
,
00001000
00000000
00010000
00001000
00000000
00000000
00000000
00000000
,
00010000
00010000
00000100
00000000
,
00010000
00010000
00000010
00000000
,
00001000
00001000
00000100
00000000
,
00001000
00001000
00000001
00000000
,
00000001
00000010
00000001
00000000
00000100
00000000
00000010
00000000
,
00001000
00000000
00001001
00000000
,
00001000
00000100
00001000
00000000
00000100
00000000
00010000
00000000
,
00001000
00000000
00011000
00000000
,
00001000
00010000
00001000
00000000
01000000
00000000
00010000
00000000
,
00100000
00000000
01100000
00000000
,
10000000
01000000
10000000
00000000
00010000
00000000
00100000
00000000
,
00010000
00000000
10010000
00000000
,
20000000
00000000
31000000
00000000
,
00100000
00001000
00100000
00001000
00000000
00000000
00000000
00000000
,
00200000
00000000
00301000
00000000
,
00010000
00001000
00010000
00001000
00000000
00000000
00000000
00000000
,
00010000
00000010
00001000
00000000
,
00000001
00000100
00000001
00000000
,
00001000
00000001
00000010
00000100
,
00001000
00000100
00010000
00000000
,
00001000
00000000
00100000
00000000
00010000
01000000
00010000
00000000
,
00100000
00000000
01000000
00000000
10000000
00100000
10000000
00000000
,
01000000
00000000
00100000
00000000
00001000
00010000
00001000
00000000
,
00010000
00000000
00000000
00000000
,
00010000
00000000
00000010
00000000
00001000
00000100
00001000
00000000
,
00000010
00000000
00000100
00000000
00000001
00000010
00000001
00000000
,
00000100
00000000
00000010
00000000
00010000
00001000
00010000
00000000
,
00001000
00000000
00000000
00000000
,
00010000
00000010
00001000
00000000
,
00000010
00000100
00000001
00000000
,
00000100
00000010
00001000
00000000
,
00000100
00010000
00001000
00000000
,
00010000
00001000
00010000
00001000
,
00100000
00010000
00100000
00000000
,
00010000
10000000
00010000
10000000
,
01000000
00100000
01000000
00000000
,
10000000
01000000
00010000
00001000
,
00000010
00000000
00000001
00000000
00000010
00000100
00000010
00000000
,
00000001
00001000
00000010
00000100
,
00000001
00000000
00001001
00000000
,
00000001
00000100
00001000
00010000
,
00100000
00000000
10000000
00000000
00100000
01000000
00100000
00000000
,
10000000
00010000
00100000
01000000
,
10000000
00000000
10010000
00000000
,
20000000
00000000
31000000
00000000
,
00200000
00010000
00301000
00000000
,
00002000
00000000
00013000
00000000
,
00010000
00001000
00010000
00001000
00000000
00000000
00011000
00000000
,
00000000
00000000
00000000
00000000
;
#NOTES:
     dance-double:
     :
     Medium:
     12:
     :
00000000
00000000
00000000
00000000
,
00000000
00000000
00000000
00000000
,
00000000
00000000
00000000
00000000
,
00000000
00000000
00000000
00000000
,
00000000
00000000
00000000
00000000
,
00000000
00000000
00000000
00000000
,
00000002
00000000
00002003
00000000
00003002
00000000
00000103
00000010
,
00002000
00000000
00003200
00000000
00020300
00000000
00031000
00100000
,
00020000
00000000
00230000
00000000
02300000
00000000
13000000
00100000
,
02000000
00000000
03020000
00000000
20030000
00000000
31000000
00100000
,
00020000
00000000
00230000
00000000
00302000
00000000
00013000
00000100
,
00002000
00000000
00003020
00000000
00002030
00000000
00003100
00000010
,
00000002
00000000
00000203
00000000
00000320
00000000
00001030
00000100
,
00010000
00001000
00010000
00001000
00100000
00010000
00100000
00010000
,
01000000
00000000
00100000
10000000
00100000
00000000
01000000
00010000
,
01000000
00000000
00010000
00100000
00000000
00000000
00000000
00000000
,
00010000
00000000
00100000
00001000
00100000
00000000
00001000
00010000
,
00001000
00000000
00010000
00000100
00000000
00000000
00000000
00000100
,
00001000
00000010
00000100
00000010
00001000
00000100
00000010
00000001
,
00000100
00000010
00001000
00000010
00000000
00000000
00000000
00000010
,
00010000
00001000
01000000
00001000
00010000
00001000
00100000
00010000
,
01000000
00100000
10000000
00100000
01100000
00000000
10010000
00000000
,
00000000
00000000
10000000
00000000
00000000
10000000
00000000
00000000
01000000
00000000
00000000
01000000
00000000
00000000
00100000
00000000
,
00000000
00100000
00010000
01000000
00100000
00010000
00001000
00000100
,
00000000
00000000
00000001
00000000
00000000
00000001
00000000
00000000
00000010
00000000
00000000
00000010
00000000
00000000
00000100
00000000
,
00000000
00000100
00001000
00000010
00000100
00001000
00010000
00100000
,
00000000
00000000
10000000
00000000
00000000
01000000
00000000
00000000
00010000
00000000
00000000
01000000
00000000
00000000
10000000
00000000
,
00000000
10000000
00100000
00010000
00001000
00000010
00000001
00001000
,
00000000
00000000
00000001
00000000
00000000
00000100
00000000
00000000
00001000
00000000
00000000
00000100
00000000
00000000
00000001
00000000
,
00000000
00000001
00000010
00001000
00010000
00100000
10000000
00000000
,
00010000
00100000
01000000
10000000
00010000
01000000
00001000
00010000
,
00000010
00000100
00001000
00010000
00000000
00000000
00000000
00000000
,
00001000
00010000
00001000
00000010
00000001
00001000
00000100
00000010
,
00000001
00000100
00000010
00001000
00000000
00000000
00000000
00001000
,
00000010
00010000
00001000
00010000
01000000
00100000
00010000
01000000
,
00100000
00010000
00100000
10000000
00000000
00000000
00000000
10000000
,
01000000
00100000
01000000
00100000
00001000
00010000
00001000
00010000
,
00000010
00000100
00000010
00000100
00000010
00000000
00001001
00000000
,
00000001
00000010
00000100
00001000
00000010
00000100
00001000
00010000
,
00100000
01000000
00100000
00010000
00001000
00000100
00000010
00001000
,
00000100
00010000
00001000
00100000
00001000
00010000
00000010
00010000
,
00001000
01000000
00001000
00010000
00001000
00000000
00011000
00000000
,
00010000
00001000
00100000
00010000
01000000
00100000
10000000
01000000
,
00100000
00010000
01000000
00100000
00010000
00001000
00000100
00000010
,
00000100
00001000
00010000
00100000
01000000
00010000
00100000
00001000
,
00010000
00000010
00010000
00001000
01000000
00010000
10000000
00000000
,
00020000
00000000
20030000
00000000
,
32000000
00000000
03200000
00000000
,
00320000
00000000
00032000
00000000
,
00003200
00000000
00000320
00000000
,
00000031
00000000
00000001
00000100
00000010
00000000
00000010
00010000
,
00001000
00000000
00001000
00100000
00010000
10000000
00010000
00000000
,
10000000
00000000
10000000
01000000
00100000
00000000
00100000
00001000
,
00010000
00000000
00010000
00000100
00001000
00000001
00001000
00000000
,
00000001
00000010
00000100
00001000
00000010
00000100
00001000
00010000
,
00100000
01000000
00100000
10000000
00010000
00100000
01000000
10000000
,
01000000
00010000
01000000
00100000
00001000
00010000
00000100
00010000
,
00001000
01000000
00010000
00100000
01000000
10000000
00010000
00000000
,
10000000
00100000
01000000
00010000
00100000
01000000
00010000
00001000
,
00000010
00000100
00000010
00000001
00001000
00000010
00000100
00000001
,
00000100
00001000
00000100
00000010
00010000
00001000
01000000
00001000
,
00010000
00000100
00001000
00000010
00000100
00000001
00001000
00000000
,
00000001
00000000
00000001
00000100
00001000
00000000
00001000
00010000
,
00100000
00000000
00100000
10000000
01000000
00010000
01000000
00000000
,
10000000
00000000
10000000
01000000
00010000
00000000
00010000
00001000
,
00000010
00000001
00001000
00000001
00000000
00001000
00001001
00000000
,
00000000
00000000
00000000
00000000
;
#NOTES:
     dance-double:
     :
     Hard:
     15:
     :
00000000
00000000
00000000
00000000
,
00000000
00000000
00000000
00000000
,
00000000
00000000
00000000
00000000
,
00000000
00000000
00000000
00000000
,
00000000
00000000
00000000
00000000
,
00000000
00000000
00000000
00000000
,
00001000
00000000
00000001
00000000
00000010
00000100
00000000
00000010
00000100
00000000
00010000
00000100
00000000
00010000
00000100
00000000
,
00010000
00001000
00000100
00001000
00010000
00001000
00000100
00001000
,
00010000
00000000
00001000
00000000
00010000
00100000
00000000
00010000
00100000
00000000
01000000
00100000
00000000
01000000
00100000
00000000
,
10000000
01000000
00001000
01000000
10000000
01000000
00001000
01000000
,
10000000
00000000
00100000
00000000
01000000
00010000
00000000
01000000
00010000
00000000
00100000
00001000
00000000
00100000
00001000
00000000
,
00010000
00001000
00000010
00001000
00010000
00001000
00000010
00001000
,
00010000
00000000
00000100
00000000
00000010
00000001
00000000
00000010
00000001
00000000
00001000
00000100
00000000
00001000
00000100
00000000
,
00001000
00000010
00001000
00000010
00001000
00000100
00001000
00000100
00010000
00001000
00010000
00001000
00100000
00010000
00100000
00010000
,
00200000
00000000
02300000
00000000
,
13000000
01000000
00010000
00001000
00000000
00000000
00000000
00000000
,
00000002
00000000
00000023
00000000
,
00000031
00000100
00001000
00010000
00000000
00000000
00000000
00000000
,
10000000
00000000
00000000
10000000
00010000
00000000
00000000
00000000
10000000
00000000
00000000
10000000
00010000
00000000
00000000
00000000
,
00010000
00000000
00000000
00010000
00001000
00000000
00000000
00000000
00010000
00000000
00000000
00010000
00001000
00000000
00000000
00000000
,
00001000
00000000
00000000
00001000
00000001
00000000
00000000
00000000
00001000
00000000
00000000
00001000
00000001
00000000
00000000
00000000
,
00000001
00000000
00000000
00000001
00001000
00000000
00000000
00000000
00000001
00000010
00000100
00010000
00001000
00100000
01000000
10000000
,
00010000
00000000
10000000
00000000
00100000
01000000
00100000
01000000
00100000
00000000
10000000
00010000
10000000
00000000
01000000
00000000
,
00200000
00302000
00023000
00030200
00002300
00003020
00020030
00032000
,
01003000
00000000
00100000
00000000
00010000
00001000
00010000
00001000
00010000
00000000
00001000
00000010
00001000
00000000
00000010
00000000
,
00000002
00000203
00000320
00002030
00023000
02030000
03200000
20300000
,
30010000
00000000
10000000
00000000
01000000
00100000
00010000
00100000
01000000
00000000
10000000
00100000
01000000
00000000
00010000
00000000
,
00200000
00302000
00023000
00030020
00002030
00003200
00020300
02030000
,
13000000
00000000
00100000
00000000
01000000
00001000
00010000
00001000
00010000
00000000
00000100
00001000
00000100
00000000
00000010
00000000
,
00000001
00000100
00000001
00000100
00000010
00010000
00000010
00010000
00001000
00100000
00001000
00100000
00010000
01000000
00010000
01000000
,
00200000
00000000
02300000
00000000
,
03100000
00010000
00001000
00000100
00000000
00000000
00000000
00000000
,
00000002
00000000
00000023
00000000
,
00001030
00010000
01000000
10000000
00000000
00000000
00000000
00000000
,
10000000
00000000
00000000
10000000
01000000
00000000
01000000
00000000
00100000
00000000
00000000
00100000
00010000
00000000
00010000
00000000
,
00001000
00000000
00000000
00001000
00000100
00000000
00000100
00000000
00000010
00000000
00000000
00000010
00000001
00000000
00000001
00000000
,
00001000
00000000
00000000
00001000
00000001
00000000
00000001
00000000
00000100
00000000
00000000
00000100
00000010
00000000
00000010
00000000
,
00010000
00000000
00000000
00010000
00001000
00000000
00001000
00000000
01000000
00100000
01000000
00100000
10000000
00010000
10000000
00010000
,
10000000
00000000
01000000
00000000
00100000
00001000
00100000
00001000
00100000
00000000
00001000
00010000
00001000
00010000
00001000
00000000
,
00010000
00000000
00000010
00000000
00000100
00000001
00000100
00000001
00000100
00000000
00000010
00001000
00000010
00001000
00000010
00000000
,
00010000
00000000
00100000
00000000
01000000
00100000
01000000
00100000
01000000
00000000
00010000
10000000
00010000
10000000
00010000
00000000
,
00100000
00000000
01000000
00000000
10000000
00010000
10000000
00010000
10000000
00000000
00010000
00100000
00010000
00100000
00010000
00000000
,
00100000
00000000
00001000
00000000
00000010
00000100
00000010
00000100
00001000
00000000
00000001
00000100
00000001
00000100
00000010
00000000
,
00010000
00000000
00001000
00000000
01000000
00010000
01000000
00010000
00100000
00000000
01000000
10000000
01000000
10000000
00010000
00000000
,
00100000
00000000
01000000
00000000
00010000
00001000
00010000
00001000
00010000
00000000
00000100
00000010
00000100
00000010
00000100
00000000
,
00000010
00000000
00000001
00000000
00001000
00000100
00001000
00000100
00010000
00000000
00001000
00010000
00001000
00100000
00010000
00000000
,
20000000
00000000
32000000
00000000
,
03020000
00000000
00000000
00000000
00031000
00000010
00000001
00001000
,
00000002
00000000
00000203
00000000
,
00002300
00000000
00000000
00000000
00013000
00100000
10000000
00000000
,
01000000
10000000
00100000
01000000
00010000
00100000
00001000
00000000
,
00010000
00000100
00001000
00000010
00000100
00000001
00000010
00000000
,
00000001
00000100
00000001
00000000
00000010
00000100
00001000
00000000
00000010
00010000
00000010
00000000
00010000
00001000
00010000
00000000
,
00001000
00100000
00001000
00100000
00010000
01000000
00010000
01000000
00100000
10000000
00100000
10000000
00010000
10000000
00010000
00000000
,
10000000
01000000
00010000
00001000
01000000
00100000
00010000
00001000
,
00000100
00000010
00001000
00000010
00000100
00000000
00000001
00000000
00000010
00000000
00001000
00000000
00000010
00000000
00000001
00000000
,
00000100
00001000
00010000
00100000
01000000
00001000
00010000
01000000
,
10000000
00100000
01000000
00100000
10000000
00000000
01000000
00000000
00010000
00000000
00001000
00000000
00100000
00000000
00001000
00000000
,
00010000
00000100
00001000
00000100
00001000
00000000
00000010
00000000
00000100
00000001
00001000
00000001
00000010
00000000
00000100
00000000
,
00001000
00000010
00000100
00000000
00001000
00010000
00001000
00000000
00100000
00010000
01000000
00010000
00100000
00000000
01000000
00000000
,
10000000
00100000
01000000
00010000
10000000
00000000
01000000
00000000
00100000
00001000
00100000
00001000
00010000
00000000
00000100
00000000
,
00001000
00000010
00001000
00000010
00000100
00000001
00000100
00000001
00001000
00000010
00001000
00000100
00010000
00001000
00100000
00010000
,
00100000
01000000
10000000
00100000
00010000
00001000
00000100
00000001
,
00000010
00001000
00010000
00001000
00000100
00001000
00010000
00100000
,
10000000
00000000
00010000
00100000
01000000
00000000
00010000
00000000
00001000
00000000
00000010
00000100
00001000
00000000
00000001
00000000
,
00000100
00000000
00001000
00000000
00010000
00000000
00100000
00000000
00000000
10000000
00010000
00000000
10000000
00000000
00000000
00000000
,
00000000
00000000
00000000
00000000
;
