
//----- song ID: diab -----//
#TITLE:DIABLOSIS∷Nāga;
#ARTIST:sky_delta;
#BANNER:DIABLOSIS Naga.png;
#BACKGROUND:DIABLOSIS Naga-bg.png;
#CDTITLE:./CDTitles/SDVX III GRAVITY WARS.png;
#MUSIC:DIABLOSIS Naga.ogg;
#SAMPLESTART:78.901;
#SAMPLELENGTH:15;
#BPMS:0=200;
#STAGE:29;
#NOTES:
     dance-single:
     :
     Beginner:
     3:
     :
0000
0000
0000
0000
,
0000
0000
0000
0000
,
0000
0000
0000
0000
,
0000
0000
0000
0000
,
0000
0000
0000
0000
,
0000
0000
0000
0000
,
0000
0000
0000
0000
,
0000
0000
0001
0000
,
0000
0000
0000
0000
,
1000
0000
0000
0000
,
0000
0000
0100
0000
,
0000
0000
0000
0000
,
0010
0000
0000
0000
,
0000
0000
0000
0000
,
0000
0001
0000
0000
,
0000
0000
0000
0001
,
0000
0000
0000
0000
,
0000
1000
0000
0000
,
0000
0000
0000
1000
,
0000
0000
0000
0000
,
0000
0100
0000
0000
,
0100
0000
0000
0010
,
0000
0000
0010
0000
,
0000
0001
0000
0000
,
0001
0000
0000
1000
,
0000
0000
1000
0000
,
0000
0001
0000
0000
,
0001
0000
0000
0100
,
0000
0000
0100
0000
,
0000
0010
0000
0000
,
0010
0000
0000
1000
,
0000
0000
1000
0000
,
0000
0001
0000
0000
,
0001
0000
0000
0010
,
0000
0000
0010
0000
,
0000
0100
0000
0000
,
0100
0000
0000
1000
,
0000
0000
1000
0000
,
0000
1001
0000
0000
,
0000
0000
0000
0000
,
0000
1001
0000
0000
,
0000
0000
0000
0000
,
0000
1001
0000
0000
,
0000
0000
0000
0000
,
0000
1001
0000
0000
,
0000
0000
0000
0000
,
0000
0001
0000
0000
,
0010
0000
0000
0001
,
0000
0000
0010
0000
,
0000
0100
0000
0000
,
1000
0000
0000
0100
,
0000
0000
1000
0000
,
0000
1001
0000
0000
,
0000
0000
0000
0001
,
0000
0000
0000
0000
,
0000
0100
0000
0000
,
0000
0000
0000
0010
,
0000
0000
0000
0000
,
0000
0010
0000
0000
,
0000
0000
0000
1000
,
0000
0000
0000
0000
,
0000
0001
0000
0000
,
0000
0000
0000
0010
,
0000
0000
0000
0000
,
0000
0100
0000
0000
,
0000
0000
0000
1000
,
0000
1000
0000
2000
,
0000
3000
0000
0001
,
0000
0001
0000
0002
,
0000
0003
0000
0000
,
0000
1000
0000
0002
,
0000
0003
0000
1000
,
0000
0000
0000
1000
,
0000
0000
0000
0001
,
0000
0000
0000
0001
,
0000
0000
0010
0000
,
0000
0100
0000
0000
,
1000
0000
0000
0001
,
0000
0000
0000
0001
,
0000
1000
0000
0000
,
0000
1000
0000
0010
,
0000
0000
0000
0010
,
0000
0100
0000
0000
,
0000
0001
0000
0001
,
0000
0000
0010
0000
,
0000
0100
0000
0000
,
1000
0000
0000
0010
,
0000
0000
0010
0000
,
0000
0100
0000
0000
,
0100
0000
0000
0100
,
0000
0000
0000
0000
,
0000
1001
0000
0000
,
0000
0000
0000
0000
;
#NOTES:
     dance-single:
     :
     Easy:
     11:
     :
0000
0000
0000
0000
,
0000
0000
0000
0000
,
0000
0000
0000
0000
,
0000
0000
0000
0000
,
0000
0000
0000
0000
,
0000
0000
0000
0000
,
0000
0000
0000
0000
,
0000
0000
2000
0000
,
0000
0000
0000
0000
,
3020
0000
0000
0000
,
0000
0000
0230
0000
,
0000
0000
0000
0000
,
0302
0000
0000
0000
,
0000
0000
0003
0000
,
0000
0000
1000
0000
0000
0010
0000
0000
,
0100
0001
0100
0001
,
0000
0010
0000
0000
0100
0000
1000
0000
,
0100
0000
1000
0000
0000
0010
0000
0000
,
0100
0001
1000
0010
,
0000
0100
0000
0000
0001
0000
0010
0000
,
0100
0000
1000
0000
0001
0000
0010
0100
,
0000
0100
0010
0000
0001
1000
0001
0000
,
1000
0000
0010
0100
0000
0100
0010
0000
,
1000
0001
1000
0000
0001
0000
0010
0100
,
0000
0100
0010
0000
0001
1000
0001
0000
,
0010
0000
0100
1000
0100
0000
0010
0000
,
0001
0000
1000
0000
0100
0000
0010
0001
,
0000
0001
0010
0000
0001
1000
0001
0000
,
0100
0000
0010
1000
0000
2000
0000
0000
,
3002
0000
1003
0000
0010
0000
0100
0001
,
0000
0001
0100
0000
0001
1000
0001
0000
,
0010
1000
0010
0001
,
1000
0000
0001
0000
0100
0000
0010
1000
,
0000
1000
0001
0000
0010
0001
0010
0000
,
0100
0000
1000
0100
0000
0200
0000
0000
,
0320
0000
0031
0000
0010
0000
0100
1000
,
0000
1000
0010
0000
0200
0000
0302
0000
,
0000
0000
2003
0000
,
0000
0000
3002
0000
0000
0023
0000
0000
,
0230
0000
0000
0000
0000
0000
1300
0001
,
2000
0000
3002
0000
0000
0203
0000
0000
,
0320
0000
0000
0000
0000
0000
1030
0001
,
2000
0000
3200
0000
0000
0320
0000
0000
,
0230
0000
0000
2300
,
3020
0000
0230
0000
0000
0302
0000
0000
,
0023
0000
0000
0230
0000
0000
2300
0000
,
3020
0000
0130
0000
0100
0010
0100
0010
,
0100
0100
0100
0001
,
0001
1000
0001
1000
0001
0000
0001
0000
,
0001
1000
0100
1000
0100
1000
0100
1000
,
0001
0100
0001
0100
0001
0100
0020
0000
,
0000
0000
0230
0000
,
0000
0301
0000
0000
,
0000
0000
0000
1000
,
1000
0000
0000
0000
0000
0000
0000
0001
,
0000
0001
0000
0000
,
0000
0000
0000
0000
0000
0000
1000
1000
,
0000
0010
0010
0000
0100
0100
0000
0002
,
0000
1003
0100
0010
,
0001
0000
0100
0000
0010
1000
0010
0000
,
0100
0001
0010
0100
,
1000
0100
1000
0001
1000
0001
1000
0000
,
0010
0100
0010
0100
0010
0000
1000
0001
,
0000
0100
0010
0000
1000
0100
0000
0020
,
0000
0031
0200
0000
0000
0000
0000
0000
,
0000
0000
0000
0301
,
1000
0000
0100
1000
0010
0000
0100
0000
,
0001
0000
0010
0100
0010
0100
1000
0000
,
0001
0000
1000
0000
0010
0100
0002
0000
,
0000
0000
1003
0100
0010
0000
0001
0010
,
0100
0000
1000
1000
0000
0001
0001
0000
,
0100
0010
0100
0010
0100
0000
0001
0000
,
1000
0000
0100
0010
0100
0000
1000
0000
,
0001
0000
0100
0010
0100
0010
1000
0000
,
0001
0000
0000
0001
0000
0000
0001
0000
,
0010
0000
0100
1000
0100
0000
0010
0000
,
0100
0000
0010
0001
0010
0001
1000
0000
,
0010
0100
0010
0100
0002
0000
1003
0000
,
0100
0000
0010
0001
0000
0001
0010
0000
,
0100
1000
0100
0000
1000
0000
0001
0100
,
0000
0100
0001
0000
1000
0010
1000
0000
,
0001
0000
0100
0010
0000
0010
1000
0000
,
0001
1000
0100
0000
0010
0000
0001
0010
,
0000
0010
0100
0000
2000
0000
3100
0010
,
0001
0010
0001
0000
1000
0000
1000
0000
,
1000
0000
1000
0010
1000
0010
0100
0000
,
0100
0000
0100
0000
0100
0000
0100
0010
,
1000
1010
0010
0010
,
0010
0000
0010
0100
0001
0000
0101
0000
,
0001
1000
0100
0000
1001
0000
2000
0000
,
0000
0000
3020
0000
,
0000
0000
0130
0000
0000
0002
0000
0000
,
0000
0000
0000
0000
,
0003
0000
0000
0000
,
0000
0000
0000
0000
;
#NOTES:
     dance-single:
     :
     Medium:
     15:
     :
0000
0000
0000
0000
,
0000
0000
0000
0000
,
0000
0000
0000
0000
,
0000
0000
0000
0000
,
0000
0000
0000
0000
,
0000
0000
0000
0000
,
0000
0000
0000
0000
,
0000
0000
0002
0000
,
0000
0203
0000
0000
,
0320
0000
0000
2030
,
0000
0000
3200
0000
,
0000
0320
0000
0000
,
0032
0000
0000
2003
,
0000
0000
3000
0000
,
0000
0000
0001
0000
0001
0100
0001
0100
,
0010
1000
0010
1000
,
1000
0100
1000
0100
0010
0000
0001
0000
,
0100
0000
0010
1000
0001
0020
0000
0130
,
1000
0100
1000
0100
0010
0001
0100
0010
,
0100
0002
0000
0013
0100
1000
0100
1000
,
0010
0100
0001
0000
1001
0000
1000
0100
,
0000
0001
0100
0000
1000
0100
0010
0000
,
0110
0000
0100
1000
0000
0001
0100
0000
,
1000
0100
0001
0000
1001
0000
1000
0010
,
0000
0001
0010
0000
1000
0010
0100
0100
,
0001
0010
0010
0100
1000
1000
0000
0002
,
0000
0000
0103
0000
1010
0000
1000
0100
,
0000
0001
0100
0000
1000
0100
0001
0000
,
0110
0000
0001
0100
0000
0020
0000
0130
,
0001
1000
0100
0000
1001
0000
0001
0010
,
0000
1000
0010
0000
0001
0010
1000
0010
,
0001
0100
1000
0100
0002
0000
0023
0000
,
0130
0000
1000
0000
0101
0000
0001
0010
,
0000
1000
0010
0001
1000
0100
0001
0000
,
0110
0000
0000
0000
0010
0000
0001
0000
0000
0000
2000
0000
0000
0000
3010
0100
,
0010
0100
0001
0001
0001
1000
1000
1000
,
0010
0010
0010
0100
0100
0100
0002
0000
,
0000
2003
0000
0000
3200
0000
0000
0320
,
0000
0000
0032
0000
1003
0100
0002
0000
,
0103
0010
0000
0010
2000
0000
3001
0100
,
2000
0000
3002
0000
1003
0010
0002
0000
,
0013
0100
0000
0100
2000
0000
3001
0010
,
2000
0000
3002
0000
1003
0100
0002
0000
,
1003
0010
0000
0010
0002
0000
1003
0100
,
0002
0000
0203
0000
1300
0010
0002
0000
,
0013
1000
0100
0001
0100
1000
0010
0001
,
0010
1000
0100
0000
0100
0010
0001
0010
,
0011
0101
0011
0101
,
0100
0010
1000
0010
1010
0000
1100
0000
,
1010
0000
1100
0100
0010
0001
0010
0001
,
0011
0010
0100
1000
0010
0100
0010
0010
,
1000
0100
0001
0100
0010
0010
0001
0100
,
1000
0100
0110
0000
0000
0000
0000
0000
,
0000
0000
0000
0101
,
1100
0000
0000
0000
0000
0000
0000
0011
,
0000
0000
1001
0000
1000
0000
0010
0100
,
0000
0001
0010
0000
1000
0010
0001
0001
,
0100
1000
1000
0100
0001
0001
0000
0020
,
0000
0000
0130
0000
1100
0000
1000
0010
,
0000
0001
0010
0000
1000
0100
0110
0000
,
0011
0000
0001
0100
0000
1000
0100
0000
,
0001
0010
0110
0100
1000
0100
1000
0010
,
0110
0000
0100
0000
0001
0000
0100
0000
0001
0000
0010
0000
0100
1000
0100
0000
,
1000
0000
0100
0000
0010
0000
0100
0000
0010
0001
0010
0000
0001
0000
2000
0000
,
0000
3020
0000
0000
,
0000
0000
0000
0000
0000
0000
1030
0100
,
1000
0000
0010
0000
1000
0000
0100
0000
0001
0000
0100
0000
0010
0000
0001
1000
,
0000
1000
0010
0000
0200
0000
0302
0000
0023
0000
0230
0000
1300
0000
0010
0000
,
0100
0000
0001
0000
0010
0000
0100
0000
0010
0000
1000
0000
0010
0000
0001
1000
,
0000
1000
0010
0000
0100
0000
0010
0000
1000
0000
0100
0000
0001
0000
0100
0000
,
1000
0010
0001
1000
0100
1000
0001
0010
,
2002
0000
0000
0000
3003
0000
0001
0010
,
0001
0000
0100
0000
0001
0000
0010
0000
1000
0000
0010
0000
0100
0000
1000
0001
,
0000
0001
0100
0000
0020
0000
2030
0000
3200
0000
0320
0000
0031
0000
0100
0000
,
0010
0000
1000
0100
0000
1000
0010
0000
0100
0000
0001
0000
0100
0000
0010
0000
,
0100
0000
1000
0000
0100
0000
1000
0000
0100
0000
0010
0100
0000
0100
0001
0000
,
1000
0100
1000
0100
0001
0100
1000
0100
,
0010
0010
0001
0001
0200
0000
0310
0000
,
1001
0000
0001
0100
0000
1000
0100
0000
,
0001
0100
0010
0000
0110
0000
0100
0001
,
0000
1000
0100
0000
0001
0100
1000
0000
,
1001
0000
0001
0010
0000
1000
0010
0000
,
0001
0010
1000
0000
0101
0000
0001
0010
,
0000
1000
0010
0001
1000
0100
0001
0100
,
1000
0100
0001
0100
0110
0010
0011
0000
,
1001
0000
1000
0010
0001
0010
1000
0010
,
0110
0000
0100
0000
0101
0000
0000
0000
1001
0000
0000
0000
0001
0100
0010
0000
,
1000
0000
0010
0000
0100
0000
0001
0000
1000
0100
0010
0000
0001
0000
0010
0000
,
0100
0000
1000
0000
0001
1000
0010
0000
0100
0000
0001
0000
0100
0000
0010
0000
,
1000
0001
1000
0001
1000
0000
0010
0000
0100
0000
0010
0000
1000
0000
0100
0000
,
0001
1000
0010
0001
1000
0010
0001
1000
,
0100
0001
0110
0000
0000
2002
0000
0000
,
0000
0000
0000
0000
,
3003
0000
0000
0000
,
0000
0000
0000
0000
;
#NOTES:
     dance-single:
     :
     Hard:
     17:
     :
0000
0000
0000
0000
,
0000
0000
0000
0000
,
0000
0000
0000
0000
,
0000
0000
0000
0000
,
0000
0000
0000
0000
,
0000
0000
0000
0000
,
0000
0000
0000
0000
,
0000
0000
2010
0000
,
3001
0021
0000
0130
,
1200
0000
0310
0012
,
0000
0103
0210
0000
,
0301
2001
0000
3100
,
0210
0000
0301
0201
,
0000
1300
0000
0000
,
0000
0000
0001
0010
0001
0100
0001
0010
,
1000
0010
0001
0010
1000
0010
0001
0100
,
0001
0010
0001
0100
1000
0100
0001
0100
,
1000
0000
0100
0000
0001
0000
0010
0000
0100
1000
0100
0000
1000
0000
0100
0000
,
0010
0100
0010
0000
0100
0010
0100
0000
0010
0100
0010
0000
0001
0000
0100
0000
,
0010
1000
0010
0000
1000
0000
0010
0000
0100
0010
1000
0000
0001
0000
0100
0001
,
1000
0000
0010
0100
0001
0010
0100
0100
,
1000
0000
0010
0000
0010
0000
0100
0000
0001
0010
0100
0000
0010
0000
0100
0000
,
1000
0010
0100
0100
0001
0010
0010
0100
,
1000
0100
1000
0001
0010
0000
0100
0000
1000
0000
0010
0000
0100
0000
0001
0000
,
0101
0100
0010
1000
0100
0010
0001
0010
,
0100
0000
0010
0100
0010
0100
1000
0000
0100
0000
0001
0000
0100
0000
2002
0000
,
0000
3003
1010
1000
0001
0010
0100
0100
,
1000
0000
0010
0000
0010
0000
0100
0000
0001
0010
0100
0000
0010
0000
0100
0000
,
1000
0000
0010
0000
0100
0000
0100
0000
0001
0000
0020
0000
0000
0000
0130
1000
,
0100
0010
0011
0100
1000
0010
0100
0100
,
0001
0000
0010
0000
0010
0000
0100
0000
1000
0100
1000
0000
0001
0000
0100
0000
,
1000
0000
0100
0000
0001
0000
0010
0000
0200
0000
1300
0010
0200
0000
0301
0010
,
0200
0300
1000
0001
1100
0100
0010
0010
,
0001
0000
0100
0000
0100
0000
0010
0000
1000
0100
0010
0000
0100
0000
0010
0000
,
0011
0000
0001
0000
0100
0000
0100
0000
0010
0000
0200
0000
0000
0000
0310
1000
,
0001
0000
0010
0000
0100
0000
0100
0000
0100
0000
0100
1000
0100
0000
0100
0000
,
0010
0000
0010
0000
0010
0000
0010
0001
0010
0000
0010
0000
0200
0000
2300
0000
,
3020
0230
0302
0023
2030
3002
0203
0320
,
0032
2003
3020
0000
0030
0202
0000
0303
,
2200
0000
0000
0000
0000
3300
0002
0023
,
0032
0000
0203
0000
0300
2020
0000
3030
,
0022
0000
0033
0202
0000
0303
2020
3030
,
0220
0330
2002
0000
3003
2200
0000
3300
,
0220
0000
0000
0000
0000
0330
0022
0033
,
2020
3030
2002
0000
3003
0202
0000
0303
,
2020
0000
3030
0220
0000
0330
0022
0033
,
2200
3300
1001
0000
0001
0100
1000
0100
,
0101
0001
0011
0010
0110
0000
1001
0000
,
1000
0100
0001
0100
1100
1000
1010
0010
,
0110
0100
0001
0100
0010
0100
1000
0100
,
0001
0000
0010
0000
0100
0000
0010
0000
1000
0000
0010
0000
0100
0010
0100
0000
,
1000
0000
0100
0000
0010
0000
0001
0000
0100
0010
0100
0010
0100
0010
0100
0010
,
0100
0001
0010
0000
0100
0000
1000
0100
,
0000
0001
0100
0000
1000
0100
0011
0000
,
1010
0000
1000
0010
0000
0001
0010
2000
,
0000
0000
3001
0100
0001
0000
0000
0000
0100
0000
0000
0000
1000
0000
0100
0000
,
0101
0001
0010
0000
0100
1000
1100
1100
,
0000
0101
0101
0000
1010
1010
0000
0210
,
0000
0000
0301
0010
1000
0010
0001
0001
,
0100
1000
1000
0100
0001
0001
1000
0010
,
0001
0010
1000
1000
0100
0001
0001
0100
,
1000
0000
1000
0000
0010
0100
0001
0000
0100
0000
0010
0000
1000
0000
0100
0000
,
0010
0100
1000
0000
0010
0000
0100
0000
0001
0000
0010
0000
0100
0000
1000
0000
,
0100
0000
0010
0001
0010
0100
1000
0100
0010
0000
0001
0000
0100
0000
0020
0000
,
0000
0230
0000
0000
,
0000
0000
0000
0000
0000
0000
0310
0000
1000
0000
0001
0000
0010
0000
1000
0000
0010
0000
0001
0000
0000
0100
0000
0000
,
0010
0000
0100
0000
1000
0000
0100
0000
0001
0000
0010
0000
0200
0000
1300
0001
,
0010
0100
1000
0000
0001
0100
0001
0100
0010
0100
0010
0000
1000
0000
0010
0000
,
1000
0000
0100
0000
0020
0000
0031
1000
0100
0010
0001
1000
0001
0000
0010
0001
,
0000
1000
0010
0000
0100
0000
0001
0000
0100
0000
1000
0000
0001
0000
0010
0000
,
1000
0000
0100
0000
0020
0000
0031
0100
0001
0000
0020
0000
0031
0100
0001
0000
,
1000
0100
1000
0100
1000
0100
1000
0100
1000
0000
0001
0000
1000
0000
0100
0000
,
0010
0000
0100
0000
0001
0000
0100
0000
1000
0000
0010
0000
0200
0000
0301
1000
,
0010
0100
0001
0000
1000
0100
1000
0100
0010
0100
0010
0000
0001
0000
0010
0000
,
0100
0000
1000
0010
0000
1000
0010
0000
0100
0000
0010
0000
1000
0000
0100
0010
,
0002
0000
0013
0100
1000
0001
0010
0100
1000
0000
0010
1000
0000
0001
0010
0000
,
0001
0010
0200
1000
1000
1000
1000
1300
,
0001
0010
0001
1000
0010
0100
0001
0100
0020
0000
0000
0000
1030
0000
0100
0000
,
1000
0010
0100
0100
0001
0010
0010
0100
,
1000
0010
0100
0000
0010
0000
0100
0000
0001
0000
0010
0000
0100
0000
0100
0000
,
1000
0000
0010
0000
0010
0000
0100
0000
0001
0100
0001
1000
0001
0000
0010
0000
,
0001
0100
0010
0010
1000
0100
0100
0010
,
0001
0100
0010
0000
0100
0000
0010
0000
1000
0000
0100
0000
0001
0000
0100
0000
,
2000
0000
3100
0010
0002
0000
0103
0010
2000
0000
3000
0000
0101
0000
0001
0000
,
0001
0101
0100
0100
0110
0010
1010
1000
,
1001
0000
0011
0010
0010
0011
0001
0001
,
0101
0000
0100
0000
0110
0000
0010
0000
1010
0000
0000
0000
1000
0001
1000
0001
,
0100
0000
0010
0100
0010
0100
0001
0000
1000
0100
1000
0100
0020
0000
0032
0000
,
2003
0000
3020
0000
0130
0001
0100
0001
1000
0000
0010
1000
0001
0010
0100
0000
,
1000
0100
0010
0001
1000
0000
0100
0000
0110
0000
0000
0000
1000
0000
0100
0000
,
0001
0010
1000
0100
0001
0010
1000
0100
,
0001
0010
0200
0000
0310
2002
0000
0000
,
0000
0000
0000
0000
0000
0000
0000
3003
,
0110
0000
0000
0000
,
0000
0000
0000
0000
;
#NOTES:
     dance-single:
     :
     Challenge:
     18:
     :
0000
0000
0000
0000
,
0000
0000
0000
0000
,
0000
0000
0000
0000
,
0000
0000
0000
0000
,
0000
0000
0000
0000
,
0000
0000
0000
0000
,
0000
0000
0000
0000
,
0000
0000
0000
0000
1002
0000
1000
1000
,
1003
0000
2100
0000
0100
0100
3100
0000
,
0210
0000
0010
0010
0310
0000
0021
0000
,
0001
0001
0031
0000
1002
0000
0100
0100
,
0103
0000
0210
0000
0001
0001
0301
0000
,
1000
0100
0010
1000
0010
0001
0100
0010
,
0001
1000
0100
0001
0000
0000
0000
0000
,
0000
0000
0000
0000
1000
0000
0100
0000
1000
0000
0010
0000
1000
0010
0100
0000
,
0010
0100
0001
0000
1000
0100
0010
0000
0001
0010
0100
0000
0010
0000
0001
0000
,
0100
0000
0001
0000
0010
0100
1000
0000
0100
1000
0001
0000
0100
0010
1000
0000
,
0001
0100
0010
0000
1000
0000
0100
0000
0010
0001
0010
0000
0001
0010
0100
0010
,
0001
0010
0100
0000
0001
0100
1000
0000
0010
0100
0001
0000
0010
0000
0100
0000
,
1000
0010
1000
0000
0001
0100
0001
0100
0010
0100
1000
0100
0001
0010
0100
1000
,
0001
0000
0000
0000
0100
0000
0010
0000
1000
0000
0100
0000
0010
0001
1000
0000
,
0010
0100
0001
0000
1000
0000
0001
0000
1000
0100
0010
0100
0010
0000
0001
0000
,
1000
0010
0100
0000
1000
0100
0010
0000
1000
0100
0001
0000
1000
0010
0001
0000
,
1000
0100
0010
0100
1000
0000
0001
0000
0101
0000
0100
0000
0010
0000
1000
0000
,
1100
0000
0100
0000
1000
0000
0001
0000
0101
0000
0100
0000
0010
0000
1000
0100
,
0010
0000
1000
0010
0001
1000
0010
0000
0100
0001
0010
0100
1000
0000
2002
0000
,
0000
0000
3003
0000
1000
0000
0010
0000
0100
0000
0001
0000
1000
0100
0010
0000
,
1000
0010
0100
0000
0001
0100
1000
0000
0001
0010
0100
0010
0001
0000
0100
0000
,
0010
0000
1000
0000
0001
0010
0100
0000
0001
0100
2000
0000
3001
0000
0100
0010
,
0100
0000
0010
0000
1000
0000
0100
0000
0010
0000
0001
0000
1000
0010
0100
0000
,
0001
0010
1000
0000
0001
0100
0010
0000
0001
0100
0010
0100
0001
0000
0010
0000
,
0100
0000
1000
0000
0001
0000
1000
0010
0200
0000
0301
0010
0200
0000
1300
0010
,
0200
0000
0301
0010
0100
0000
1000
0000
1001
0000
0001
0000
0100
0010
0100
0000
,
0001
0000
0010
0000
0011
0000
0001
1000
0100
0010
0001
0000
1000
0000
0010
0000
,
0110
0000
0100
0000
0001
0010
0001
0000
1000
0000
0020
0000
0130
0000
0001
1000
,
0100
0000
1000
0000
0001
0000
0001
1000
0001
0000
0001
1000
0001
0000
0001
1000
,
0010
0000
0100
0000
0010
1000
0010
1000
0001
0100
0010
1000
0002
0000
0023
0000
,
0230
2300
3002
0023
2030
3002
0203
2300
,
3020
0230
0302
0000
0003
2000
0010
3000
,
0200
0001
0000
0001
0001
0300
1001
1000
,
0010
0100
0120
0000
0030
2000
0001
3000
,
0020
0100
0030
2100
0100
3000
0110
1000
,
0100
0010
0012
0000
0003
0200
1000
0300
,
0020
0100
0000
0100
0100
0030
1001
0001
,
0010
0100
2100
0000
3000
0020
0100
0030
,
0002
0010
0003
0120
0100
0030
1100
1000
,
0001
0010
1001
0001
1000
0010
0001
0010
,
0110
0100
0101
0001
1000
0100
1001
1000
,
0001
0100
1000
0100
0110
0010
1010
1000
,
0001
0010
0100
0010
1000
0010
0001
1000
,
0001
0000
0100
0000
1000
0000
0100
0000
0010
0000
0100
0000
0001
0100
0001
0100
,
0010
1000
0010
1000
0001
0010
0100
1000
0001
0100
0010
1000
0001
0010
0100
1000
,
0001
0100
0010
0100
0010
0000
0000
0000
1001
0000
0000
0000
0001
0000
0010
0000
,
0100
0010
0001
0000
1000
0000
0100
0000
0001
0000
0100
0000
0110
0000
0000
0000
,
0011
0000
0001
0000
1000
0000
0010
0000
0001
0010
0100
0000
0010
0000
2000
0000
,
3001
0010
0001
0010
0100
0000
0000
0000
1001
0000
0000
0000
1000
0000
0100
0000
,
0001
0000
1000
0000
0010
0000
0001
0000
0100
0010
0100
0010
1000
0000
0100
0000
,
1100
0100
0010
0011
0010
0100
0110
1002
,
0000
0000
1003
0100
0001
0100
1000
1000
,
0010
0100
0001
0000
0010
0000
0001
0000
1000
0100
0010
0000
0001
0000
0100
0000
,
1000
0000
0100
0000
0001
0000
0001
0000
1000
0010
0100
0000
0001
0000
1000
0100
,
0010
0100
0010
0000
0011
0000
0001
0000
0001
0000
1001
0000
0001
0000
0001
0000
,
0101
0000
0100
0000
1010
0000
0010
0000
1001
0000
1000
0000
0001
0010
0100
1000
,
0001
0000
1000
0100
0010
0001
1000
0001
0100
0010
1000
0001
0010
0001
0010
0100
,
1000
0100
1000
0001
0020
0000
0000
0000
0000
0000
0000
0000
0000
0000
0000
0000
,
0000
0000
0000
0000
0000
0000
0000
0000
0000
0000
0000
0000
0130
0000
0000
0000
1000
0000
0000
0000
0001
0000
0000
0000
0010
0000
0000
0000
0100
0000
0000
0000
1000
0000
0000
0000
0001
0000
0000
0010
0000
0000
1000
0000
0000
0000
0000
0000
,
0001
0100
1000
0000
0010
0100
0001
0000
0010
0000
0001
0000
2000
0000
3010
0100
,
0001
1000
0100
0000
0010
0001
0100
0001
1000
0100
0010
0000
0001
0100
1000
0000
,
0001
0010
1000
0000
0002
0000
0013
0100
0010
0100
1000
0001
1000
0000
0100
0001
,
0000
0100
1000
0100
0010
0000
0001
0000
0100
0000
0010
0000
1000
0000
0001
0010
,
0100
0000
0010
0000
0002
0000
1003
0100
0001
0000
2000
0000
3010
0001
0010
0100
,
1000
0010
1000
0010
0100
0001
0100
0001
0010
0100
1000
0000
0001
0100
0001
0000
,
1000
0000
0010
0000
0100
0000
0010
0000
1000
0000
0001
0000
0020
0000
0130
1000
,
0010
0100
0001
0000
1000
0100
1000
0100
0010
0100
0010
0001
0100
0000
0010
0000
,
0100
0000
0001
0100
0000
1000
0100
0000
0010
0000
1000
0000
0001
0000
0010
0100
,
2000
0000
3001
0100
0010
1000
0100
0010
0001
0000
1000
0010
0000
0001
0010
0000
,
1000
0000
0001
0000
2001
0000
0001
0000
0001
0000
3001
0010
0001
0000
0001
0100
,
0010
0100
0010
1000
0001
0010
0100
0010
0200
0000
0000
0000
0310
0000
0001
0000
,
0100
0000
0001
0000
1000
0100
1000
0000
0010
0000
0100
0001
0100
0000
0001
0000
,
0010
0001
0100
0000
0010
0000
1000
0000
0100
0000
1000
0000
0001
0010
0001
0000
,
0100
0000
0010
1000
0010
0000
0100
0001
1000
0100
0010
0001
1000
0000
0010
0000
,
1000
0000
0100
0000
0010
0001
1000
0000
0010
0000
0100
0001
1000
0000
0100
0000
,
0010
0001
0100
0000
0001
0000
0100
0000
1000
0000
0001
0000
0010
0000
1000
0100
,
0002
0000
1003
0010
0002
0000
0103
0010
2000
0000
3100
0000
0110
0000
0100
0010
,
0100
0000
1100
0000
0100
1000
0100
0000
1000
0010
1000
0010
0100
0001
0100
0001
,
0100
0000
0010
0000
1010
0000
1000
0010
1000
0000
1010
0000
1000
0001
1000
0000
,
0001
0010
0001
0010
0100
1000
0100
1000
0001
0100
0001
0000
1000
0100
0010
0001
,
1000
0000
1000
0100
0010
0001
1000
0000
1000
0010
1000
0010
0100
0001
0100
0001
,
1000
0100
0010
0000
0001
0100
0010
1000
0010
1000
0001
0010
0100
0010
0001
1000
,
0100
0010
0001
1000
0010
0100
0010
0100
0001
1000
0010
0100
0001
0000
0010
0000
,
1000
0000
0100
0000
0001
0000
0010
0000
1000
0000
0100
0000
0001
0000
1000
0100
,
0010
0001
1000
0000
0020
0000
0000
0000
0130
0000
2002
0000
0000
0000
0000
0000
,
0000
0000
0000
0000
0000
0000
0000
0000
0000
0000
3003
0000
0100
0100
0100
0100
,
0010
0000
0000
0000
,
0000
0000
0000
0000
;
#NOTES:
     dance-double:
     :
     Easy:
     11:
     :
00000000
00000000
00000000
00000000
,
00000000
00000000
00000000
00000000
,
00000000
00000000
00000000
00000000
,
00000000
00000000
00000000
00000000
,
00000000
00000000
00000000
00000000
,
00000000
00000000
00000000
00000000
,
00000000
00000000
00000000
00000000
,
00000000
00000000
20000000
00000000
,
00000000
00000000
00000000
00000000
,
32000000
00000000
00000000
00000000
,
00000000
00000000
03200000
00000000
,
00000000
00000000
00000000
00000000
,
00320000
00000000
00000000
00000000
,
00000000
00000000
00030000
00000000
,
00000000
00000000
00100000
00000000
00000000
00001000
00000000
00000000
,
00010000
00001000
00010000
00000100
,
00000000
00001000
00000000
00000000
00000010
00000000
00000100
00000000
,
00000010
00000000
00000100
00000000
00000000
00000001
00000000
00000000
,
00000010
00000100
00001000
00000100
,
00000000
00010000
00000000
00000000
00001000
00000000
01000000
00000000
,
00010000
00000000
10000000
00000000
00100000
00000000
01000000
00010000
,
00000000
00010000
01000000
00000000
00001000
00010000
00001000
00000000
,
00010000
00000000
00000100
00001000
00000000
00001000
00000100
00000000
,
00001000
00000001
00001000
00000000
00000010
00000000
00000100
00000000
,
00001000
00010000
00100000
01000000
,
10000000
00000000
01000000
00100000
01000000
00000000
00010000
00000000
,
01000000
00000000
00001000
00000000
00010000
00000000
00000100
00001000
,
00000000
00001000
00000100
00000000
00001000
00000001
00001000
00000000
,
00000010
00000000
00000100
00000001
00000000
00002000
00000000
00000000
,
00003200
00000000
00010300
00000000
00001000
00000000
00100000
00010000
,
00000000
00010000
00100000
00000000
00010000
10000000
00010000
00000000
,
10000000
01000000
00100000
00010000
,
00001000
00000000
00000100
00000000
00000010
00000000
00000001
00001000
,
00000000
00001000
00000001
00000000
00000100
00000010
00000100
00000000
,
00000010
00000000
00001000
00000010
00000000
00020000
00000000
00000000
,
00032000
00000000
00103000
00000000
00010000
00000000
00100000
01000000
,
00000000
01000000
10000000
00000000
00020000
00000000
20030000
00000000
,
00000000
00000000
32000000
00000000
,
00000000
00000000
03200000
00000000
00000000
00320000
00000000
00000000
,
00032000
00000000
00000000
00003200
,
00000320
00000000
00000032
00000000
00000000
00000023
00000000
00000000
,
00000230
00000000
00000000
00002300
,
00023000
00000000
00230000
00000000
00000000
02300000
00000000
00000000
,
23000000
00000000
00000000
30200000
,
02300000
00000000
03020000
00000000
00000000
00032000
00000000
00000000
,
00003020
00000000
00000000
00000230
00000000
00000000
00000302
00000000
,
00002003
00000000
00003100
00000000
00010000
00001000
00010000
00001000
,
00010000
00001000
00100000
00010000
,
00100000
01000000
00100000
01000000
00100000
00000000
00010000
00000000
,
10000000
00100000
01000000
00100000
01000000
00100000
01000000
00000000
,
00010000
00100000
00010000
00100000
00010000
00100000
00002000
00000000
,
00000000
00000000
00023000
00000000
,
00000000
00030010
00000000
00000000
,
00000000
00000000
00000000
00000100
,
00000100
00000000
00000000
00000000
00000000
00000000
00000000
00000001
,
00000000
00000001
00000000
00000000
,
00000000
00000000
00000000
00000000
00000000
00000000
00001000
00001000
,
00000000
00000100
00000100
00000000
00010000
00010000
00000000
00002000
,
00000000
01003000
00010000
01000000
,
00100000
00000000
10000000
00000000
01000000
10000000
01000000
00000000
,
00100000
00010000
00100000
00001000
,
00010000
00001000
00010000
00000100
00001000
00000100
00001000
00000000
,
00000100
00000010
00000100
00000010
00000100
00000000
00000010
00000001
,
00000000
00001000
00000010
00000000
00000100
00000010
00000000
00002000
,
00000000
00003100
00020000
00000000
00000000
00000000
00000000
00000000
,
00000000
00000000
00000000
00031000
,
00100000
00000000
00010000
01000000
00010000
00000000
10000000
00000000
,
01000000
00000000
00100000
00010000
10000000
01000000
00100000
00000000
,
00010000
00000000
00100000
00000000
00001000
00010000
00002000
00000000
,
00000000
00000000
00013000
00000010
00001000
00000000
00000010
00000100
,
00000010
00000000
00001000
00001000
00000000
00000001
00000001
00000000
,
00000010
00000100
00000010
00000100
00001000
00000000
00000100
00000000
,
00010000
00000000
00001000
00010000
00001000
00000000
00100000
00000000
,
00010000
00000000
00100000
01000000
00100000
01000000
10000000
00000000
,
00100000
00000000
00000000
00100000
00000000
00000000
00100000
00000000
,
01000000
00000000
00100000
10000000
00010000
00000000
00100000
00000000
,
00001000
00000000
00010000
00001000
00010000
00000100
00001000
00000000
,
00000010
00001000
00000010
00001000
00000002
00000000
00000013
00000000
,
00000100
00000000
00001000
00000001
00000000
00000001
00001000
00000000
,
00000100
00010000
00001000
00000000
01000000
00000000
00010000
01000000
,
00000000
01000000
00010000
00000000
10000000
01000000
00100000
00000000
,
00010000
00000000
00100000
01000000
00000000
01000000
00100000
00000000
,
00010000
00100000
00001000
00000000
00010000
00000000
00000100
00001000
,
00000000
00001000
00000100
00000000
00000020
00000000
00000031
00000100
,
00000001
00000100
00000010
00000000
00001000
00000000
00001000
00000000
,
00001000
00000000
00000100
00010000
00001000
00010000
00001000
00000000
,
00100000
00000000
00100000
00000000
00100000
00000000
00010000
00100000
,
00010000
00000000
10010000
00000000
01000000
00010000
01000000
00000000
,
01001000
00000000
00001000
00010000
00001000
00000000
00011000
00000000
,
00010000
00000100
00001000
00000000
00001100
00000000
00002000
00000000
,
00000000
00000000
00003002
00000000
,
00000000
00000000
00000103
00000000
00000000
00000200
00000000
00000000
,
00000000
00000000
00000000
00000000
,
00000300
00000000
00000000
00000000
,
00000000
00000000
00000000
00000000
;
#NOTES:
     dance-double:
     :
     Medium:
     14:
     :
00000000
00000000
00000000
00000000
,
00000000
00000000
00000000
00000000
,
00000000
00000000
00000000
00000000
,
00000000
00000000
00000000
00000000
,
00000000
00000000
00000000
00000000
,
00000000
00000000
00000000
00000000
,
00000000
00000000
00000000
00000000
,
00000000
00000000
00000002
00000000
,
00000000
00000023
00000000
00000000
,
00000230
00000000
00000000
00002300
,
00000000
00000000
00023000
00000000
,
00000000
00230000
00000000
00000000
,
02300000
00000000
00000000
23000000
,
00000000
00000000
30000000
00000000
,
00000000
00000000
00010000
00000000
10000000
00100000
10000000
00100000
,
01000000
00010000
00100000
00001000
,
00010000
00001000
00010000
00001000
00100000
00000000
00001000
00000000
,
00010000
00000000
00000100
00001000
00000001
00000200
00000000
00000310
,
00001000
00000010
00000100
00000001
00000010
00000100
00000010
00000100
,
00001000
00000200
00000000
00010300
00001000
01000000
00100000
01000000
,
00010000
10000000
00100000
00000000
10010000
00000000
10000000
01000000
,
00000000
00100000
00010000
00000000
00100000
00001000
00010000
00000000
,
00010100
00000000
00000100
00000010
00000000
00000001
00001000
00000000
,
00000010
00010000
00001000
00000000
00101000
00000000
00100000
00010000
,
00000000
10000000
01000000
00000000
00100000
00010000
00001000
00000100
,
00000000
00000010
00000001
00000000
00001000
00000010
00000000
00020000
,
00000000
00000000
00031000
00000000
00011000
00000000
00010000
00001000
,
00000000
01000000
00010000
00000000
00100000
01000000
10000000
00000000
,
10010000
00000000
00010000
00100000
00001000
00020000
00000000
00030100
,
00001000
00000100
00000010
00000000
00001001
00000000
00001000
00000010
,
00000000
00010000
00001000
00000000
00100000
00010000
00100000
01000000
,
00100000
00001000
00010000
00000100
00002000
00000000
00003002
00000000
,
00000103
00000000
00000010
00000000
00001010
00000000
00001000
00000100
,
00000000
00010000
00001000
01000000
00010000
00100000
00001000
00000000
,
00011000
00000000
00010000
00000100
00000000
00002000
00000000
00003100
,
00000010
00000001
00000100
00000100
00000100
00000010
00000010
00000010
,
00010000
00010000
00010000
00001000
00001000
00001000
00200000
00000000
,
00000000
00320000
00000000
00000000
20030000
00000000
00000000
30200000
,
00000000
00000000
02300000
00000000
03010000
10000000
02000000
00000000
,
03100000
00010000
00000000
00010000
00200000
00000000
00301000
00010000
,
00000200
00000000
00002300
00000000
00003001
00000010
00002000
00000000
,
00003010
00000100
00000000
00000100
00020000
00000000
00031000
01000000
,
00200000
00000000
20300000
00000000
31000000
00100000
00020000
00000000
,
00031000
00000100
00000000
00000100
00000020
00000000
00000031
00000100
,
00002000
00000000
00003200
00000000
00001300
00010000
00200000
00000000
,
01300000
10000000
01000000
00010000
00100000
10000000
00100000
00010000
,
00001000
00000100
00000010
00000000
00000001
00001000
00000001
00000100
,
00000010
00001010
00010010
00011000
,
00010000
00001000
00010000
00001000
00100000
00000000
00101000
00000000
,
00110000
00000000
00010000
10000000
00100000
01000000
00100000
01000000
,
01000000
00010000
00100000
00001000
00100000
00001000
00010000
00000100
,
00000010
00000001
00000010
00001000
00000010
00000001
00000010
00000100
,
00010000
00001000
00011000
00000000
00000000
00000000
00000000
00000000
,
00000000
00000000
00000000
00011000
,
00110000
00000000
00000000
00000000
00000000
00000000
00000000
10100000
,
00000000
00000000
10010000
00000000
10000000
00000000
01000000
00100000
,
00000000
00010000
00100000
00000000
00001000
00010000
00000100
00000100
,
00000000
00001000
00001000
00000000
00000001
00000001
00000000
00000200
,
00000000
00000000
00000310
00000000
00001010
00000000
00001000
00000100
,
00000000
00010000
00001000
00000000
00100000
00010000
00010000
00000000
,
01010000
00000000
01000000
00010000
00000000
01000000
00001000
00000000
,
00010000
00000100
00000100
00001000
00000001
00001000
00000010
00000100
,
00000100
00000010
00001000
00000010
00010000
00001000
00100000
00100000
,
00010000
02000000
00000000
00000000
03010000
00010000
00100000
00002000
,
00000000
00023000
00000000
00000000
,
00000000
00000000
00000000
00000000
00000000
00000000
00031000
00100000
,
00010000
10000000
00100000
01000000
00010000
00100000
00001000
00010000
,
00010000
00000100
00002000
00003200
00000320
00000032
00000103
00000010
,
00001000
00000000
00000010
00000000
00001000
00000000
00000100
00000000
00010000
00000000
00001000
00000000
00010000
00000000
00001000
00100000
,
00000000
00001000
00100000
00000000
00010000
00000000
10000000
00000000
01000000
00000000
00100000
00000000
00010000
00000000
00100000
00000000
,
00010000
00001000
00000100
00000010
00000001
00001000
00000100
00010000
,
00020200
00000000
00000000
00000000
00030300
00000000
00010000
00000100
,
00001000
00000010
00000100
00000010
00001000
00000100
00010000
00000100
,
00100000
00010000
00200000
00320000
20030000
32000000
03100000
00010000
,
01000000
00000000
00100000
01000000
00000000
01000000
00010000
00000000
01000000
00000000
00100000
00000000
01000000
00000000
00100000
00000000
,
00010000
00000000
00001000
00000000
00000100
00000000
00000010
00000000
00001000
00000000
00000001
00001000
00000000
00000001
00001000
00000000
,
00000100
00010000
00001000
01000000
00010000
10000000
01000000
00100000
,
00001000
00001000
00010000
00010000
00002000
00000000
00013000
00000000
,
00010100
00000000
00000100
00001000
00000000
00000001
00000100
00000000
,
00000001
00000100
00001000
00000000
00000110
00000000
00000010
00000100
,
00000000
00001000
00000100
00000000
00000010
00010000
00001000
00000000
,
01001000
00000000
01000000
00010000
00000000
10000000
01000000
00000000
,
00010000
01000000
10000000
00000000
01100000
00000000
00100000
00001000
,
00000000
00010000
00000100
00001000
00000100
00000010
00000001
00000010
,
00000100
00001000
00000100
00010000
00001000
00001000
00100000
00100000
,
00010000
00010000
10000000
00100000
01000000
00010000
01000000
00001000
,
00010000
00010000
00000100
00000100
00001000
00001000
00000001
00000100
,
00000010
00001000
00000010
00010000
00001000
00010000
00100000
01000000
,
10000000
01000000
00100000
10000000
00010000
00100000
00001000
00010000
,
00000100
00001000
00000100
00000001
00000100
00001000
00000010
00000100
,
00001000
00000100
00001000
00010000
00001000
00010000
00100000
00010000
,
00100000
01000000
01100000
00000000
00000000
20020000
00000000
00000000
,
00000000
00000000
00000000
00000000
,
30030000
00000000
00000000
00000000
,
00000000
00000000
00000000
00000000
;
#NOTES:
     dance-double:
     :
     Hard:
     17:
     :
00000000
00000000
00000000
00000000
,
00000000
00000000
00000000
00000000
,
00000000
00000000
00000000
00000000
,
00000000
00000000
00000000
00000000
,
00000000
00000000
00000000
00000000
,
00000000
00000000
00000000
00000000
,
00000000
00000000
00000000
00000000
,
00000000
00000000
21000000
00000000
,
30010000
01020000
00000000
00130000
,
00102000
00000000
00013000
00020100
,
00000000
00030010
00001020
00000000
,
00000130
00000201
00000000
00000310
,
00001020
00000000
00010030
00021000
,
00000000
01030000
00000000
00000000
,
00000000
00000000
10000000
01000000
00100000
00010000
01000000
00100000
,
10000000
00010000
00100000
00001000
00010000
00000100
00001000
00000010
,
00000100
00000001
00000010
00000100
00001000
00000100
00010000
00001000
,
00100000
00001000
00100000
01000000
00010000
01000000
10000000
00100000
,
01000000
00010000
01000000
00000000
00010000
01000000
00010000
00000000
01000000
00010000
01000000
00000000
00100000
00000000
01000000
00000000
,
00001000
00000000
00010000
00000000
00000010
00000000
00001000
00000000
00000010
00001000
00000010
00000000
00000100
00000000
00000001
00000100
,
00000001
00000000
00001000
00000100
00000010
00000100
00010000
00010000
,
00001000
00100000
00100000
00010000
00100000
01000000
10000000
00100000
,
01000000
00010000
00100000
00100000
00001000
00010000
00010000
00000100
,
00001000
00000100
00001000
00000100
00001000
00000000
00000010
00000000
00001000
00000000
00000100
00000000
00000010
00000000
00000001
00000000
,
00000011
00000010
00000100
00001000
00000100
00010000
00001000
01000000
,
00010000
00000000
01000000
00010000
01000000
00010000
10000000
00000000
01000000
00000000
00100000
00000000
00010000
00000000
00220000
00000000
,
00000000
00330000
00011000
00010000
00000100
00001000
00000001
00000001
,
00000100
00000000
00000010
00000000
00000010
00000000
00001000
00000000
00000100
00010000
00001000
00000000
00100000
00000000
00010000
00000000
,
01000000
00000000
00100000
00000000
10000000
00000000
10000000
00000000
00010000
00000000
02000000
00000000
00000000
00000000
03100000
10000000
,
00100000
01000000
01010000
00010000
01000000
00001000
00010000
00010000
,
00000100
00000000
00001000
00000000
00001000
00000000
00000100
00000000
00001000
00000100
00000010
00000000
00000001
00000000
00000010
00000000
,
00000100
00000000
00001000
00000000
00010000
00000000
00100000
00000000
02000000
00000000
13000000
00100000
02000000
00000000
03010000
00100000
,
02000000
03000000
10000000
00100000
10100000
10000000
00010000
00010000
,
00100000
00000000
00001000
00000000
00001000
00000000
00010000
00000000
00000100
00010000
00001000
00000000
00010000
00000000
00000100
00000000
,
00001100
00001000
00000001
00000001
00000100
00000020
00000000
00000130
,
00001000
00010000
00100000
00100000
00100000
01100000
00100000
00100000
,
10000000
10000000
10000000
10010000
10000000
10000000
00200000
20300000
,
32000000
03200000
00320000
00032000
00003020
00000230
00000302
00000023
,
00000230
00002300
00023000
00000000
00030000
02200000
00000000
03300000
,
20200000
00000000
00000000
00000000
00000000
30300000
00020000
02030000
,
03020000
00000000
00230000
00000000
00300000
22000000
00000000
33000000
,
02020000
00000000
03030000
00022000
00000000
00033000
00020200
00030300
,
00000220
00000330
00002002
00000000
00003003
00002020
00000000
00003030
,
00000220
00000000
00000000
00000000
00000000
00000330
00002200
00003300
,
00022000
00033000
00202000
00000000
00303000
00220000
00000000
00330000
,
22000000
00000000
33000000
02200000
00000000
03300000
02020000
03030000
,
20200000
30300000
10010000
00000000
00010000
00100000
01000000
00100000
,
00001000
00001000
00010000
00010000
00010100
00000000
00001001
00000000
,
00001000
00000010
00000100
00000010
00010000
00010000
00001000
00001000
,
01001000
01000000
00010000
00100000
01000000
00100000
10000000
00100000
,
00010000
00000000
01000000
00000000
00100000
00000000
01000000
00000000
10000000
00000000
01000000
00000000
00100000
01000000
00100000
00000000
,
00010000
00000000
00001000
00000000
00000100
00000000
00000010
00000000
00001000
00000001
00001000
00000001
00001000
00000001
00001000
00000001
,
00001000
00000100
00000010
00000000
00000100
00000000
00001000
00010000
,
00000000
00100000
01000000
00000000
10000000
00010000
01010000
00000000
,
11000000
00000000
10000000
01000000
00000000
00100000
00010000
00002000
,
00000000
00003100
00000100
00000000
00000010
00000000
00000001
00001000
,
00001010
00000010
00010000
00000000
00001000
00010000
00011000
00011000
,
00000000
00110000
00110000
00000000
11000000
11000000
00000000
10020000
,
00000000
00000000
10030000
01000000
00010000
01000000
10000000
10000000
,
00100000
01000000
01000000
00100000
00010000
00001000
00000100
00000010
,
00001000
00000001
00000010
00000010
00000100
00010000
00010000
00001000
,
00100000
00000000
00010000
00000000
00100000
00010000
00100000
00000000
01000000
00000000
10000000
00000000
01000000
00000000
10000000
00000000
,
01000000
00100000
00010000
00000000
00100000
00000000
00010000
00000000
00100000
00000000
00001000
00000000
00010000
00000000
00000100
00000000
,
00001000
00000000
00000100
00000010
00000001
00000010
00000100
00001000
00000100
00000000
00010000
00000000
00001000
00000000
00200000
00000000
,
00000000
02300000
00000000
00000000
,
00000000
00000000
00000000
00000000
00000000
00000000
13000000
00000000
00010000
00000000
00100000
00000000
00001000
00000000
00010000
00000000
00000010
00000000
00000100
00000000
00000000
00000010
00000000
00000000
,
00001000
00000000
00000100
00000000
00000001
00000000
00000100
00000000
00001000
00000000
00000100
00000000
00000020
00000000
00000130
00001000
,
00000100
00000010
00000001
00000000
00000010
00000100
00001000
00000100
00010000
00001000
00010000
00000000
00001000
00000000
00100000
00000000
,
00010000
00000000
10000000
00000000
00200000
00000000
01300000
00000000
00010000
01000000
00010000
01000000
00010000
00000000
01000000
00001000
,
00000000
01000000
00001000
00000000
00010000
00000000
00000100
00000000
00000010
00000000
00000001
00000000
00001000
00000000
00000010
00000000
,
00010000
00000000
00001000
00000000
00200000
00000000
00301000
00010000
00001000
00000000
00200000
00000000
00301000
00010000
00001000
00000000
,
01000000
00010000
01000000
00010000
01000000
00010000
01000000
00010000
01000000
00000000
00100000
00000000
01000000
00000000
00100000
00000000
,
10000000
00000000
01000000
00000000
00010000
00000000
01000000
00000000
10000000
00000000
01000000
00000000
00200000
00000000
01300000
10000000
,
01000000
00100000
00010000
00000000
00100000
01000000
00100000
00010000
00100000
00001000
00010000
00000000
00001000
00000000
00010000
00000000
,
00000100
00000000
00001000
00000001
00000000
00001000
00000100
00000000
00001000
00000000
00000100
00000000
00010000
00000000
00001000
00010000
,
00002000
00000000
01003000
00010000
01000000
00010000
10000000
01000000
10000000
00000000
00100000
01000000
00000000
00010000
01000000
00000000
,
00010000
00100000
00002000
00010000
00010000
00010000
00010000
00013000
,
00000100
00001000
00000100
00000000
00001000
00000100
00000010
00000000
00000002
00000000
00000000
00000000
00001003
00000000
00000010
00000000
,
00000100
00000010
00010000
00010000
00001000
01000000
01000000
00100000
,
01000000
10000000
01000000
00010000
10000000
00100000
01000000
01000000
,
00001000
00000000
00010000
00000000
00010000
00000000
00000010
00000000
00001000
00000010
00001000
00000001
00000010
00000000
00000100
00000000
,
00001000
00000010
00000100
00000100
00000001
00001000
00001000
00000100
,
00010000
00001000
00100000
01000000
00100000
00010000
00001000
00000100
,
00000020
00000000
00000031
00001000
00000200
00000000
00001300
00000010
00020000
00000000
00030000
00000000
00001000
00000000
00001000
00000000
,
00001000
00100000
00100000
00100000
00110000
00010000
10010000
10000000
,
10100000
00000000
01100000
01000000
01000000
01001000
00001000
00001000
,
00011000
00000000
00010000
00000000
00010100
00000000
00000100
00000000
00000110
00000000
00000000
00000000
00000010
00000100
00000010
00000100
,
00000010
00000000
00000100
00001000
00000100
00001000
00000100
00000000
00010000
00001000
00010000
00001000
00020000
00000000
00032000
00000000
,
00203000
00000000
00320000
00000000
10030000
00100000
10000000
00100000
10000000
00000000
00100000
01000000
00100000
01000000
00010000
00000000
,
01000000
00010000
01000000
00001000
00010000
00000000
00000100
00000000
00001000
00000000
00001000
00000000
00001000
00000000
00000100
00000000
,
00010000
00100000
00010000
00001000
00100000
00010000
00001000
00100000
,
00010000
00001000
00200000
00000000
10300000
02020000
00000000
00000000
,
00000000
00000000
00000000
00000000
00000000
00000000
00000000
03030000
,
00011000
00000000
00000000
00000000
,
00000000
00000000
00000000
00000000
;
#NOTES:
     dance-double:
     :
     Challenge:
     18:
     :
00000000
00000000
00000000
00000000
,
00000000
00000000
00000000
00000000
,
00000000
00000000
00000000
00000000
,
00000000
00000000
00000000
00000000
,
00000000
00000000
00000000
00000000
,
00000000
00000000
00000000
00000000
,
00000000
00000000
00000000
00000000
,
00000000
00000000
00000000
00000000
00000102
00000000
00000100
00000100
,
00000103
00000000
00000210
00000000
00000010
00000010
00000310
00000000
,
00010020
00000000
00010000
00010000
00010030
00000000
00021000
00000000
,
00001000
00001000
00031000
00000000
00102000
00000000
00010000
00010000
,
00013000
00000000
00020010
00000000
00001000
00001000
00031000
00000000
,
00010000
01000000
10000000
00010000
00100000
01000000
10000000
00100000
,
00010000
00001000
00000100
00000001
00000000
00000000
00000000
00000000
,
00000000
00000000
00001000
00000100
00010000
00001000
01000000
00010000
,
10000000
00000000
00010000
00000000
00100000
00001000
00010000
00000000
00000010
00010000
00001000
00000000
00010000
00000000
00000100
00000000
,
00001000
00000000
00000010
00000000
00001000
00000000
00000001
00000000
00000010
00000000
00000100
00000000
00001000
00000100
00010000
00000000
,
00001000
01000000
00010000
00000000
10000000
00000000
00010000
00000000
01000000
00100000
01000000
00000000
00010000
00100000
00010000
00100000
,
00001000
00010000
00001000
00000000
00000100
00000010
00000100
00000000
00000010
00000000
00001000
00000000
00000001
00000000
00001000
00000000
,
00000100
00000010
00000100
00000000
00001000
00000010
00001000
00000010
00010000
00001000
00010000
00000000
00100000
01000000
00100000
10000000
,
00010000
00000000
00000000
00000000
10000000
00000000
00100000
00000000
01000000
00000000
00010000
00000000
10000000
01000000
00100000
00000000
,
01000000
00100000
00010000
00000000
00100000
00000000
00001000
00000000
00010000
00001000
00010000
00000000
00000010
00000000
00001000
00000000
,
00000001
00000000
00000100
00000000
00000001
00000010
00000100
00000000
00000010
00000100
00001000
00000000
00000010
00000000
00010000
00000000
,
00001000
01000000
00010000
01000000
00100000
00000000
10000000
00000000
10010000
00000000
00010000
00000000
01000000
00000000
00001000
00000000
,
00011000
00000000
00010000
00000000
00000100
00000000
00001000
00000000
00001001
00000000
00000001
00000000
00000100
00000000
00001000
00010000
,
00100000
00000000
01000000
00100000
00010000
00001000
00000100
00000000
00000001
00000010
00001000
00000010
00000001
00000000
00002002
00000000
,
00000000
00000000
00003003
00000000
00000001
00000000
00000100
00000000
00000010
00000000
00001000
00000000
00000001
00000010
00000100
00000000
,
00000010
00000100
00001000
00000000
00000100
00000000
00010000
00000000
00001000
00010000
00001000
00000000
01000000
00000000
00010000
00000000
,
10000000
00000000
00100000
00000000
10000000
01000000
00100000
00000000
01000000
00010000
00002000
00000000
00013000
00000000
00000010
00000100
,
00000010
00000000
00000100
00000000
00000001
00000000
00000010
00000000
00000100
00000000
00001000
00000000
00000001
00000100
00001000
00000000
,
00010000
00100000
10000000
00000000
00010000
00000000
01000000
00000000
00010000
00100000
01000000
00000000
10000000
00000000
00100000
00000000
,
00010000
00000000
00001000
00000000
00000100
00000000
00000010
00001000
00020000
00000000
01030000
00100000
00020000
00000000
00031000
00100000
,
00020000
00000000
10030000
00000000
01000000
00000000
00010000
00000000
01010000
00000000
01000000
00000000
00100000
00001000
00010000
00000000
,
00000100
00000000
00001000
00000000
00001100
00000000
00000100
00000000
00010000
00000010
00001000
00000000
00000001
00000000
00000100
00000000
,
00000101
00000000
00000001
00000000
00000010
00000100
00001000
00000000
00000001
00000000
00000020
00000000
00001030
00000000
00010000
01000000
,
10000000
00000000
00010000
00000000
01000000
00000000
01000000
00100000
01000000
00000000
01000000
00010000
01000000
00000000
01000000
00001000
,
00010000
00000000
00000100
00000000
00001000
00000001
00000010
00000100
00001000
00000100
00010000
00001000
00200000
00000000
00320000
00000000
,
20030000
32000000
03200000
00320000
00032000
00003200
00000320
00000032
,
00000203
00002300
00023000
00000000
00030000
02000000
00100000
03000000
,
20000000
00010000
00000000
00010000
00010000
30000000
01010000
01000000
,
00001000
00010000
00020100
00000000
00030000
00000020
00001000
00000030
,
00000200
00000010
00000300
00002010
00000010
00003000
00001001
00000001
,
00000010
00000100
00001200
00000000
00000300
00020000
00001000
00030000
,
00200000
01000000
00000000
01000000
01000000
00300000
10010000
10000000
,
01000000
00100000
00210000
00000000
00300000
00002000
00010000
00003000
,
00000200
00001000
00000300
00000012
00000010
00000003
00001100
00001000
,
00000001
00000100
00000110
00000010
00001000
00000100
00000001
00000100
,
00001000
00001000
00000100
00000100
00010000
00001000
00011000
00010000
,
00100000
10000000
00100000
00010000
00001000
00001000
00010000
00010000
,
00000100
00001000
00000010
00001000
00000100
00010000
00001000
01000000
,
00010000
00000000
10000000
00000000
01000000
00000000
00010000
00000000
00001000
00000000
00000010
00000000
00000001
00000100
00000001
00000100
,
00000010
00001000
00000010
00010000
00001000
00000000
00100000
00000000
00010000
10000000
01000000
00100000
00010000
00100000
00001000
00010000
,
00000100
00001000
00000001
00000000
00001010
00000000
00001000
00000100
,
00010000
00001000
00100000
00000000
00010000
00000000
00100000
00000000
10000000
00000000
00100000
00000000
01100000
00000000
00000000
00000000
,
00110000
00000000
00010000
00000000
10000000
00000000
01000000
00000000
00010000
00001000
00010000
00000000
00001000
00000000
00000200
00000000
,
00000310
00001000
00000010
00001000
00000100
00000000
00000000
00000000
00000011
00000000
00000000
00000000
00000001
00000000
00000010
00000000
,
00001000
00000000
00010000
00000000
01000000
00000000
10000000
00000000
00100000
01000000
00100000
01000000
00010000
00000000
00100000
00000000
,
00110000
00100000
00001000
00011000
00001000
00000100
00000110
00002010
,
00000000
00000000
00003001
00000100
00001000
00000100
00000010
00000010
,
00010000
00001000
00000100
00000000
00000010
00000000
00001000
00000000
00010000
01000000
00100000
00000000
10000000
00000000
01000000
00000000
,
00010000
00000000
01000000
00000000
00100000
00000000
00100000
00000000
00001000
00010000
01000000
00000000
00100000
00000000
00010000
00100000
,
00001000
00010000
00001000
00000000
00011000
00000000
00010000
00000000
00010000
00000000
00010100
00000000
00000100
00000000
00000100
00000000
,
00001100
00000000
00001000
00000000
00001001
00000000
00000001
00000000
00000011
00000000
00000010
00000000
00000100
00001000
00000001
00000010
,
00000100
00000000
00010000
00001000
00100000
00010000
10000000
00000000
00100000
00010000
00001000
00000100
00000010
00000100
00000001
00001000
,
00000100
00001000
00000100
00010000
00002000
00000000
00000000
00000000
00000000
00000000
00000000
00000000
00000000
00000000
00000000
00000000
,
00000000
00000000
00000000
00000000
00000000
00000000
00000000
00000000
00000000
00000000
00000000
00000000
00013000
00000000
00000000
00000000
00100000
00000000
00000000
00000000
10000000
00000000
00000000
00000000
01000000
00000000
00000000
00000000
00100000
00000000
00000000
00000000
00010000
00000000
00000000
00000000
01000000
00000000
00000000
00100000
00000000
00000000
00010000
00000000
00000000
00000000
00000000
00000000
,
00001000
00000100
00000010
00000000
00001000
00000100
00010000
00000000
00000010
00000000
00001000
00000000
00000002
00000000
00000013
00000100
,
00000010
00000000
00001000
00000000
00010000
00001000
00100000
00001000
00010000
00000100
00001000
00000000
00000010
00000100
00001000
00000000
,
00010000
00100000
01000000
00000000
00020000
00000000
10030000
00100000
01000000
00100000
01000000
00000000
00010000
00000000
10000000
01000000
,
00000000
00010000
00001000
00010000
00000100
00000000
00000010
00000000
00000001
00000000
00001000
00000000
00000001
00000000
00000100
00000010
,
00001000
00000000
00000100
00000000
00020000
00000000
00031000
00010000
01000000
00000000
20000000
00000000
31000000
00010000
00001000
00010000
,
00000100
00001000
00000100
00001000
00000100
00001000
00000100
00001000
00000001
00000010
00000100
00000000
00001000
00000010
00001000
00000000
,
00000001
00000000
00000100
00000000
00000010
00000000
00001000
00000000
00000100
00000000
00010000
00000000
00002000
00000000
00103000
00010000
,
00100000
01000000
10000000
00000000
00100000
01000000
00100000
01000000
00010000
01000000
00001000
00010000
00001000
00000000
00010000
00000000
,
00000100
00000000
00001000
00000010
00000000
00000001
00000010
00000000
00000100
00000000
00001000
00000000
00010000
00000000
00001000
00010000
,
00200000
00000000
10300000
00010000
01000000
00100000
10000000
00010000
01000000
00000000
00010000
00100000
00000000
10000000
00100000
00000000
,
01000000
00000000
00010000
00000000
00002000
00000000
00000000
00000000
00000000
00000000
00013000
00000100
00001000
00000000
00000100
00000010
,
00000100
00000010
00000001
00001000
00000100
00010000
00001000
01000000
00020000
00000000
00000000
00000000
10030000
00000000
01000000
00000000
,
00010000
00000000
00001000
00000000
00000010
00000100
00000010
00000000
00000001
00000000
00000100
00000010
00000100
00000000
00000001
00000000
,
00001000
00000100
00000010
00000000
00000001
00000000
00000010
00000000
00001000
00000000
00010000
00000000
01000000
00100000
01000000
00000000
,
10000000
00000000
00100000
01000000
00100000
00000000
10000000
01000000
00010000
00001000
00000010
00000000
00000001
00000000
00000100
00000000
,
00001000
00000000
00010000
00000000
00100000
01000000
00100000
00000000
10000000
00000000
01000000
00100000
01000000
00000000
10000000
00000000
,
00010000
01000000
00100000
00000000
00010000
00000000
00001000
00000000
00000100
00000000
00000010
00000000
00001000
00000000
00000001
00000100
,
00002000
00000000
00013000
00100000
20000000
00000000
30010000
00100000
02000000
00000000
13000000
00000000
10010000
00000000
10000000
00010000
,
10000000
00000000
11000000
00000000
10000000
01000000
10000000
00000000
01000000
00100000
01000000
00100000
00010000
00100000
00001000
00010000
,
00001000
00000000
00010000
00000000
00010100
00000000
00000100
00010000
00000100
00000000
00001100
00000000
00000100
00001000
00000100
00000000
,
00001000
00000001
00001000
00000001
00000100
00000010
00000100
00000010
00001000
00000000
00000001
00000000
00000010
00000100
00001000
00000100
,
00010000
00000000
00001000
01000000
00010000
01000000
00100000
00000000
10000000
01000000
10000000
01000000
00100000
00010000
00100000
00010000
,
00100000
00000000
00001000
00000000
00010000
00001000
00000010
00000000
00000001
00000000
00000010
00000100
00000010
00001000
00010000
00001000
,
00010000
00000000
00001000
00000000
00100000
00010000
10000000
01000000
00010000
00001000
00000100
00000000
00001000
00000000
00000100
00000000
,
00000001
00000000
00000010
00000000
00000100
00000000
00001000
00000000
00010000
00000000
00100000
00000000
00010000
00000000
10000000
01000000
,
00100000
00010000
10000000
00000000
02000000
00000000
00000000
00000000
03100000
00000000
20020000
00000000
00000000
00000000
00000000
00000000
,
00000000
00000000
00000000
00000000
00000000
00000000
00000000
00000000
00000000
00000000
30030000
00000000
10000000
00100000
00010000
00001000
,
00000100
00000000
00000000
00000000
,
00000000
00000000
00000000
00000000
;
