
//----- song ID: smxx -----//
#TITLE:DDR System Songs+Replicant Mix;
#ARTIST:BEMANI Sound Team;
#BANNER:DDR System Songs+Replicant Mix.png;
#BACKGROUND:DDR System Songs+Replicant Mix-bg.png;
#CDTITLE:./CDTitles/DDR A3.png;
#MUSIC:DDR System Songs+Replicant Mix.ogg;
#SAMPLESTART:10.566;
#SAMPLELENGTH:15;
#BPMS:0=159;
#BGSTAGE:1;
#NOTES:
     dance-single:
     :
     Beginner:
     1:
     :
0000
0000
0000
0000
,
0000
0000
0000
0000
,
0000
0000
0000
0000
,
0000
0000
0000
0000
,
0000
0000
0000
0000
,
0000
0000
0000
0000
,
0000
0000
0000
0000
,
1000
0000
0000
0000
,
0000
0000
0000
0000
,
0010
0000
0000
0000
,
0000
0000
0000
0000
,
1000
0000
0000
0000
,
0000
0000
0000
0000
,
0010
0000
0000
0000
,
0000
0000
0000
0000
,
0010
0000
0000
0000
,
0000
0000
0000
0000
,
0001
0000
0000
0000
,
0000
0000
0000
0000
,
0010
0000
0000
0000
,
0000
0000
0000
0000
,
0001
0000
0000
0000
,
0000
0000
0000
0000
,
0002
0000
0000
0000
,
0003
0000
0000
0000
,
0000
0000
0000
0000
,
0000
0000
0000
0000
,
0001
0000
0000
0000
,
0000
0000
0000
0000
,
0010
0000
0000
0000
,
0000
0000
0000
0000
,
1000
0000
0000
0000
,
1000
0000
0000
0000
,
1000
0000
0000
0000
,
0000
0000
0000
0000
,
0100
0000
0000
0000
,
1000
0000
0000
0000
,
1000
0000
0000
0000
,
0000
0000
0000
0000
,
0010
0000
0000
0000
,
0010
0000
0000
0000
,
0010
0000
0000
0000
,
0000
0000
0000
0000
,
1000
0000
0000
0000
,
0010
0000
0000
0000
,
0010
0000
0000
0000
,
0000
0000
0000
0000
,
0020
0000
0000
0000
,
0030
0000
0000
0000
,
0000
0000
0000
0000
,
0000
0000
0000
0000
,
0020
0000
0000
0000
,
0030
0000
0000
0000
,
0000
0000
0000
0000
,
0000
0000
0000
0000
,
0010
0000
0000
0000
,
0000
0000
0000
0000
,
0001
0000
0000
0000
,
0000
0000
0000
0000
,
0001
0000
0000
0000
,
0000
0000
0000
0000
,
0010
0000
0000
0000
,
0000
0000
0000
0000
,
0010
0000
0000
0000
,
0000
0000
0000
0000
,
0100
0000
0000
0000
,
0000
0000
0000
0000
,
0010
0000
0000
0000
,
0000
0000
0000
0000
,
0010
0000
0000
0000
,
0000
0000
0000
0000
,
2000
0000
0000
0000
,
3000
0000
0000
0000
,
1000
0000
0000
0000
,
1000
0000
0000
0000
,
0010
0000
0000
0000
,
0000
0000
0000
0000
,
0010
0000
0000
0000
,
0010
0000
0000
0000
,
0001
0000
0000
0000
,
0000
0000
0000
0000
;
#NOTES:
     dance-single:
     :
     Easy:
     5:
     :
0000
0000
0000
0000
,
0000
0000
0000
0000
,
0000
0000
0000
0000
,
0000
0000
0000
0000
,
0000
0000
0000
0000
,
0000
0000
0000
0000
,
0000
0000
0000
0000
,
1000
0001
1000
0000
,
0010
0000
0010
0000
,
1000
0001
1000
0000
,
0100
0000
0100
0000
,
1000
0100
0010
0000
,
0001
0000
0001
0000
,
1000
0010
0100
0000
,
0001
0000
0001
0000
,
0001
1000
0001
0000
,
0010
0000
0010
0000
,
0001
1000
0001
0000
,
0100
0000
0100
0000
,
0001
0100
0010
0000
,
1000
0000
1000
0000
,
0001
0010
0100
0000
,
1000
0000
1000
0000
,
0002
0000
0000
0003
,
0001
0100
0001
0000
,
0020
0000
0000
0030
,
0010
0100
0010
0100
,
2000
0000
0000
3000
,
1000
0010
1000
0000
,
0200
0000
0000
0300
,
0100
0010
0100
0010
,
0001
0001
0001
0000
,
1000
1000
1000
0000
,
1001
0000
0110
0000
,
1001
0000
0000
0000
,
0010
0010
0010
0000
,
0100
0100
0100
0000
,
0110
0000
1001
0000
,
0110
0000
0000
0000
,
1000
1000
0010
0000
,
1000
1000
0100
0000
,
1000
0100
0010
0001
,
0100
0010
0100
0000
,
0001
0001
0010
0000
,
0001
0001
0100
0000
,
0001
0010
0100
1000
,
0010
0100
0010
0000
,
2000
0000
0000
0000
,
3000
0000
0110
0000
,
0002
0000
0000
0000
,
0003
0000
0110
0000
,
0020
0000
0000
0000
,
0030
0000
1001
0000
,
0200
0000
0000
0000
,
0300
0000
1001
0000
,
0000
0000
0000
0000
,
0000
0000
0000
0000
,
0001
0100
0001
0100
,
0010
0100
0010
0000
,
1000
0010
1000
0010
,
1000
0001
1000
0000
,
0001
0010
0001
0010
,
0100
0010
0100
0000
,
1000
0000
1001
0000
,
0001
0100
0010
0000
,
0100
0000
0110
0000
,
1000
0001
1000
0000
,
0001
0000
1001
0000
,
1000
0010
0100
0000
,
0010
0000
0110
0000
,
0001
1000
0001
0000
,
1000
0010
0100
0000
,
0010
0100
0001
0000
,
1000
1000
0100
1000
,
0001
0000
1001
0000
,
0001
0100
0010
0000
,
0100
0010
1000
0000
,
0001
0001
0010
0001
,
1000
0000
0001
0000
,
1001
0000
0000
0000
,
0000
0000
0000
0000
;
#NOTES:
     dance-single:
     :
     Medium:
     10:
     :
0000
0000
0000
0000
,
0000
0000
0000
0000
,
0000
0000
0000
0000
,
0000
0000
0000
0000
,
0000
0000
0000
0000
,
0000
0000
0000
0000
,
0000
0000
0000
0000
,
1000
0001
0010
0000
0001
1000
0100
0000
,
0010
0001
0100
0010
1000
0100
0010
0000
,
0001
1000
0100
0000
0001
0100
1000
0000
,
0002
1003
2000
3001
,
0001
1000
0100
0000
1000
0001
0010
0000
,
0100
1000
0010
0100
0001
0010
0100
0000
,
1000
0001
0010
0000
1000
0010
0001
0000
,
2000
3001
0002
1003
,
1000
0000
1010
0000
0010
0100
0001
1000
,
0010
0000
0110
0000
0100
0001
0010
0000
,
0001
1000
0100
1000
0001
0010
0001
0000
,
2000
3100
0200
0310
,
0001
0000
0101
0000
0100
0010
1000
0001
,
0100
0000
0110
0000
0010
1000
0100
0000
,
1000
0001
0010
0001
1000
0100
1000
0000
,
0002
0013
0020
0130
,
2000
0000
0000
3000
,
1000
0010
0100
0001
0010
0100
1000
0000
,
0002
0000
0000
0003
,
0001
0100
0010
0100
1000
0100
0010
0100
,
0002
0000
0000
0003
,
0001
0100
0010
1000
0100
0010
0001
0000
,
2000
0000
0000
3000
,
1000
0010
0100
0010
0001
0010
0100
0010
,
1000
0010
1000
0010
1000
0000
1010
0000
,
1000
0100
1000
0100
1000
0000
1100
0000
,
1000
0010
1000
0000
1000
0100
1000
0000
,
1000
0010
1000
0100
1010
0000
1100
0000
,
0001
0010
0001
0010
0001
0000
0011
0000
,
0001
0100
0001
0100
0001
0000
0101
0000
,
0001
0010
0001
0000
0001
0100
0001
0000
,
0001
0010
0001
0100
0011
0000
0101
0000
,
1000
0100
0001
0100
1000
0000
1000
0000
,
0001
0100
1000
0100
0001
0000
0001
0000
,
1000
0100
0001
0000
0001
0100
1000
0000
,
1000
0001
0010
0100
1000
0000
1001
0000
,
0001
0010
1000
0010
0001
0000
0001
0000
,
1000
0010
0001
0010
1000
0000
1000
0000
,
0001
0010
1000
0000
1000
0010
0001
0000
,
0001
1000
0100
0010
0001
0000
1001
0000
,
2000
0000
3001
0000
,
0002
0010
0013
0000
,
0020
0000
0130
0000
,
0200
1000
1300
0000
,
0002
0000
1003
0000
,
2000
0010
3010
0000
,
0020
0000
0130
0000
,
0200
0001
0301
0000
,
2002
0000
0000
0000
,
0000
0000
0000
3003
,
1000
0010
0100
0001
1000
0010
0100
0000
,
0001
0100
0010
1000
0020
0000
0030
0000
,
1000
0001
0010
0100
1000
0001
0010
0000
,
0100
0010
0001
1000
0200
0000
0300
0000
,
1000
0010
0001
0010
1000
0001
0100
0000
,
0001
0010
1000
0010
0001
1000
0100
0000
,
1000
0001
0010
0001
0100
0001
1000
0000
,
1000
0001
0010
0001
0100
0001
1000
0000
,
1010
0100
0011
0100
,
1000
0010
1000
0000
0001
0100
0001
0000
,
0001
1000
0010
1000
0100
1000
0001
0000
,
0001
1000
0010
1000
0100
1000
0001
0000
,
0011
0100
1010
0100
,
0001
0010
0001
0000
1000
0100
1000
0000
,
0001
0100
0010
0100
0010
0100
1000
0000
,
1000
0100
0010
0100
0010
0100
0001
0000
,
1000
0100
0010
0000
0001
0100
0010
0000
,
1010
0101
0011
1100
,
1000
0010
0100
0010
0100
0010
0001
0000
,
0001
0010
0100
0010
0100
0010
1000
0000
,
0001
0010
0100
0000
1000
0010
0100
0000
,
0101
1010
1100
0011
,
1001
0000
0000
0000
,
0000
0000
0000
0000
;
#NOTES:
     dance-single:
     :
     Hard:
     13:
     :
0000
0000
0000
0000
,
0000
0000
0000
0000
,
0000
0000
0000
0000
,
0000
0000
0000
0000
,
0000
0000
0000
0000
,
0000
0000
0000
0000
,
0000
0000
0000
0000
,
1000
0000
0000
0010
0000
0000
0100
0000
0000
0010
0000
0000
1000
0000
0001
0010
,
0001
0000
0000
0100
0000
0000
0010
0000
0000
0100
0000
0000
0001
0000
1000
0010
,
1000
0000
0000
0100
0000
0000
0001
0000
0000
0100
0000
0000
1000
0000
0001
0010
,
0100
0000
0000
0100
0000
0000
0100
0000
1000
0000
0000
1000
0000
0000
1000
0000
,
0001
0000
0000
0100
0000
0000
0010
0000
0000
0100
0000
0000
0001
0000
1000
0100
,
1000
0000
0000
0010
0000
0000
0100
0000
0000
0010
0000
0000
1000
0000
0001
0100
,
0001
0000
0000
0010
0000
0000
1000
0000
0010
0000
0000
0001
0000
0000
1000
0100
,
0010
0000
0000
0010
0000
0000
0010
0000
0001
0000
0000
0001
0000
0000
0001
0000
,
1000
0000
0001
0100
0000
0001
0100
0000
0010
0100
0000
0010
0100
0000
0000
0000
,
0001
0000
1000
0100
0000
1000
0100
0000
0010
0100
0000
0010
0100
0000
0000
0000
,
1000
0000
0001
0100
0000
0001
0100
0000
0010
1000
0000
0010
1000
0000
0000
0000
,
0001
0000
0010
0001
0000
0000
0001
0000
1000
0000
0010
1000
0000
0000
1000
0000
,
0001
0000
1000
0010
0000
1000
0010
0000
0100
0010
0000
0100
0010
0000
0000
0000
,
1000
0000
0001
0010
0000
0001
0010
0000
0100
0010
0000
0100
0010
0000
0000
0000
,
0001
0000
1000
0010
0000
1000
0010
0000
0100
0000
0001
0100
0000
0001
0100
0000
,
0010
0000
0000
1000
0000
0000
1010
0000
0001
0000
0000
0100
0000
0000
0101
0000
,
0001
0100
0001
0100
1000
0100
1000
0100
,
0001
0100
1000
0100
0001
0100
1000
0100
,
0001
0010
0001
0010
1000
0010
1000
0010
,
0001
0010
1000
0010
0001
0010
1000
0010
,
0002
0000
2003
0000
3100
0001
0100
0010
,
0002
0000
2003
0000
3010
0100
1000
0100
,
0020
0000
2030
0000
3100
0010
0001
0100
,
0010
1000
0010
0000
1000
0001
1000
0000
,
0001
0000
1000
0000
0010
0100
0000
0100
0001
0000
0001
1000
0000
1000
0100
0000
,
0010
0000
0100
0000
1000
0001
0000
0001
0100
0000
0100
0010
0000
0010
1000
0000
,
0001
0000
0100
0000
0010
1000
0000
1000
0100
0000
0100
0010
0000
0010
0001
0000
,
1000
0100
0000
0010
0001
0000
1000
0100
0000
0010
0001
0000
1001
0000
0000
0000
,
1000
0000
0001
0000
0100
0010
0000
0010
1000
0000
1000
0001
0000
0001
0010
0000
,
0100
0000
0010
0000
0001
1000
0000
1000
0010
0000
0010
0100
0000
0100
0001
0000
,
1000
0000
0010
0000
0100
0001
0000
0001
0010
0000
0010
0100
0000
0100
1000
0000
,
0001
0010
0000
0100
1000
0000
0001
0010
0000
0100
1000
0000
1001
0000
0000
0000
,
1000
0000
0010
0000
0100
0001
0000
0001
0010
0000
0100
1000
0000
1000
0010
0000
,
0100
0000
0001
0000
0010
0001
0000
0001
0100
0000
0010
1000
0000
1000
0100
0000
,
0010
0000
0001
0000
1000
0010
0000
0010
0100
0000
0100
0001
0000
0001
1000
0000
,
0001
0010
0000
0001
0010
0000
1000
0010
0000
1000
0010
0000
0001
0000
1000
0000
,
0001
0000
0100
0000
0010
1000
0000
1000
0100
0000
0010
0001
0000
0001
0100
0000
,
0010
0000
1000
0000
0100
1000
0000
1000
0010
0000
0100
0001
0000
0001
0010
0000
,
0100
0000
1000
0000
0001
0100
0000
0100
0010
0000
0010
1000
0000
1000
0001
0000
,
1000
0100
0000
1000
0100
0000
0001
0100
0000
0001
0100
0000
1000
0000
0001
0000
,
2000
3000
1010
0000
,
0000
0000
0001
0000
0000
0100
0000
0000
0101
0000
0000
0000
0000
0000
0000
0000
,
0002
0013
0011
0000
,
0000
0000
1000
0000
0000
0100
0000
0000
1100
0000
0000
0000
0000
0000
0000
0000
,
2000
3000
0110
0000
,
0000
0000
0001
0000
0000
1000
0000
0000
0110
0000
0000
0000
0000
0000
0000
0000
,
0002
1003
0110
0000
,
0000
0000
0010
0000
0000
0100
0000
0000
1001
0000
0000
0000
0000
0000
0000
0000
,
2000
0100
3100
0000
,
0002
0000
0100
0000
0000
0100
0000
0000
0103
0000
0000
0000
0000
0000
0000
0000
,
0001
0010
0100
1000
0001
1000
0100
0010
,
0001
0100
0010
0100
1000
0100
0010
1000
,
0001
0010
0100
1000
0001
0010
1000
0010
,
0001
0100
0010
0100
0001
0010
0001
0000
,
1000
0100
0010
0001
1000
0001
0010
0100
,
1000
0010
0100
0010
0001
0010
0100
0000
,
0001
0000
0000
0010
0000
0000
0100
0000
0000
0010
0000
0000
0001
0000
1000
0010
,
1000
0000
0000
0100
0000
0000
0010
0000
0000
0100
0000
0000
1000
0000
0001
0010
,
0001
0000
0000
0100
0000
0000
1000
0000
0000
0100
0000
0000
0001
0000
1000
0010
,
0100
0000
0000
0100
0000
0000
0100
0000
0001
0000
0000
0001
0000
0000
0001
0000
,
1000
0000
0000
0100
0000
0000
0010
0000
0000
0100
0000
0000
1000
0000
0001
0100
,
0001
0000
0000
0010
0000
0000
0100
0000
0000
0010
0000
0000
0001
0000
1000
0100
,
1000
0000
0000
0010
0000
0000
0001
0000
0010
0000
0000
1000
0000
0000
0001
0100
,
0010
0000
0000
0010
0000
0000
0010
0000
1000
0000
0000
1000
0000
0000
1000
0000
,
0001
0000
1000
0100
0000
1000
0100
0000
0010
0100
0000
0010
0100
0000
0000
0000
,
1000
0000
0001
0100
0000
0001
0100
0000
0010
0100
0000
0010
0100
0000
0000
0000
,
0001
0000
1000
0100
0000
1000
0100
0000
0010
0001
0000
0010
0001
0000
0000
0000
,
1000
0000
0010
1000
0000
0000
1000
0000
0001
0000
0010
0001
0000
0000
0001
0000
,
1000
0000
0001
0010
0000
0001
0010
0000
0100
0010
0000
0100
0010
0000
0000
0000
,
0001
0000
1000
0010
0000
1000
0010
0000
0100
0010
0000
0100
0010
0000
0000
0000
,
1000
0000
0001
0010
0000
0001
0010
0000
0100
0000
1000
0100
0000
1000
0100
0000
,
0010
0000
0000
0001
0000
0000
0011
0000
1000
0000
0000
0100
0000
0000
1000
0000
,
1001
0000
0000
0000
,
0000
0000
0000
0000
;
#NOTES:
     dance-double:
     :
     Easy:
     5:
     :
00000000
00000000
00000000
00000000
,
00000000
00000000
00000000
00000000
,
00000000
00000000
00000000
00000000
,
00000000
00000000
00000000
00000000
,
00000000
00000000
00000000
00000000
,
00000000
00000000
00000000
00000000
,
00000000
00000000
00000000
00000000
,
00000001
00001000
00000001
00000000
,
00000010
00000000
00000010
00000000
,
00000001
00000000
00000100
00000000
,
00001000
00000000
00010000
00000000
,
00001000
00010000
00001000
00000000
,
00010000
00000000
00010000
00000000
,
00001000
00000000
00010000
00000000
,
00100000
00000000
10000000
00000000
,
00010000
10000000
00010000
00000000
,
00100000
00000000
00100000
00000000
,
00010000
00000000
01000000
00000000
,
00001000
00000000
00010000
00000000
,
00001000
00010000
00001000
00000000
,
00010000
00000000
00010000
00000000
,
00001000
00000000
00000010
00000000
,
00000001
00000000
00001000
00000000
,
00000002
00000000
00000000
00000003
,
00000001
00001000
00000100
00000000
,
00000200
00000000
00000000
00000300
,
00000100
00010000
00001000
00000000
,
00020000
00000000
00000000
00030000
,
00010000
00001000
00100000
00000000
,
00020000
00000000
00000000
00030000
,
00010000
01000000
00100000
00000000
,
10000000
01000000
10000000
00000000
,
00010000
01000000
00010000
00000000
,
10000000
00000000
01000000
00000000
,
00010000
00001000
00010000
00000000
,
00000100
00001000
00000100
00000000
,
00001000
00000010
00001000
00000000
,
00000010
00010000
00000100
00001000
,
00000010
00000000
00000110
00000000
,
00000001
00000100
00000001
00000000
,
00001000
00000100
00001000
00000000
,
00000001
00000000
00000100
00000000
,
00001000
00010000
00001000
00000000
,
01000000
00010000
01000000
00000000
,
00010000
00100000
00010000
00000000
,
00100000
00001000
01000000
00010000
,
00100000
00000000
01100000
00000000
,
20000000
00000000
00000000
00000000
,
30000000
00000000
01100000
00000000
,
00020000
00000000
00000000
00000000
,
00030000
00000000
00011000
00000000
,
00000200
00000000
00000000
00000000
,
00000300
00000000
00000110
00000000
,
00000002
00000000
00000000
00000000
,
00000003
00000000
00001001
00000000
,
00000000
00000000
00000000
00000000
,
00000000
00000000
00000000
00000000
,
00000001
00000100
00000001
00000000
,
00000100
00000010
00000100
00000000
,
00000010
00001000
00000010
00000000
,
00001000
00000010
00010000
00000000
,
00001000
00010000
00001000
00000000
,
01000000
00010000
01000000
00000000
,
00100000
00000000
10010000
00000000
,
01000000
00000000
10010000
00000000
,
10000000
00000000
01000000
00000000
,
00010000
00001000
00000010
00000000
,
00000010
00000000
00001001
00000000
,
00000100
00000000
00001001
00000000
,
00000001
00000000
00000100
00000000
,
00001000
00010000
00100000
00000000
,
10000000
00010000
10000000
01000000
,
00100000
00000000
00001000
00000000
,
00010000
00001000
01000000
00000000
,
00001000
00010000
00000100
00000000
,
00010000
00001000
00010000
00000010
,
00001000
00000000
00000001
00000000
,
00001000
00000100
00010000
00000000
,
00000100
00001000
00000010
00000000
,
00001001
00000000
00000000
00000000
,
00000000
00000000
00000000
00000000
;
#NOTES:
     dance-double:
     :
     Medium:
     10:
     :
00000000
00000000
00000000
00000000
,
00000000
00000000
00000000
00000000
,
00000000
00000000
00000000
00000000
,
00000000
00000000
00000000
00000000
,
00000000
00000000
00000000
00000000
,
00000000
00000000
00000000
00000000
,
00000000
00000000
00000000
00000000
,
00001000
00010000
00001000
00000000
00100000
00010000
00100000
00000000
,
00001000
00010000
00001000
00010000
00000100
00001000
00000100
00000000
,
00001000
00000010
00000100
00000000
00001000
00010000
00001000
00000000
,
00020000
00130000
00020000
00031000
,
00010000
00001000
00010000
00000000
00000010
00001000
00000010
00000000
,
00010000
00001000
00010000
00001000
01000000
00010000
01000000
00000000
,
00010000
00100000
01000000
00000000
00010000
00001000
00010000
00000000
,
00002000
00003010
00002000
00013000
,
00001000
00100000
00010000
01000000
00100000
00000000
10100000
00000000
,
10000000
01000000
00010000
01000000
10000000
00000000
10010000
00000000
,
00010000
01000000
00100000
00000000
10000000
01000000
00100000
00000000
,
00020000
00000000
00130000
00000000
00001000
00010000
00001000
00000000
,
00010000
00000010
00001000
00000100
00000010
00000000
00000011
00000000
,
00000001
00000100
00001000
00000100
00000001
00000000
00001001
00000000
,
00001000
00000100
00000010
00000000
00000001
00000100
00000010
00000000
,
00002000
00000000
00003010
00000000
00010000
00001000
00010000
00000000
,
00001000
00100000
00010000
01000000
,
00010000
00100000
10000000
00100000
00010000
00000000
10000000
00000000
,
00100000
01000000
00010000
00100000
,
00001000
00010000
00000100
00010000
00001000
00000000
00010000
00000000
,
00000100
00001000
00000010
00000100
,
00000001
00001000
00000010
00000100
00000001
00000000
00001000
00000000
,
00000100
00010000
00001000
00010000
,
00001000
00100000
00010000
00000000
00100000
00010000
10000000
00000000
,
00010000
00100000
01000000
00000000
01000000
00100000
00010000
00000000
,
01000000
00100000
01000000
00010000
01000000
00001000
00010000
00000000
,
00001000
00100000
01000000
00000000
01000000
00100000
00001000
00000000
,
00011000
00010100
00001100
00001010
,
00001000
00000010
00000100
00000000
00000100
00000010
00001000
00000000
,
00000100
00000010
00000100
00001000
00000100
00010000
00001000
00000000
,
00010000
00000010
00000100
00000000
00000100
00000010
00010000
00000000
,
00011000
01001000
01010000
00110000
,
00010000
01000000
10000000
01000000
00010000
00000000
10000000
00000000
,
00010000
00100000
10000000
00100000
00010000
00000000
10000000
00000000
,
00010000
00100000
00001000
00000000
00010000
00000100
00001000
00000000
,
00000010
00010000
00001000
00010000
00000200
00000000
00000300
00000000
,
00001000
00000100
00000001
00000100
00001000
00000000
00000001
00000000
,
00001000
00000010
00000001
00000010
00001000
00000000
00000001
00000000
,
00001000
00000010
00010000
00000000
00001000
01000000
00010000
00000000
,
00100000
00001000
00010000
00001000
02000000
00000000
03000000
00000000
,
00020000
00000000
10030000
00000000
,
20000000
01000000
31000000
00000000
,
02000000
00000000
03010000
00000000
,
00020000
00001000
00031000
00000000
,
00002000
00000000
00003010
00000000
,
00000020
00000001
00000031
00000000
,
00000002
00000000
00001003
00000000
,
00002000
00000100
00003100
00000000
,
00000220
00000000
00000000
00000000
,
00000000
00000000
00000000
00000330
,
00000001
00000010
00000001
00000010
00000100
00010000
00000100
00000000
,
00010000
00001000
00010000
00001000
00100000
00010000
00100000
00000000
,
00010000
01000000
00010000
01000000
00100000
10000000
00100000
00000000
,
01000000
00010000
01000000
00001000
00010000
00001000
00010000
00000000
,
00000100
00001000
00000010
00001000
00000100
00000010
00000001
00000000
,
00000001
00000100
00001000
00000000
00020000
00000000
00030000
00000000
,
00010000
00001000
00100000
00000000
00010000
00100000
01000000
00000000
,
10000000
00100000
01000000
00000000
00100000
00010000
00001000
00000000
,
00020000
00100000
00031000
00011000
,
00002000
00000010
00013000
00011000
,
00001000
00010000
00000100
00000000
00001000
00000100
00000010
00000000
,
00000001
00000100
00000010
00000000
00000100
00001000
00010000
00000000
,
00002000
00000100
00013000
00011000
,
00020000
01000000
00031000
00011000
,
00001000
00010000
01000000
00000000
01000000
10000000
00010000
00000000
,
10000000
00100000
01000000
00010000
10000000
01000000
00100000
00000000
,
00010000
00110000
00100000
00101000
,
00001000
00010000
00001000
00000000
00010000
00001000
00010000
00000000
,
00010000
00001000
00000100
00000000
00000100
00000001
00001000
00000000
,
00000001
00000010
00000100
00001000
00000001
00000100
00000010
00000000
,
00001000
00001010
00000010
00010010
,
00010000
00001000
00010000
00001000
01000000
00000000
00100000
00000000
,
01100000
00000000
00000000
00000000
,
00000000
00000000
00000000
00000000
;
#NOTES:
     dance-double:
     :
     Hard:
     13:
     :
00000000
00000000
00000000
00000000
,
00000000
00000000
00000000
00000000
,
00000000
00000000
00000000
00000000
,
00000000
00000000
00000000
00000000
,
00000000
00000000
00000000
00000000
,
00000000
00000000
00000000
00000000
,
00000000
00000000
00000000
00000000
,
00010000
00001000
00000010
00000100
00001000
00000010
00000100
00000010
,
00001000
00000100
00000010
00001000
00010000
00001000
00000100
00001000
,
00010000
00100000
01000000
00010000
00100000
01000000
00100000
00010000
,
01000000
00000000
00000000
00100000
00000000
00000000
00100000
00000000
00010000
00000000
00000000
00001000
00000000
00000000
00001000
00000000
,
00000100
00000010
00001000
00000100
00000010
00000100
00010000
00001000
,
00100000
01000000
00010000
01000000
00100000
00001000
00010000
00100000
,
01000000
00010000
00100000
01000000
00010000
00001000
00000010
00001000
,
00010000
00000000
00000000
00001000
00000000
00000000
00001000
00000000
00000100
00000000
00000000
00000001
00000000
00000000
00000001
00000000
,
00001000
00000000
00000100
00000010
00000000
00000100
00000010
00000000
00000001
00001000
00000000
00000001
00001000
00000000
00000000
00000000
,
00000001
00000000
00000100
00000010
00000000
00000100
00000010
00000000
00000100
00001000
00000000
00000100
00001000
00000000
00000000
00000000
,
00010000
00000000
00001000
00100000
00000000
00001000
00100000
00000000
00010000
00100000
00000000
00010000
00100000
00000000
00000000
00000000
,
00010000
00000000
00000000
01000000
00000000
00000000
01000000
00000000
00100000
00000000
00000000
10000000
00000000
00000000
10000000
00000000
,
01000000
00000000
00010000
00001000
00000000
00001000
00000010
00000000
00000001
00000000
00000100
00000000
00000110
00000000
00000000
00000000
,
00000001
00000000
00000100
00001000
00000000
00001000
00010000
00000000
00100000
00000000
01000000
00000000
01100000
00000000
00000000
00000000
,
10000000
00000000
01000000
00010000
00000000
00010000
00001000
00000000
00010000
00000000
00100000
00000000
00010000
00000000
00001000
00000000
,
00000100
00000000
00000000
00000001
00000000
00000000
00000011
00000000
00000010
00000000
00000000
00000100
00000000
00000000
00001100
00000000
,
00000001
00000010
00000001
00000010
00001000
00000010
00001000
00000010
,
00001000
00010000
00001000
00000100
00001000
00010000
00001000
00000100
,
00001000
00010000
00001000
00010000
00100000
10000000
00100000
10000000
,
01000000
00010000
01000000
10000000
01000000
00010000
01000000
00000000
,
20000000
00000000
32000000
00000000
03100000
00010000
00001000
00000000
,
00000200
00000000
00000320
00000000
00000031
00000100
00001000
00000100
,
00000002
00000000
00000023
00000000
00001030
00010000
00001000
00000000
,
00010000
00100000
00010000
00001000
00010000
01000000
00010000
00000000
,
00001000
00000000
00010000
00000000
00001000
00100000
00000000
00100000
00010000
00000000
00010000
01000000
00000000
01000000
00100000
00000000
,
10000000
00000000
01000000
00000000
00100000
00010000
00000000
00010000
01000000
00000000
01000000
00001000
00000000
00001000
00010000
00000000
,
00001000
00000000
00010000
00000000
00000100
00001000
00000000
00001000
00000010
00000000
00000010
00000100
00000000
00000100
00000001
00000000
,
00001000
00000100
00000001
00000100
00001000
00000100
00010000
00000100
,
00010000
00000000
00001000
00000000
00010000
00000010
00000000
00000010
00001000
00000000
00001000
00000100
00000000
00000100
00000010
00000000
,
00000001
00000000
00000100
00000000
00000010
00001000
00000000
00001000
00000100
00000000
00000100
00010000
00000000
00010000
00001000
00000000
,
00010000
00000000
00001000
00000000
01000000
00010000
00000000
00010000
00100000
00000000
00100000
01000000
00000000
01000000
10000000
00000000
,
00010000
01000000
10000000
01000000
00010000
01000000
00001000
01000000
,
00100000
10000000
01000000
00010000
00001000
00000010
00000100
00010000
,
00001000
00010000
00100000
00010000
00001000
00010000
01000000
00010000
,
00000100
00000010
00000001
00000100
00001000
00000100
00000001
00001000
,
00000100
00000010
00000000
00000100
00000010
00000000
00000001
00001000
00000000
00000001
00001000
00000000
00001001
00000000
00000000
00000000
,
00001000
00000001
00000100
00001000
00010000
00100000
01000000
00001000
,
00010000
00001000
00000010
00001000
00010000
00001000
00000100
00001000
,
01000000
00100000
10000000
01000000
00010000
01000000
10000000
00010000
,
01000000
00100000
00000000
01000000
00100000
00000000
10000000
00010000
00000000
10000000
00010000
00000000
10010000
00000000
00000000
00000000
,
20000000
30000000
11000000
00000000
,
00000000
00000000
01000000
00000000
00000000
00100000
00000000
00000000
00110000
00000000
00000000
00000000
00000000
00000000
00000000
00000000
,
00020000
01030000
01001000
00000000
,
00000000
00000000
00001000
00000000
00000000
00010000
00000000
00000000
00011000
00000000
00000000
00000000
00000000
00000000
00000000
00000000
,
00002000
00003000
00000110
00000000
,
00000000
00000000
00000001
00000000
00000000
00001000
00000000
00000000
00000110
00000000
00000000
00000000
00000000
00000000
00000000
00000000
,
00000002
00001003
00000110
00000000
,
00000000
00000000
00000001
00000000
00000000
00001000
00000000
00000000
00000110
00000000
00000000
00000000
00000000
00000000
00000000
00000000
,
00000002
00000103
00000200
00001300
,
00002000
00013000
00020000
00130000
,
10000000
01000000
00100000
00010000
01000000
10000000
01000000
00010000
,
00100000
00001000
00010000
00001000
00000010
00001000
00010000
00000000
,
00001000
00000100
00000010
00001000
00000100
00000001
00000100
00001000
,
00000010
00000100
00001000
00010000
00100000
01000000
00100000
00000000
,
10000000
01000000
00100000
00010000
01000000
00100000
00010000
00001000
,
00000100
00000010
00001000
00000100
00000010
00001000
00000010
00000000
,
00000001
00000100
00001000
00010000
00100000
00010000
00001000
00010000
,
01000000
10000000
00010000
00100000
01000000
10000000
01000000
00010000
,
01000000
00100000
00001000
00010000
00001000
00000010
00001000
00010000
,
00001000
00000000
00000000
00000100
00000000
00000000
00000100
00000000
00000001
00000000
00000000
00000010
00000000
00000000
00000010
00000000
,
00001000
00010000
01000000
00010000
00001000
00000010
00001000
00010000
,
00100000
00010000
00001000
00000100
00001000
00010000
00100000
10000000
,
00010000
01000000
10000000
01000000
00010000
10000000
01000000
00010000
,
00001000
00000000
00000000
00000010
00000000
00000000
00000010
00000000
00001000
00000000
00000000
00010000
00000000
00000000
00010000
00000000
,
00001000
00000000
00000100
00000000
00000001
00000000
00000010
00000000
00000100
00001000
00000000
00000100
00001000
00000000
00000000
00000000
,
00000001
00000000
00000100
00000000
00000010
00000000
00010000
00000000
00001000
00010000
00000000
00001000
00010000
00000000
00000000
00000000
,
00001000
00000000
01000000
00000000
00010000
00000000
00100000
00000000
01000000
10000000
00000000
01000000
00100000
00000000
00010000
00000000
,
10000000
00000000
01000000
00100000
00000000
00000000
00100000
00000000
00001000
00000000
00010000
00001000
00000000
00000000
00001000
00000000
,
00010000
00000000
00000100
00001000
00000000
00000100
00001000
00000000
00000100
00000010
00000000
00000100
00000010
00000000
00000000
00000000
,
00000001
00000000
00000100
00000010
00000000
00000100
00000010
00000000
00010000
00000010
00000000
00010000
00001000
00000000
00000000
00000000
,
00010000
00000000
00001000
00100000
00000000
00010000
00100000
00000000
00010000
00000000
01000000
00100000
00000000
01000000
00100000
00000000
,
10000000
00000000
01000000
00100000
00000000
00000000
01000000
00000000
00010000
00000000
00000000
00001000
00000000
00000000
00000010
00000000
,
00000110
00000000
00000000
00000000
,
00000000
00000000
00000000
00000000
;
