
//----- song ID: curr -----//
#TITLE:Curry Up;
#ARTIST:OR-IF-IS;
#BANNER:Curry Up.png;
#BACKGROUND:Curry Up-bg.png;
#CDTITLE:./CDTitles/DDR (2010).png;
#MUSIC:Curry Up.ogg;
#SAMPLESTART:9.455;
#SAMPLELENGTH:15;
#BPMS:0=165;
#STAGE:1;
#NOTES:
     dance-single:
     :
     Beginner:
     2:
     :
0000
0000
0000
0000
,
0000
0000
0000
0000
,
0000
0000
0000
0000
,
0000
0000
0000
0000
,
0000
0000
0000
0000
,
0000
0000
0000
0000
,
0000
0000
0000
0000
,
0001
0000
0000
0000
,
0001
0000
0000
0000
,
1000
0000
0000
0000
,
1000
0000
0000
0000
,
0010
0000
0000
0000
,
0010
0000
0000
0000
,
0100
0000
0000
0000
,
0100
0000
0000
0000
,
0001
0000
0000
0000
,
0010
0000
0000
0000
,
0100
0000
0000
0000
,
1000
0000
0000
0000
,
0100
0000
0000
0000
,
0010
0000
0000
0000
,
0001
0000
0000
0000
,
1000
0000
0000
0000
,
0001
0000
0001
0000
,
0100
0000
0000
0000
,
0010
0000
1000
0000
,
1000
0000
0000
0000
,
1000
0000
0001
0000
,
0001
0000
0000
0000
,
0100
0000
0010
0000
,
0010
0000
0000
0000
,
1001
0000
0000
0000
,
1000
0000
0001
0000
,
1001
0000
0000
0000
,
0100
0000
0010
0000
,
0110
0000
0000
0000
,
0010
0000
0100
0000
,
0110
0000
0000
0000
,
0001
0000
0000
0000
,
2000
0000
0000
0000
,
3000
0000
0000
0000
,
0200
0000
0000
0000
,
0300
0000
0000
0000
,
0020
0000
0000
0000
,
0030
0000
0000
0000
,
0002
0000
0000
0000
,
0003
0000
0000
0000
,
1000
0000
0100
0000
,
1000
0000
0000
0000
,
0001
0000
0100
0000
,
0001
0000
0000
0000
,
1000
0000
0010
0000
,
1000
0000
0000
0000
,
0001
0000
0010
0000
,
0001
0000
0000
0000
,
1000
0000
0010
0000
,
0100
0000
0000
0000
,
0001
0000
0100
0000
,
0010
0000
0000
0000
,
1000
0000
0100
0000
,
0010
0000
0001
0000
,
0100
0000
0010
0000
,
2000
0000
0000
3000
,
0000
0000
0000
0000
;
#NOTES:
     dance-single:
     :
     Easy:
     6:
     :
0000
0000
0000
0000
,
0000
0000
0000
0000
,
0000
0000
0000
0000
,
0000
0000
0000
0000
,
0000
0000
0000
0000
,
0000
0000
0000
0000
,
0000
0000
0000
0000
,
0001
0000
1000
0001
,
0100
0000
0010
1000
,
0001
0000
1000
0100
,
0010
0000
0001
1000
,
0010
0000
0100
0001
,
1000
0000
0001
0010
,
0100
0000
1000
0010
,
0100
0000
0001
0000
,
1000
0000
0001
0100
,
1000
0000
1000
0100
,
0001
0000
0001
0010
,
0100
0000
1000
0000
,
0001
0000
1000
0100
,
0001
0000
0001
0100
,
1000
0000
1000
0010
,
0200
0000
0300
0000
,
0001
1000
0010
0100
,
0001
1000
0100
1000
,
0001
0100
0001
0010
,
0100
1000
0001
0000
,
1000
0001
0010
0100
,
1000
0001
0100
0001
,
1000
0100
1000
0010
,
0100
0001
1000
0000
,
0001
0000
0000
0001
0000
0000
0000
0000
,
1000
0010
0100
0000
,
0010
0000
0000
0010
0000
0000
0000
0000
,
0010
0100
0001
0000
,
1000
0000
0000
1000
0000
0000
0000
0000
,
0001
1000
0010
0000
,
0100
0000
0000
0100
0000
0000
0000
0000
,
0110
0000
0000
0000
,
0002
0000
0000
0000
,
0023
0000
0000
0000
,
0230
0000
0000
0000
,
2300
0000
0000
0000
,
3020
0000
0000
0000
,
0230
0000
0000
0000
,
0302
0000
0000
0000
,
1003
0000
0000
0000
,
0001
0100
0001
0010
,
0100
1000
0001
0100
,
0010
0100
0001
1000
,
0100
0000
0010
0001
,
1000
0010
0100
0010
,
1000
0001
0010
0100
,
1000
0001
0100
0010
,
1000
0000
0001
0000
,
1000
0100
1000
0100
,
0010
0001
0100
0010
,
0100
0001
0010
0100
,
1000
0000
0001
0000
,
0100
1001
0100
1001
,
0001
0010
0100
1000
,
0010
1001
0010
1001
,
1000
0001
0100
0120
,
0000
0000
0000
0000
,
0030
0000
0000
0000
,
0000
0000
0000
0000
;
#NOTES:
     dance-single:
     :
     Medium:
     10:
     :
0000
0000
0000
0000
,
0000
0000
0000
0000
,
0000
0000
0000
0000
,
0000
0000
0000
0000
,
0000
0000
0000
0000
,
0000
0000
0000
0000
,
0000
0000
0002
0023
,
0230
1000
0320
0032
,
0203
0010
0302
2003
,
3200
0010
2300
3002
,
0023
0100
0032
0203
,
0302
1000
0023
0230
,
2300
0010
3200
0320
,
0032
0100
0023
0230
,
2300
0010
0001
0100
,
3002
0010
2003
3020
,
0230
1000
0320
2030
,
3200
0001
2300
3002
,
0203
0010
0001
0010
,
0302
1000
0023
0230
,
2300
0010
3002
0203
,
0320
0001
0230
0302
,
2003
0000
0000
3000
,
0001
0000
0100
0010
0100
0000
0001
0000
,
1000
0000
0010
0100
0010
0000
1000
0000
,
0001
0000
1000
0100
0010
0000
0001
0000
,
1000
0000
0001
0100
0010
0000
1000
0000
,
0100
0000
1000
0001
1000
0000
0010
0000
,
0100
0000
0001
1000
0001
0000
0010
0000
,
0100
0000
1000
0001
0100
0000
0010
0000
,
0100
0000
0001
1000
0100
0000
0010
0000
,
0002
0000
0003
1001
0000
0000
0000
0000
,
1000
0000
0001
0100
0010
0000
1000
0000
,
0200
0000
0300
0110
0000
0000
0000
0000
,
0100
0000
1000
0001
1000
0000
0010
0000
,
0200
0000
0300
1001
0000
0000
0000
0000
,
0001
0000
0100
0000
0001
1000
0100
0000
,
0020
0000
0030
0011
0000
0000
0000
0000
,
2002
0000
3003
0000
,
0002
0000
0200
0003
,
0020
0300
0002
0030
,
0020
0003
2000
0030
,
0200
3000
0020
0300
,
2000
0030
0020
3000
,
0002
0030
0200
0003
,
2000
0300
0200
3000
,
0020
0000
0330
0000
,
2000
0100
3002
0023
,
0230
0001
2300
3020
,
0230
1000
0302
0023
,
0230
1000
0320
0032
,
2003
0010
3200
0320
,
0032
0100
2003
3200
,
0320
1000
0032
0203
,
0320
0001
0100
1000
,
0230
0001
0320
2030
,
3200
0001
2300
3020
,
0230
1000
0302
0023
,
0230
1000
0010
1300
,
1001
0101
1001
0010
,
1001
1100
1001
0010
,
2000
3200
0320
0032
,
1003
0100
1000
0100
1000
0010
0200
0000
,
0000
0000
0000
0000
,
0300
0000
0000
0000
,
0000
0000
0000
0000
;
#NOTES:
     dance-single:
     :
     Hard:
     13:
     :
0000
0000
0000
0000
,
0000
0000
0000
0000
,
0000
0000
0000
0000
,
0000
0000
0000
0000
,
0000
0000
0000
0000
,
0000
0000
0000
0000
,
2002
0000
0003
3000
,
1100
0000
0011
0000
0001
0100
1000
0000
,
1010
0000
0101
0000
0001
0010
1000
0000
,
1100
0000
0011
0000
0001
0100
1000
0000
,
1010
0000
0101
0000
0001
0010
1000
0000
,
1100
0000
1001
0000
1000
0010
0001
0000
,
0101
0000
1010
0000
1000
0100
0001
0000
,
0011
0000
1100
0000
1000
0010
0001
0000
,
0101
0000
1010
0000
1000
0100
0001
0000
,
0011
0000
0010
0100
1000
0010
0001
0000
,
0101
0000
0100
0010
1000
0100
0001
0000
,
0011
0000
0010
0100
1000
0010
0001
0000
,
0101
0000
0100
0010
1000
0001
0010
0000
,
1100
0000
0100
0010
0001
0100
1000
0000
,
1010
0000
0010
0100
0001
0010
1000
0000
,
1100
0000
0100
0010
0001
0100
1000
0000
,
2020
0000
0000
3030
,
0001
0000
1000
0000
0100
0000
0010
0001
0010
0000
0100
0000
1000
0000
0000
0000
,
0001
0000
0100
0000
0010
0000
1000
0010
1000
0000
0100
0000
0010
0000
0000
0000
,
0001
0000
1000
0000
0001
0000
0010
0001
0010
0000
0100
0000
1000
0000
0000
0000
,
0010
0000
1000
0000
0001
0000
0100
0010
0100
0000
0001
0000
1000
0000
0000
0000
,
1000
0000
0001
0000
0010
0000
0100
1000
0100
0000
0010
0000
0001
0000
0000
0000
,
1000
0000
0010
0000
0100
0000
0001
0010
0001
0000
0010
0000
0100
0000
0000
0000
,
1000
0000
0001
0000
0100
0000
0010
0100
0010
0000
1000
0000
0001
0000
0000
0000
,
1000
0000
0100
0000
0010
0000
0001
1000
0001
0000
0100
0000
0010
0000
0000
0000
,
0200
0000
0301
1001
0000
1000
0100
0010
,
1000
0010
0001
0100
0010
0000
2000
0000
,
3002
0000
0103
0110
0000
0010
0100
1000
,
0100
0001
0010
0100
1000
0001
0100
0000
,
0020
0000
0130
1010
0000
1000
0001
0010
,
0100
0001
0100
1000
0010
0000
0200
0000
,
0302
0000
0013
0011
0000
0001
0010
0100
,
1000
0001
0000
0000
0000
0000
0000
0000
0000
0000
0000
0000
0000
0000
0000
0000
0000
0000
0000
0000
0000
0000
0000
0000
,
0001
0000
1000
0000
0100
0000
0020
0000
0000
0030
2000
0000
0000
3000
0010
0000
,
0002
0000
0000
0003
0100
0000
0020
0000
0000
0030
0002
0000
0000
0003
0010
0000
,
1000
0000
0100
0000
0010
0000
0002
0000
0000
0003
0200
0000
0000
0300
0010
0000
,
0002
0000
0000
0003
0010
0000
2000
0000
0000
3000
0200
0000
0000
0300
0001
0000
,
0100
0000
1000
0000
0010
0000
0200
0000
0000
0300
2000
0000
0000
3000
0100
0000
,
0002
0000
0000
0003
0010
0000
0200
0000
0000
0300
2000
0000
0000
3000
0010
0000
,
0001
0000
0010
0000
1000
0000
0200
0000
0000
0300
0020
0000
0000
0030
1000
0000
,
0010
0002
0000
0003
0000
0000
0000
0000
,
1000
0100
0001
0000
0011
0000
1100
0000
,
1000
0010
0001
0000
0101
0000
1010
0000
,
1000
0100
0001
0100
1000
0010
0001
0010
,
1000
0100
1100
0011
,
0001
0100
1000
0000
1010
0000
0101
0000
,
0001
0010
1000
0000
1100
0000
0011
0000
,
0001
0100
1000
0100
0001
0010
1000
0010
,
0001
0100
0010
1000
,
0200
0000
1000
0000
0001
0000
1300
0020
,
0001
0000
1000
0000
0001
0000
1030
0200
,
0001
0000
1000
0000
0001
0000
1300
0020
,
0001
1000
0001
1030
,
0110
0000
1001
0000
1000
0100
0001
0000
,
0110
0000
1001
0000
0001
0100
1000
0000
,
0110
1001
0110
1001
,
0001
0100
0001
0100
0001
0010
0200
0000
,
0000
0000
0000
0000
,
0300
0000
0000
0000
,
0000
0000
0000
0000
;
#NOTES:
     dance-double:
     :
     Easy:
     6:
     :
00000000
00000000
00000000
00000000
,
00000000
00000000
00000000
00000000
,
00000000
00000000
00000000
00000000
,
00000000
00000000
00000000
00000000
,
00000000
00000000
00000000
00000000
,
00000000
00000000
00000000
00000000
,
00000000
00000000
00000000
00000000
,
00001000
00000000
00010000
00000100
,
00000010
00000000
00000100
00001000
,
00000010
00000000
00010000
00001000
,
00010000
00000000
00001000
01000000
,
00100000
00000000
01000000
00010000
,
00100000
00000000
01000000
10000000
,
01000000
00000000
00100000
00001000
,
00010000
00000000
00001000
00000000
,
00010000
00000000
00000010
00001000
,
00000100
00000000
00000010
00000001
,
00000100
00000000
00000010
00001000
,
00000100
00000000
00010000
00000000
,
00001000
00000000
00100000
00010000
,
01000000
00000000
00100000
10000000
,
01000000
00000000
00100000
00010000
,
02000000
00000000
03000000
00000000
,
00100000
10000000
00010000
00100000
,
01000000
10000000
01000000
00010000
,
00001000
00010000
00001000
00000010
,
00000001
00001000
00000001
00000000
,
00000001
00000010
00000100
00001000
,
00000001
00000100
00001000
00010000
,
00001000
00010000
01000000
10000000
,
00010000
01000000
00100000
00000000
,
10000000
00000000
00000000
10000000
00000000
00000000
00000000
00000000
,
01000000
00100000
00001000
00000000
,
00010000
00000000
00000000
00010000
00000000
00000000
00000000
00000000
,
00001000
00010000
00000100
00000000
,
00001000
00000000
00000000
00001000
00000000
00000000
00000000
00000000
,
00001000
00000010
00000100
00000000
,
00000001
00000000
00000000
00000001
00000000
00000000
00000000
00000000
,
00000200
00000000
00000300
00000000
,
00000002
00000000
00000000
00000000
,
00000023
00000000
00000000
00000000
,
00002030
00000000
00000000
00000000
,
00023000
00000000
00000000
00000000
,
00032000
00000000
00000000
00000000
,
00003200
00000000
00000000
00000000
,
00000302
00000000
00000000
00000000
,
00000013
00000000
00000000
00000000
,
00000001
00001000
00000010
00000100
,
00000010
00001000
00000001
00000010
,
00000100
00001000
00000010
00010000
,
00001000
00000000
00010000
00001000
,
01000000
00010000
00100000
01000000
,
10000000
00100000
01000000
00010000
,
00100000
00001000
00010000
00000010
,
00001000
00000000
00000001
00000000
,
00000001
00000100
00000001
00000100
,
00001000
00010000
00001000
00010000
,
00100000
10000000
00100000
10000000
,
00010000
00000000
10000000
00000000
,
10000000
01000000
10000000
01000000
,
00010000
00001000
00010000
00001000
,
00000010
00000001
00000010
00000001
,
00000100
00001000
00010000
00012000
,
00000000
00000000
00000000
00000000
,
00003000
00000000
00000000
00000000
,
00000000
00000000
00000000
00000000
;
#NOTES:
     dance-double:
     :
     Medium:
     9:
     :
00000000
00000000
00000000
00000000
,
00000000
00000000
00000000
00000000
,
00000000
00000000
00000000
00000000
,
00000000
00000000
00000000
00000000
,
00000000
00000000
00000000
00000000
,
00000000
00000000
00000000
00000000
,
00000000
00000000
00002000
00023000
,
00230000
00000000
00320000
00032000
,
00003020
00000000
00000230
00020300
,
00032000
00000000
00003200
00000320
,
00002030
00000000
00003002
00000023
,
00002030
00000000
00023000
00230000
,
02300000
00000000
03020000
20030000
,
32000000
00000000
03020000
00032000
,
00003200
00000000
00000010
00000000
,
00000302
00000000
00000023
00000230
,
00020300
00000000
00032000
00003200
,
00000320
00000000
00020030
00032000
,
00003020
00000000
00000001
00000000
,
00000230
00000000
00020300
00032000
,
00023000
00000000
00230000
20300000
,
32000000
00000000
03020000
00031000
,
00022000
00000000
00000000
00033000
,
00010000
00000000
00000010
00000000
00001000
00000100
00000010
00000000
,
00000001
00000000
00001000
00000000
00000010
00000100
00000010
00000000
,
00001000
00000000
00000001
00000000
00000010
00000100
00001000
00000000
,
00000010
00000000
00010000
00000000
00001000
00010000
00001000
00000000
,
01000000
00000000
00010000
00000000
10000000
01000000
00100000
00000000
,
00010000
00000000
01000000
00000000
00001000
00010000
00001000
00000000
,
00010000
00000000
00000100
00000000
00000010
00000001
00001000
00000000
,
00000010
00000000
00000100
00000000
00000001
00001000
00000001
00000000
,
00000020
00000000
00000030
00000110
00000000
00000000
00000000
00000000
,
00010000
00000000
00001000
00000000
00100000
00010000
01000000
00000000
,
00200000
00000000
00300000
01100000
00000000
00000000
00000000
00000000
,
00001000
00000000
00010000
00000000
00000100
00001000
00000001
00000000
,
00000200
00000000
00000300
00000110
00000000
00000000
00000000
00000000
,
00010000
00000000
00001000
00000000
01000000
00010000
10000000
00000000
,
02000000
00000000
03000000
01100000
00000000
00000000
00000000
00000000
,
20020000
00000000
30030000
00000000
,
20000000
00000000
02000000
30000000
,
00020000
03000000
00002000
00030000
,
00000200
00003000
00002000
00000300
,
00020000
00003000
00200000
00030000
,
00020000
00300000
00002000
00030000
,
00000020
00003000
00000200
00000030
,
00020000
00000300
00002000
00030000
,
00000200
00000000
00003300
00000000
,
00000002
00001000
00000023
00000230
,
00002300
00000010
00003200
00020300
,
00032000
00100000
00023000
00230000
,
02300000
00010000
03200000
20300000
,
30020000
00100000
20030000
32000000
,
03200000
00001000
00320000
02030000
,
03002000
00010000
00203000
02300000
,
03020000
00001000
00031000
00000000
,
00020000
00000000
00032000
00023000
,
00230000
01000000
00320000
00032000
,
00003020
00000100
00002030
00023000
,
00230000
01000000
00320000
00032000
,
00003200
00000010
00002300
00023000
,
02030000
00100000
03020000
00032000
,
00003200
00000010
00002300
00023000
,
00031000
00010000
00001000
00010000
00000100
00001000
00000010
00000000
,
00000000
00000000
00000000
00000000
;
#NOTES:
     dance-double:
     :
     Hard:
     12:
     :
00000000
00000000
00000000
00000000
,
00000000
00000000
00000000
00000000
,
00000000
00000000
00000000
00000000
,
00000000
00000000
00000000
00000000
,
00000000
00000000
00000000
00000000
,
00000000
00000000
00000000
00000000
,
00022000
00000000
00030000
00003000
,
00010000
01000000
10000000
00110000
,
00001000
00000010
00000001
00001100
,
00010000
01000000
10000000
00110000
,
00001000
00000010
00000100
00010000
,
00001000
00000100
00000001
00001010
,
00010000
00100000
10000000
01010000
,
00001000
00000100
00000001
00001010
,
00010000
00100000
01000000
00001000
,
00010000
01000000
10000000
00000000
01000000
00000000
00110000
00000000
,
00001000
00000010
00000001
00000000
00000010
00000000
00001100
00000000
,
00010000
01000000
10000000
00000000
01000000
00000000
00110000
00000000
,
00001000
00000010
00000001
00000000
00000010
00000000
00001000
00000000
,
00010000
00100000
10000000
00000000
00100000
00000000
01010000
00000000
,
00001000
00000100
00000001
00000000
00000100
00000000
00001010
00000000
,
00010000
00100000
10000000
00000000
00100000
00000000
01010000
00000000
,
00002000
00000000
00000000
00003000
,
00010000
00001000
00000010
00000000
00000001
00000100
00001000
00000000
,
00000100
00000001
00000010
00000000
00000100
00010000
00001000
00000000
,
00001000
00010000
00100000
00000000
10000000
01000000
00010000
00000000
,
01000000
10000000
00100000
00000000
01000000
00001000
00010000
00000000
,
00010000
00000100
00000010
00000000
00001000
00000010
00000001
00000000
,
00000001
00000100
00001000
00000000
00000100
00000010
00010000
00000000
,
00001000
00100000
01000000
00000000
00010000
01000000
10000000
00000000
,
10000000
00100000
00010000
00000000
00001000
00010000
01000000
00000000
,
11000000
00000000
00100000
00001000
00000000
00010000
00000100
00000000
,
00000011
00000000
00000100
00010000
00000000
00001000
01000000
00000000
,
10100000
00000000
01000000
00001000
00000000
00010000
00000100
00000000
,
00000110
00000000
00010000
00001000
00000000
01000000
00100000
00000000
,
10000000
00000000
01000000
00010000
00000000
00001000
00000010
00000000
,
00000001
00000000
00000100
00001000
00000000
00010000
00100000
00000000
,
10000000
00000000
01000000
00010000
00000000
00001000
00000010
00000000
,
00000002
00000000
00000000
00000003
,
00000001
00000000
00000100
00000000
00001000
00000000
00020000
00000000
00000000
00030000
00200000
00000000
00000000
00300000
00010000
00000000
,
00002000
00000000
00000000
00003000
00010000
00000000
02000000
00000000
00000000
03000000
20000000
00000000
00000000
30000000
00100000
00000000
,
00010000
00000000
00001000
00000000
00010000
00000000
02000000
00000000
00000000
03000000
00200000
00000000
00000000
00300000
00001000
00000000
,
00000020
00000000
00000000
00000030
00000100
00000000
00020000
00000000
00000000
00030000
00002000
00000000
00000000
00003000
00000100
00000000
,
00000001
00000000
00000010
00000000
00001000
00000000
00020000
00000000
00000000
00030000
00000020
00000000
00000000
00000030
00000100
00000000
,
00002000
00000000
00000000
00003000
00010000
00000000
00200000
00000000
00000000
00300000
02000000
00000000
00000000
03000000
00001000
00000000
,
00010000
00000000
01000000
00000000
10000000
00000000
00200000
00000000
00000000
00300000
00020000
00000000
00000000
00030000
00001000
00000000
,
00010000
00010000
00000000
00000000
00000000
00000000
00000000
00000000
,
00001000
00000100
00000001
00000000
00000011
00000000
00001100
00000000
,
00010000
01000000
10000000
00000000
10100000
00000000
01010000
00000000
,
00001000
00000100
00000001
00000000
00000011
00000000
00001100
00000000
,
00010000
01000000
10000000
00000000
11000000
00000000
00110000
00000000
,
00001000
00000010
00000001
00000000
00000101
00000000
00001010
00000000
,
00010000
00100000
10000000
00000000
11000000
00000000
00110000
00000000
,
00001000
00000010
00000001
00000000
00000101
00000000
00001010
00000000
,
00010000
00100000
10000000
00000000
01000000
00000000
00100000
00000000
,
00002000
00023000
02030000
23000000
,
30200000
00320000
00032000
00003020
,
00000032
00000203
00002300
00023000
,
00032000
00003020
00000230
00020300
,
00031000
00000000
00011000
00000000
00010000
00100000
01000000
00000000
,
00001000
00000000
00011000
00000000
00010000
00000100
00000010
00000000
,
00001000
00000000
00011000
00000000
00010000
00100000
01000000
00000000
,
00001000
00010000
01000000
10000000
00100000
00010000
00002000
00000000
,
00000000
00000000
00000000
00000000
,
00003000
00000000
00000000
00000000
,
00000000
00000000
00000000
00000000
;
