
//----- song ID: crys -----//
#TITLE:Crystarium;
#ARTIST:BlackY;
#BANNER:Crystarium.png;
#BACKGROUND:Crystarium-bg.png;
#CDTITLE:./CDTitles/DANCERUSH STARDOM.png;
#MUSIC:Crystarium.ogg;
#SAMPLESTART:18.462;
#SAMPLELENGTH:15;
#BPMS:0=130;
#STAGE:3;
#NOTES:
     dance-single:
     :
     Beginner:
     2:
     :
0000
0000
0000
0000
,
0000
0000
0000
0000
,
0000
0000
0000
0000
,
0000
0000
0000
0000
,
0000
0000
0000
0000
,
0000
0000
0000
0000
,
0001
0000
0000
0000
,
0000
0000
0000
0000
,
1000
0000
0000
0000
,
0001
0000
0000
0000
,
0010
0000
0000
0000
,
0100
0000
0000
0000
,
1000
0000
0000
0000
,
0100
0000
0000
0000
,
0010
0000
0000
0000
,
0001
0000
0000
0000
,
1000
0000
0000
0000
,
0001
0000
0000
0000
,
0200
0000
0300
0000
,
0200
0000
0300
0000
,
0020
0000
0030
0000
,
0020
0000
0030
0000
,
1000
0000
0001
0000
,
1000
0000
0000
0000
,
0001
0000
1000
0000
,
0001
0000
0000
0000
,
0100
0000
0000
0000
,
0100
0000
0000
0000
,
0010
0000
0000
0000
,
0010
0000
0000
0000
,
1000
0000
0000
0000
,
0001
0000
0000
0000
,
0010
0000
0000
0000
,
0100
0000
0000
0000
,
1000
0000
0000
0000
,
1000
0000
0000
0000
,
0001
0000
0000
0000
,
0001
0000
0000
0000
,
0100
0000
0000
0000
,
0100
0000
0000
0000
,
0010
0000
0000
0000
,
0010
0000
0000
0000
,
1000
0000
0000
0000
,
0001
0000
0000
0000
,
0100
0000
0000
0000
,
0010
0000
0000
0000
,
0100
0000
0000
0000
,
0001
0000
0000
0000
,
1000
0000
0000
0000
,
0100
0000
0000
0000
,
1000
0000
0001
0000
,
1000
0000
0000
0000
,
0010
0000
0100
0000
,
0010
0000
0000
0000
,
1000
0000
0001
0000
,
1000
0000
0000
0000
,
0100
0000
0010
0000
,
0200
0000
0000
0300
,
0000
0000
0000
0000
;
#NOTES:
     dance-single:
     :
     Easy:
     6:
     :
0000
0000
0000
0000
,
0000
0000
0000
0000
,
0000
0000
0000
0000
,
0000
0000
0000
0000
,
0000
0000
0000
0000
,
0000
0000
0000
0000
,
0001
0000
0000
0000
,
1000
0000
0000
0000
,
0010
0000
0100
0000
,
0001
1000
0001
1000
,
0001
0000
0100
0000
,
0010
1000
0010
0000
,
1000
0000
0100
0000
,
0010
0001
0010
0000
,
0001
0000
1000
0000
,
0010
0100
0010
0000
,
1000
0000
0001
0000
,
0100
0010
0100
0000
,
0001
1000
0100
0100
,
0010
0001
1000
1000
,
0010
0100
0001
0001
,
1000
0100
0020
0000
,
0031
1000
0001
1000
,
0010
0100
0010
0100
,
0001
0010
0100
1000
,
2002
0000
3003
0000
,
2000
0000
0001
0000
,
3002
0000
0100
0000
,
0203
0000
0010
0000
,
0320
0000
1000
0000
,
1030
1000
0010
0000
,
1000
1000
0100
0000
,
0010
0010
0001
0000
,
0100
0100
0001
0000
,
1000
0000
0010
0000
,
0100
0001
0100
0000
,
0001
0000
0010
0000
,
0100
1000
0100
0000
,
1000
1000
0001
0001
,
0100
0100
0010
0010
,
1000
0001
1000
0001
,
0010
0100
0010
0000
,
0001
0100
0010
0000
,
1000
0100
0010
0000
,
0001
1000
0010
1000
,
0001
0100
0010
0100
,
0001
0000
1000
0000
,
0100
0000
0010
0000
,
0001
1000
0001
1000
,
0010
0100
0010
0100
,
0001
0010
0100
0100
,
1000
0010
0100
0100
,
0001
1000
0010
0010
,
1000
0001
0010
0010
,
0100
1000
0001
0001
,
0100
0001
1000
1000
,
0100
0010
0001
1000
,
0010
0100
0002
1003
,
0000
0000
0000
0000
;
#NOTES:
     dance-single:
     :
     Medium:
     11:
     :
0000
0000
0000
0000
,
0000
0000
0000
0000
,
0000
0000
0000
0000
,
0000
0000
0000
0000
,
0000
0000
0000
0000
,
0000
0000
0000
0000
,
2000
0000
0000
3002
0000
0000
0000
0000
,
0203
0000
0000
0320
0000
0000
0000
0000
,
1030
0100
0010
0001
,
1000
0010
0100
0010
1000
0001
0010
0100
,
1000
0010
1000
0002
0000
0023
0000
0130
,
1000
0000
0001
0100
0000
0100
0020
0000
0000
0000
2030
0000
0000
0000
0000
0000
,
3001
0010
0001
2000
0000
3010
0100
0010
,
1000
0000
0001
0010
0000
0010
0200
0000
0000
0000
2300
0000
0000
0000
0000
0000
,
3001
0100
0001
2000
0000
3200
0000
0310
,
0001
0000
1000
0010
0000
0010
0200
0000
0000
0000
0302
0000
0000
0000
0000
0000
,
1003
0100
1000
0002
0000
0103
0010
0100
,
0001
0000
0000
1000
0000
0000
0200
0000
0000
0000
0000
0000
0000
0000
0000
0000
,
0310
0000
0000
0011
0000
0000
0001
1000
0001
1000
0001
1000
,
0100
0000
0000
0110
0000
0000
0010
0001
0010
0001
0010
0001
,
1000
0000
0000
1010
0000
0000
0010
0100
0010
0100
0010
0100
,
0001
0000
1001
0000
2000
3200
0320
0032
,
0103
0000
0000
0110
0000
0000
0010
1000
0010
1000
0010
1000
,
0001
0000
0000
1001
0000
0000
1000
0001
1000
0001
1000
0001
,
0010
0000
0000
0110
0000
0000
0100
1000
0100
1000
0100
1000
,
0001
0000
0000
1000
0000
0000
0020
0000
0000
0000
0230
0000
0000
0000
0000
0000
,
0302
0000
0000
2003
0000
0000
0000
0000
,
3200
0000
0000
0320
0000
0000
0000
0000
,
0032
0000
0000
2003
0000
0000
0000
0000
,
3010
0000
0000
0100
0000
0000
0002
0000
0000
0000
0000
0000
0000
0000
0000
0000
,
1003
0000
0100
0000
1000
0001
0100
0000
,
0001
0000
0100
0000
0001
1000
0100
0000
,
1000
0000
0010
0000
1000
0001
0010
0000
,
0001
0000
0010
0000
0001
1000
0010
1000
,
0001
0010
0001
2000
0000
3020
0000
0130
,
0001
0000
1000
0100
0000
0100
0020
0000
0000
0000
0032
0000
0000
0000
0000
0000
,
1003
0010
1000
0002
0000
0013
0100
0010
,
0001
0000
1000
0010
0000
0010
0200
0000
0000
0000
0302
0000
0000
0000
0000
0000
,
1003
0100
0010
0100
0001
0100
1000
0000
,
0001
0100
0010
0100
1000
0100
0001
0000
,
1000
0010
0100
0001
1000
0010
0100
0001
,
0010
0000
0000
0100
0000
0000
2002
0000
0000
0000
0000
0000
3003
0000
0000
0000
,
1000
0010
0100
0010
1000
0001
0010
0100
,
0010
0001
1000
0100
1000
0001
0100
0010
,
1000
0010
0100
0010
0001
0010
1000
0010
,
0100
0001
1000
0100
0010
0001
0100
0010
,
0100
0001
0010
0100
1000
0100
0010
0100
,
0001
0100
1000
0100
0001
0100
1000
0100
,
0010
0001
1000
0010
0100
0010
1000
0001
,
0100
0000
0000
0001
0000
0000
0100
0000
0000
1000
0000
0000
0100
0000
0001
0000
,
1000
0100
0100
2000
0000
3200
0000
0310
,
0001
0000
1000
0010
0000
0010
0100
0000
0001
0000
0100
0000
1000
0000
0100
0000
,
0001
1000
0001
0020
0000
0130
1000
0100
,
0010
0000
0001
0100
0000
0100
0010
0000
1000
0000
0010
0000
0001
0000
0010
0000
,
1000
0100
0100
2000
0000
3020
0000
0130
,
0001
0000
1000
0100
0000
0100
0010
0000
0001
0000
0010
0000
1000
0000
0010
0000
,
0001
1000
0001
0200
0000
0310
1000
0010
,
0100
0000
0000
0010
0000
0000
2000
0000
0000
0000
0000
0000
3001
0000
0000
0000
,
0000
0000
0000
0000
;
#NOTES:
     dance-single:
     :
     Hard:
     15:
     :
0000
0000
0000
0000
,
0000
0000
0000
0000
,
0000
0000
0000
0000
,
0000
0000
0000
0000
,
0000
0000
0000
0000
,
0000
0000
0000
0000
,
0001
0010
0100
0020
0000
0032
0000
2003
,
0000
3010
0100
0002
0000
0013
0100
0010
,
0001
1000
0000
1000
0010
0000
0010
0100
0000
0100
0001
0000
0001
1000
0100
1000
,
0001
0100
0000
0010
0000
1000
0001
0000
0001
0010
0100
0000
1000
0000
0001
0000
,
1000
0010
0100
0020
0001
0000
1000
0000
,
0130
0000
0001
1000
0010
1000
0200
0000
0001
0000
0000
0000
1000
0000
0000
0000
,
0310
0001
1000
0020
0001
0000
1000
0000
,
0130
0000
0001
1000
0100
0010
0200
0000
0001
0000
0000
0000
1000
0000
0000
0000
,
0310
0001
0100
0020
1000
0000
0001
0000
,
0130
0000
0001
1000
0010
1000
0200
0000
0001
0000
0000
0000
1000
0000
0000
0000
,
0310
0000
0001
0000
1000
0000
0010
0000
0100
0000
0100
0000
0001
1000
0100
0010
,
0001
0000
0000
0110
0000
0000
2002
0000
0000
0000
0000
0000
3003
0000
0000
0000
,
1000
0000
0000
0001
0010
0100
1000
0000
0000
0100
0010
0000
0001
0000
0010
0000
0100
0000
1000
0000
0010
0000
0100
0000
,
0001
0000
0000
1000
0010
0100
0001
0000
0000
0100
0010
0000
1000
0000
0100
0000
0010
0000
0001
0000
0010
0000
0100
0000
,
1000
0000
0000
0001
0100
0010
1000
0000
0000
0010
0100
0000
1000
0000
0100
0000
0001
0000
0100
0000
1000
0000
0100
0000
,
0001
0000
0000
1000
0100
0010
0001
0000
0000
0010
0100
0000
1000
0000
0000
1100
0000
0000
0101
0000
0000
1001
0000
0000
,
1000
0000
0000
0001
0010
0100
1000
0000
0000
0010
0100
0000
0001
0000
0001
0000
0100
0000
0010
0000
0010
0000
1000
0000
,
0001
0000
0000
1000
0100
0010
0001
0000
0000
0100
0010
0000
1000
0000
1000
0000
0010
0000
0100
0000
0100
0000
0001
0000
,
1000
0000
0000
0001
0100
0010
1000
0000
0000
0100
0010
0000
0001
0000
0001
0000
0001
0000
1000
0000
1000
0000
1000
0000
,
0010
0000
0000
0100
0000
0000
0002
0000
0000
0000
0023
0000
0000
0000
0000
0000
,
0230
0000
0300
0022
0000
0000
0033
0000
,
2000
0000
0000
3002
0000
0000
0203
0000
,
0320
0000
0030
2200
0000
0000
3300
0000
,
0002
0000
0000
0023
0000
0000
0200
0000
0000
0000
0000
0000
0330
0000
0000
0000
,
1000
0100
0001
0100
1000
0100
0001
0100
,
0010
1000
0010
0001
0010
1000
0010
0001
,
1000
0010
0001
0010
1000
0010
0001
0010
,
0100
1000
0100
0001
0100
1000
0100
0001
,
1000
0010
0100
0020
0001
0000
1000
0000
,
0130
0000
0001
1000
0010
1000
0200
0000
0001
0000
0000
0000
1000
0000
0000
0000
,
0310
0001
1000
0020
0001
0000
1000
0000
,
0130
0000
0001
1000
0100
0010
0200
0000
0001
0000
0000
0000
1000
0000
0000
0000
,
0310
0000
0001
0000
1000
0000
0010
0000
0100
0000
0001
1000
0000
1000
0100
0000
,
0010
0001
0010
0000
0100
1000
0000
1000
0010
0000
0100
0001
0100
0001
0100
0000
,
0010
1000
0000
1000
0100
0000
0100
0001
0000
0001
0010
0000
0010
0100
1000
0100
,
1000
0000
0000
0110
0000
0000
2002
0000
0000
0000
0000
0000
3003
0000
0000
0000
,
0001
0000
0100
0000
0010
0000
1000
0000
0100
0000
0010
0000
0001
0010
0000
1000
,
0010
0000
0001
0010
0000
1000
0010
0000
0001
0100
0000
1000
0100
0000
0001
0000
,
0010
0000
0100
1000
0010
0100
0001
0000
0010
0100
0010
0001
1000
0010
0100
0010
,
1000
0100
0010
0001
0100
0010
1000
0010
0100
0000
0001
0000
0100
0000
1000
0000
,
0100
0000
0001
0010
0000
1000
0000
0010
0000
0001
1000
0010
0100
0001
0100
0010
,
1000
0000
0001
0010
0000
0100
0000
1000
0000
0010
0000
0100
0000
0000
0001
0000
,
0010
0100
0000
0010
0000
0001
0100
0010
1000
0000
1000
0000
0001
0010
0100
1000
,
0001
0010
0001
1000
0010
1000
0001
0010
0001
1000
0100
1000
0001
0100
0001
0100
,
0001
0011
0110
0200
1000
0000
0001
0000
,
1300
0000
0001
0100
1000
0100
0020
0000
1000
0000
0000
0000
0001
0000
0000
0000
,
1030
0001
0010
0200
1000
0000
0001
0000
,
1300
0000
0001
0100
1000
0100
0020
0000
1000
0000
0000
0000
0001
0000
0000
0000
,
1030
1001
0101
0200
0001
0000
1000
0000
,
0301
0000
1000
0100
0001
0100
0020
0000
0001
0000
0000
0000
1000
0000
0000
0000
,
0031
0000
0100
0000
1000
0000
0100
0000
0110
0000
0110
0000
0010
1000
0001
0010
,
0100
0000
0000
0110
0000
0000
2001
0000
0000
0000
0000
0000
3100
0000
0000
0000
,
0000
0000
0000
0000
;
#NOTES:
     dance-double:
     :
     Easy:
     6:
     :
00000000
00000000
00000000
00000000
,
00000000
00000000
00000000
00000000
,
00000000
00000000
00000000
00000000
,
00000000
00000000
00000000
00000000
,
00000000
00000000
00000000
00000000
,
00000000
00000000
00000000
00000000
,
10000000
00000000
00000000
00000000
,
01000000
00000000
00000000
00000000
,
00100000
00000000
00010000
00000000
,
00100000
00001000
00100000
00001000
,
00010000
00000000
00000100
00000000
,
00001000
00000100
00001000
00000000
,
00000001
00000000
00000100
00000000
,
00000010
00001000
00000010
00000000
,
00010000
00000000
00001000
00000000
,
00100000
00010000
00100000
00000000
,
01000000
00000000
10000000
00000000
,
00100000
10000000
00010000
00000000
,
01000000
00001000
00010000
00010000
,
00000100
00010000
00001000
00001000
,
00100000
00001000
00010000
00010000
,
00000100
00001000
00000002
00000000
,
00001003
00000010
00010000
00001000
,
00100000
00010000
10000000
00010000
,
01000000
00001000
00100000
00001000
,
00010000
00000000
00000000
00000000
,
00002000
00000000
00000000
00000000
,
00003000
00000000
00000000
00000000
,
00020000
00000000
00000000
00000000
,
00030000
00000000
00000000
00000000
,
00000100
00000000
00001000
00000000
,
00000001
00000000
00000100
00000000
,
00000010
00000000
00001000
00000000
,
00000100
00000000
00010000
00000000
,
00001000
00000000
00100000
00000000
,
00010000
10000000
00010000
00000000
,
01000000
00000000
00001000
00000000
,
00010000
00001000
00010000
00000000
,
00000010
00000000
00001000
00000000
,
00000001
00000000
00000010
00000000
,
00000100
00001000
00000100
00010000
,
00001000
00010000
00001000
00000000
,
00100000
00010000
10000000
00000000
,
00100000
10000000
00010000
00000000
,
01000000
00001000
00010000
00001000
,
00010000
00000100
00001000
00000100
,
00000010
00000000
00000001
00000000
,
00000100
00000000
00000010
00000000
,
00001000
00000010
00010000
00010000
,
00001000
00100000
00010000
10000000
,
01000000
00100000
00010000
00010000
,
00100000
00001000
00010000
00010000
,
00000010
00001000
00000100
00000100
,
00001000
00000001
00000100
00000100
,
00000010
00001000
00000100
00010000
,
00001000
01000000
00010000
00010000
,
10000000
01000000
00100000
00010000
,
00100000
00001000
00020000
00031000
,
00000000
00000000
00000000
00000000
;
#NOTES:
     dance-double:
     :
     Medium:
     11:
     :
00000000
00000000
00000000
00000000
,
00000000
00000000
00000000
00000000
,
00000000
00000000
00000000
00000000
,
00000000
00000000
00000000
00000000
,
00000000
00000000
00000000
00000000
,
00000000
00000000
00000000
00000000
,
00000002
00000000
00000000
00000203
00000000
00000000
00000000
00000000
,
00000320
00000000
00000000
00002030
00000000
00000000
00000000
00000000
,
00003010
00010000
00001000
00100000
,
00010000
10000000
01000000
00100000
00001000
00010000
00000100
00001000
,
00000001
00000010
00000100
00002000
00000000
00003200
00000000
00010300
,
00001000
00000000
00100000
00001000
00000000
00001000
02000000
00000000
00000000
00000000
03020000
00000000
00000000
00000000
00000000
00000000
,
10030000
00100000
01000000
00020000
00000000
00130000
00001000
00010000
,
00000100
00000000
00001000
00000001
00000000
00000001
00000020
00000000
00000000
00000000
00000032
00000000
00000000
00000000
00000000
00000000
,
00001003
00000100
00000010
00000200
00000000
00020300
00000000
00031000
,
00100000
00000000
00001000
01000000
00000000
01000000
00020000
00000000
00000000
00000000
20030000
00000000
00000000
00000000
00000000
00000000
,
30010000
01000000
00100000
02000000
00000000
03001000
00010000
00000100
,
00001000
00000000
00000000
00000001
00000000
00000000
00000020
00000000
00000000
00000000
00000000
00000000
00000000
00000000
00000000
00000000
,
00000130
00000000
00000000
00001100
00000000
00000000
00001000
00000100
00001000
00000100
00001000
00000100
,
00010000
00000000
00000000
00011000
00000000
00000000
00001000
00010000
00001000
00010000
00001000
00010000
,
00001000
00000000
00000000
00101000
00000000
00000000
00100000
00010000
00100000
00010000
00100000
00010000
,
10000000
00000000
10010000
00000000
20000000
32000000
03200000
00320000
,
01030000
00000000
00000000
01001000
00000000
00000000
00001000
00010000
00001000
00010000
00001000
00010000
,
00000100
00000000
00000000
00010100
00000000
00000000
00000100
00001000
00000100
00001000
00000100
00001000
,
00000001
00000000
00000000
00000101
00000000
00000000
00000100
00000010
00000100
00000010
00000100
00000010
,
00001000
00000000
00000000
00000100
00000000
00000000
00020000
00000000
00000000
00000000
00032000
00000000
00000000
00000000
00000000
00000000
,
02003000
00000000
00000000
03020000
00000000
00000000
00000000
00000000
,
20030000
00000000
00000000
32000000
00000000
00000000
03200000
00000000
,
00302000
00000000
00000000
00023000
00000000
00000000
00000000
00000000
,
00030010
00000000
00000000
00001000
00000000
00000000
00000200
00000000
00000000
00000000
00000000
00000000
00000000
00000000
00000000
00000000
,
00000310
00000000
00000001
00000000
00000010
00000100
00001000
00000000
,
00000100
00000000
00010000
00000000
00001000
00100000
00010000
00000000
,
10000000
00000000
00100000
00000000
01000000
00001000
00010000
00000000
,
00000100
00000000
00010000
00000000
00000100
00001000
00000010
00000100
,
00000001
00000010
00000100
00002000
00000000
00003200
00000000
00010300
,
00001000
00000000
00100000
00001000
00000000
00001000
02000000
00000000
00000000
00000000
03020000
00000000
00000000
00000000
00000000
00000000
,
10030000
00100000
01000000
00020000
00000000
00130000
00001000
00010000
,
00000100
00000000
00001000
00000001
00000000
00000001
00000020
00000000
00000000
00000000
00000032
00000000
00000000
00000000
00000000
00000000
,
00001003
00000010
00010000
00001000
00100000
00010000
10000000
00000000
,
00100000
01000000
00010000
01000000
00001000
00010000
00000100
00000000
,
00001000
00000010
00000100
00000001
00000100
00001000
00010000
00100000
,
01000000
00000000
00000000
00010000
00000000
00000000
20020000
00000000
00000000
00000000
00000000
00000000
30030000
00000000
00000000
00000000
,
10000000
01000000
00100000
01000000
00100000
00010000
00100000
00001000
,
00010000
00000100
00001000
00000001
00000100
00001000
00000100
00000001
,
00000100
00000010
00000100
00001000
00010000
00100000
01000000
00100000
,
10000000
01000000
00100000
00010000
00100000
01000000
00100000
00010000
,
00001000
00000100
00000010
00000001
00000010
00000100
00001000
00000001
,
00000100
00000010
00010000
00001000
00100000
00010000
10000000
00100000
,
01000000
00100000
00010000
00001000
00000100
00000010
00000100
00000010
,
00000100
00000000
00000000
00001000
00000000
00000000
00010000
00000000
00000000
00100000
00000000
00000000
01000000
00000000
00010000
00000000
,
10000000
01000000
01000000
00200000
00000000
00302000
00000000
00013000
,
00000100
00000000
00001000
00000001
00000000
00000001
00000100
00000000
00001000
00000000
00000100
00000000
00000001
00000000
00001000
00000000
,
00000001
00000010
00000100
00002000
00000000
00003010
00010000
00001000
,
01000000
00000000
00010000
10000000
00000000
10000000
00100000
00000000
00010000
00000000
00100000
00000000
10000000
00000000
00010000
00000000
,
10000000
01000000
01000000
00200000
00000000
00302000
00000000
00013000
,
00000010
00000000
00001000
00000100
00000000
00000100
00010000
00000000
00001000
00000000
00000100
00000000
00000010
00000000
00000001
00000000
,
00000010
00000100
00001000
00020000
00000000
00130000
10000000
01000000
,
00010000
00000000
00000000
00001000
00000000
00000000
00020000
00000000
00000000
00000000
00000000
00000000
00031000
00000000
00000000
00000000
,
00000000
00000000
00000000
00000000
;
#NOTES:
     dance-double:
     :
     Hard:
     15:
     :
00000000
00000000
00000000
00000000
,
00000000
00000000
00000000
00000000
,
00000000
00000000
00000000
00000000
,
00000000
00000000
00000000
00000000
,
00000000
00000000
00000000
00000000
,
00000000
00000000
00000000
00000000
,
10000000
00010000
00100000
02000000
00000000
23000000
00000000
30200000
,
00000000
00310000
00001000
00000200
00000000
00000301
00001000
00000001
,
00000010
00000100
00000000
00000100
00010000
00000000
00010000
00001000
00000000
00001000
00100000
00000000
00100000
01000000
10000000
00010000
,
01000000
00001000
00000000
00010000
00000000
00000100
00001000
00000000
00001000
00000001
00000100
00000000
00000001
00000000
00000010
00000000
,
00000001
00000100
00000010
00020000
00000100
00000000
00001000
00000000
,
00130000
00000000
10000000
00010000
00100000
01000000
00200000
00000000
00010000
00000000
00000000
00000000
10000000
00000000
00000000
00000000
,
00310000
00001000
00000100
00000020
00000001
00000000
00001000
00000000
,
00000130
00000000
00010000
00001000
01000000
00100000
02000000
00000000
00010000
00000000
00000000
00000000
10000000
00000000
00000000
00000000
,
03010000
00100000
00010000
00002000
00000100
00000000
00000001
00000000
,
00003010
00000000
00010000
00000100
00001000
00000010
00020000
00000000
00001000
00000000
00000000
00000000
01000000
00000000
00000000
00000000
,
00031000
00000000
00100000
00000000
00010000
00000000
10000000
00000000
00100000
00000000
00100000
00000000
01000000
00010000
10000000
01000000
,
00100000
00000000
00000000
00101000
00000000
00000000
00022000
00000000
00000000
00000000
00000000
00000000
00033000
00000000
00000000
00000000
,
00010000
00000000
00000000
00001000
00010000
00001000
00010000
00000000
00000000
00000100
00001000
00000000
00000010
00000000
00000100
00000000
00000001
00000000
00000010
00000000
00000100
00000000
00001000
00000000
,
00000100
00000000
00000000
00010000
00001000
00010000
00001000
00000000
00000000
01000000
00010000
00000000
00100000
00000000
01000000
00000000
10000000
00000000
00100000
00000000
01000000
00000000
00010000
00000000
,
01000000
00000000
00000000
00001000
00010000
00001000
00010000
00000000
00000000
00000010
00001000
00000000
00000001
00000000
00000100
00000000
00001000
00000000
00010000
00000000
00100000
00000000
01000000
00000000
,
00100000
00000000
00000000
00010000
00001000
00010000
00001000
00000000
00000000
00100000
00010000
00000000
10000000
00000000
00000000
11000000
00000000
00000000
01100000
00000000
00000000
00101000
00000000
00000000
,
00001000
00000000
00000000
00010000
00001000
00010000
00001000
00000000
00000000
00010000
00000100
00000000
00001000
00000000
00001000
00000000
00000001
00000000
00000010
00000000
00000010
00000000
00000100
00000000
,
00010000
00000000
00000000
00001000
00010000
00001000
00010000
00000000
00000000
00001000
01000000
00000000
00010000
00000000
00010000
00000000
10000000
00000000
00100000
00000000
00100000
00000000
01000000
00000000
,
00001000
00000000
00000000
00010000
00001000
00010000
00001000
00000000
00000000
00010000
00000100
00000000
00001000
00000000
00001000
00000000
00001000
00000000
00000001
00000000
00000001
00000000
00000001
00000000
,
00000010
00000000
00000000
00001000
00000000
00000000
00020000
00000000
00000000
00000000
02030000
00000000
00000000
00000000
00000000
00000000
,
23000000
00000000
00000000
30200000
00000000
00000000
00000000
00000000
,
00320000
00000000
00000000
00032000
00000000
00000000
00003200
00000000
,
00000302
00000000
00000000
00000023
00000000
00000000
00000000
00000000
,
00002030
00000000
00000000
00023000
00000000
00000000
02030000
00000000
00000000
00000000
00000000
00000000
00000000
00000000
00000000
00000000
,
13000000
00010000
01000000
10000000
00010000
00100000
01000000
00001000
,
00010000
00001000
00000100
00000010
00001000
00000001
00000010
00001000
,
00000010
00000100
00001000
00010000
00100000
01000000
10000000
00010000
,
01000000
00100000
00010000
00001000
00000100
00000010
00001000
00000001
,
00000010
00001000
00010000
00020000
01000000
00000000
00001000
00000000
,
01030000
00000000
10000000
00010000
01000000
00100000
02000000
00000000
00010000
00000000
00000000
00000000
10000000
00000000
00000000
00000000
,
03010000
00001000
00000010
00000200
00000001
00000000
00001000
00000000
,
00000310
00000000
00000000
00000000
00000000
00000000
00000000
00000000
00000000
00000000
00000000
00000000
00000000
00000000
00000000
00000000
00000000
00000000
00000000
00000000
00000000
00000000
00000000
00000000
00010000
00000000
00000000
00000000
00000000
00000000
00000000
00000000
00000000
00000000
00000000
00000000
00001000
00000000
00000000
00000000
00000000
00000000
00000000
00000000
00000000
00000000
00000000
00000000
00100000
00000000
00000000
00000000
00000000
00000000
00000000
00000000
00000000
00000000
00000000
00000000
01000000
00000000
00000000
00000000
00000000
00000000
00000000
00000000
00000000
00000000
00000000
00000000
00200000
00000000
00000000
00000000
00000000
00000000
00000000
00000000
00000000
00000000
00000000
00000000
00000000
00000000
00000000
00000000
00000000
00000000
00000000
00000000
00000000
00000000
00000000
00000000
00010000
00000000
00000000
00000000
00000000
00000000
00000000
00000000
00000000
00000000
00000000
00000000
00000000
00000000
00000000
00000000
00000000
00000000
00000000
00000000
00000000
00000000
00000000
00000000
00000000
00000000
00000000
00000000
00000000
00000000
00000000
00000000
00000000
00000000
00000000
00000000
00000000
00000000
00000000
00000000
00000000
00000000
00000000
00000000
00000000
00000000
00000000
00000000
10000000
00000000
00000000
00000000
00000000
00000000
00000000
00000000
00000000
00000000
00000000
00000000
00000000
00000000
00000000
00000000
00000000
00000000
00000000
00000000
00000000
00000000
00000000
00000000
00000000
00000000
00000000
00000000
00000000
00000000
00000000
00000000
00000000
00000000
00000000
00000000
00000000
00000000
00000000
00000000
00000000
00000000
00000000
00000000
00000000
00000000
00000000
00300000
,
00010000
00000000
10000000
00000000
00100000
00000000
00010000
00000000
00100000
00000000
01000000
00001000
00000000
00001000
00010000
00000000
,
00000100
00001000
00000100
00000000
00001000
00000001
00000000
00000001
00000100
00000000
00000010
00001000
00000001
00000010
00000100
00000000
,
00000010
00000100
00000000
00000100
00010000
00000000
00010000
00001000
00000000
00001000
01000000
00000000
01000000
00100000
10000000
00010000
,
01000000
00000000
00000000
01001000
00000000
00000000
00022000
00000000
00000000
00000000
00000000
00000000
00033000
00000000
00000000
00000000
,
00010000
00000000
00000100
00000000
00000010
00000000
00001000
00000000
00000010
00000000
00000001
00000000
00000100
00001000
00000000
00010000
,
00100000
00000000
10000000
01000000
00000000
00010000
00001000
00000000
00000010
00000001
00000000
00000100
00001000
00000000
00010000
00000000
,
00100000
00000000
10000000
00010000
00100000
00001000
00010000
00000000
00000100
00001000
00000100
00000010
00000001
00000100
00000010
00010000
,
00001000
00100000
00010000
10000000
00100000
01000000
00001000
00010000
00000100
00000000
00001000
00000000
00000100
00000000
00000001
00000000
,
00000100
00000000
00010000
00001000
00000000
00010000
00000000
01000000
00000000
10000000
00010000
01000000
00100000
10000000
01000000
00100000
,
00001000
00000000
00010000
00000100
00000000
00000001
00000000
00000100
00000000
00010000
00000000
01000000
00000000
00000000
10000000
00000000
,
00010000
01000000
00000000
00100000
00000000
10000000
01000000
00100000
00010000
00000000
00010000
00000000
00100000
00001000
00010000
00000010
,
00000100
00000010
00000100
00001000
00010000
00001000
00100000
00010000
00100000
01000000
10000000
01000000
00100000
00010000
01000000
00001000
,
00100000
00101000
00011000
00002000
00000100
00000000
00010000
00000000
,
00003100
00000000
00000001
00000010
00001000
00000010
00000200
00000000
00001000
00000000
00000000
00000000
00000001
00000000
00000000
00000000
,
00001300
00010000
00100000
02000000
10000000
00000000
00010000
00000000
,
03100000
00000000
00010000
00001000
00000100
00000010
00000200
00000000
00001000
00000000
00000000
00000000
00000001
00000000
00000000
00000000
,
00010300
00011000
00110000
00020000
01000000
00000000
10000000
00000000
,
00130000
00000000
00001000
00010000
01000000
00100000
00002000
00000000
00010000
00000000
00000000
00000000
00000010
00000000
00000000
00000000
,
00013000
00000000
00000100
00000000
00001000
00000000
00000010
00000000
00000110
00000000
00000110
00000000
00000010
00000100
00001000
00010000
,
00100000
00000000
00000000
10000000
00000000
00000000
10020000
00000000
00000000
00000000
00000000
00000000
00031000
00000000
00000000
00000000
,
00000000
00000000
00000000
00000000
;
