
//----- song ID: crea -----//
#TITLE:Continue to the real world?;
#ARTIST:NUU$HI;
#BANNER:Continue to the real world.png;
#BACKGROUND:Continue to the real world-bg.png;
#CDTITLE:./CDTitles/DDR A3.png;
#MUSIC:Continue to the real world.ogg;
#SAMPLESTART:105.752;
#SAMPLELENGTH:15;
#BPMS:0=93,20=186,52=93,56=186,204=185.759,205=155.219,205.833=123.899,206.5=93,207=186,239=93,243=186,295=93,299=186;
#STOPS:345=0.108,345.333=0.108,345.666=0.108;
#BGSTAGE:3;
#NOTES:
     dance-single:
     :
     Beginner:
     3:
     :
0000
0000
0000
0000
,
0000
0000
0000
0000
,
0000
0000
0000
0000
,
0000
0000
0000
0000
,
0000
0000
0000
0000
,
0001
0000
0000
0000
,
0001
0000
0000
0000
,
1000
0000
0000
0000
,
1000
0000
0000
0000
,
0001
0000
0000
0000
,
0001
0000
0000
0000
,
1000
0000
0000
0000
,
1000
0000
0000
0000
,
0020
0000
0030
0000
,
0010
0000
0000
0000
,
1000
0000
0000
0000
,
0001
0000
0000
0000
,
0100
0000
0000
0000
,
0001
0000
0000
0000
,
1000
0000
0000
0000
,
0010
0000
0000
0000
,
1000
0000
0000
0000
,
0001
0000
0000
0000
,
0100
0000
0000
0000
,
0010
0000
0000
0000
,
0100
0000
0000
0000
,
0001
0000
0000
0000
,
1000
0000
0000
0000
,
0001
0000
0000
0000
,
0000
0000
0000
0000
,
1000
0000
0000
0000
,
0000
0000
0000
0000
,
0010
0000
0000
0000
,
0010
0000
0000
0000
,
0100
0000
0000
0000
,
0100
0000
0000
0000
,
0001
0000
0001
0000
,
0001
0000
0000
0000
,
1000
0000
1000
0000
,
1000
0000
0000
0000
,
0001
0000
0001
0000
,
0001
0000
0000
0000
,
1000
0000
1000
0000
,
1000
0000
0000
0000
,
0010
0000
0010
0000
,
0010
0000
0000
0000
,
0100
0000
0100
0000
,
0100
0000
0000
0000
,
0001
0000
0001
0000
,
0001
0000
0000
0000
,
1000
0000
0000
0000
,
2002
0000
0000
3003
,
0000
0000
0000
0000
,
0000
0000
0000
0000
,
0000
0000
0000
0000
,
0000
0000
0000
0001
,
0000
0000
0000
0001
,
0000
0000
0000
0001
,
0000
0000
0000
0001
,
0000
0000
0000
2002
,
0000
0000
0000
3003
,
0000
0000
0000
0000
,
0000
0000
0000
0100
,
0000
0100
0000
0100
,
0000
0000
0000
0010
,
0000
0010
0000
0010
,
0000
0000
0000
1000
,
0000
1000
0000
1000
,
0000
1000
0000
1000
,
0000
1000
0000
1000
,
0000
1000
0000
0001
,
0000
0001
0000
0001
,
0000
0001
0000
0001
,
0000
0001
0000
2002
,
0000
3003
0000
1000
,
0000
0000
0000
0001
,
0000
1000
0000
0010
,
0000
0000
0000
1000
,
0000
0001
0000
0100
,
0000
0000
0000
0010
,
0000
1000
0000
0001
,
0000
0000
0000
1000
,
0000
0010
0000
0100
,
0000
0000
0000
0001
,
0000
1000
0000
0010
,
0000
0000
0000
1000
,
0000
0002
0003
0000
,
0000
0000
0001
0000
,
0010
0000
0100
0000
,
1000
0000
0001
0000
,
0000
0000
0000
0000
;
#NOTES:
     dance-single:
     :
     Easy:
     7:
     :
0000
0000
0000
0000
,
0000
0000
0000
0000
,
0000
0000
0000
0000
,
0000
0000
0000
0000
,
0000
0000
0000
0000
,
0001
0000
1000
0000
,
0010
0010
0100
0000
,
0001
0010
0001
1000
,
0001
0100
0010
1000
,
0001
0000
1000
0000
,
0010
0010
0100
0000
,
0001
0100
0001
1000
,
0001
0010
0100
1000
,
2002
0000
3003
0000
,
0001
0000
1000
0000
,
0001
0010
0100
1000
,
1000
0001
0100
0001
,
1000
0100
0010
0001
,
0001
1000
0010
0100
,
0001
0010
0100
0000
,
1000
0000
0001
0010
,
0100
0010
0001
0100
,
0001
0000
1000
0100
,
0100
1000
0010
0100
,
0001
0000
0001
1000
,
0100
1000
0010
0100
,
0100
0001
1000
0000
,
0001
0100
0010
1000
,
1001
0000
0001
0000
,
1000
0000
1000
0000
,
0010
0000
0010
0000
,
0100
0000
0100
0000
,
0001
0001
0001
0001
,
1000
1000
1000
1000
,
0001
0001
0100
0100
,
0010
1000
1001
0000
,
0002
0100
0000
0103
,
2000
0010
0000
3010
,
0002
0100
0000
0103
,
2000
0010
0000
3010
,
0001
0100
0100
0000
,
0001
1000
0100
0000
,
1000
0001
0100
0000
,
0002
0023
0230
2300
,
3001
0100
0110
0000
,
1000
0001
0011
0000
,
1000
1100
1000
1100
,
0001
0100
0010
0000
,
0010
1010
0010
1010
,
0001
0100
0010
0000
,
1000
0100
0010
0001
,
2002
0000
0000
3003
,
0000
0000
0000
0000
,
0000
0000
0000
0000
,
0000
0000
0000
0000
,
0000
0000
0000
0100
,
0100
0100
0100
0100
,
0100
0100
0100
0001
,
0010
0100
1000
1000
,
0001
1001
0000
0020
,
0000
0000
0000
0130
,
0100
0100
0100
0100
,
0001
1000
0100
0010
,
0010
0010
0010
0010
,
0100
1000
0001
0100
,
0100
0100
0100
0110
,
0110
1001
0000
0100
,
0100
0100
0101
0100
,
0100
0100
0110
0100
,
0100
0100
1100
0100
,
0100
0100
0110
0010
,
0010
0010
1010
0010
,
0010
0010
0110
0010
,
0010
0010
0011
2002
,
0000
3003
0000
0100
,
0001
0010
0100
1000
,
1000
0001
0100
0010
,
0100
0001
0001
1000
,
0100
1000
0010
0100
,
0001
1000
1000
0001
,
0100
0010
1000
0100
,
1000
1100
0101
0001
,
0010
0100
1000
1000
,
0100
0010
0001
0001
,
1000
0010
0100
0010
,
1000
0001
0100
0100
,
0001
0020
0030
0000
,
0001
1000
0100
1000
,
0010
0100
0001
1000
,
0100
1000
1001
0000
,
0000
0000
0000
0000
;
#NOTES:
     dance-single:
     :
     Medium:
     12:
     :
0000
0000
0000
0000
,
0000
0000
0000
0000
,
0000
0000
0000
0000
,
0000
0000
0000
0000
,
0000
0000
0000
0000
,
1000
0001
0100
0010
,
0100
0000
0001
0000
,
1000
1000
0100
0010
,
0001
0001
1000
0010
,
0000
0010
0100
0001
,
1000
1000
0001
0000
,
1000
0100
1000
0000
0001
0100
0001
0000
,
1000
0010
1000
0010
0100
0001
1000
0000
,
2002
0000
0000
3003
,
0001
1000
0010
0000
0100
0001
1000
0000
,
0001
0001
0010
0100
1000
1000
0001
0000
,
0010
0001
1000
0000
0001
0010
0100
0000
,
1000
1000
0010
0100
0001
0001
1000
0000
,
0100
1000
0100
0000
0010
0001
0010
0000
,
0001
1000
0010
0000
0110
0000
0000
0000
,
0100
0001
1000
0000
0001
0010
0100
0000
,
1000
0100
1000
0100
0010
0001
0010
0000
,
0100
1000
0001
0000
0100
0010
1000
0000
,
0001
0010
0100
1000
0100
0010
0001
0000
,
1000
0010
0100
0000
0001
1000
0001
0000
,
1000
0100
1000
0001
0100
0010
1000
0000
,
0001
0010
0001
0000
1000
0100
1000
0000
,
0001
0100
0001
0010
0100
1000
0010
0000
,
0100
0001
1000
0100
,
1000
0010
0100
0000
,
0001
1000
0100
0010
,
0100
1000
0001
0000
,
0101
0001
0010
0100
,
1000
1000
0001
0001
,
0100
0001
0100
0001
1000
0100
1000
0100
,
0010
0001
1000
0010
0200
0000
0300
0000
,
0001
0011
0001
0011
,
1000
1100
1000
1100
,
0001
0101
0001
0101
,
1000
1010
1000
1010
,
0001
0101
1000
1100
,
0001
0101
1000
1100
,
0001
0011
1000
1010
,
0010
0100
0001
1000
0001
0010
0100
0000
,
1100
1010
1100
0000
,
0011
0101
0011
0000
,
1100
0101
1100
0000
,
0011
1010
0011
0000
,
0100
0110
0001
1001
,
0010
0110
1000
1001
,
0011
1100
0110
1001
,
0200
0000
0000
0310
,
0010
0010
0000
1000
,
1000
1000
0000
0001
,
0001
0001
0000
0100
,
0100
0100
0000
0001
,
0001
0010
0010
0100
,
0100
0000
1000
0000
1000
0000
0001
0100
,
0001
0100
0010
1000
0010
1000
0001
0010
,
0100
1000
0001
0000
0000
0000
1002
0000
,
0000
0000
0000
1003
,
1000
0000
1000
0000
1000
0000
1000
0100
,
1000
0100
1000
0000
1000
0010
1000
0000
,
1000
1000
1000
1000
,
1000
0000
1000
0000
1000
0100
1000
0000
,
1000
0000
1000
0000
1000
0000
1000
0100
,
1000
0010
1000
0001
1000
0000
0001
0000
,
0100
0001
0010
0001
0100
0000
0001
0010
,
0100
0000
0010
0001
0100
0010
0100
0000
,
0001
0000
0010
0001
0100
0000
0001
0001
,
0010
0010
0100
0000
0010
0001
0100
0000
,
0101
0000
0001
0010
0100
0000
0010
0010
,
0001
0001
0100
0100
0010
0000
0100
0001
,
0100
0001
0010
0100
0010
0001
2002
0000
,
0000
0000
3000
0000
0003
0000
1000
0001
,
1000
0100
0010
0001
1000
0000
0010
0100
,
0010
0000
1000
0001
0100
0000
0001
0010
,
0100
1000
0001
1000
0010
0000
0100
0001
,
1000
0000
0100
1000
0001
0000
1000
0100
,
1000
0010
0100
0001
1000
0000
0001
0010
,
0100
0000
1000
0100
0010
0000
0001
1000
,
0001
1000
0010
0000
1001
0000
1000
0100
,
0010
0001
1000
0010
0100
0000
0010
1000
,
0001
0010
0001
0010
0100
0000
1000
0010
,
0100
0010
1000
0001
0010
0000
0100
1000
,
0010
1000
0100
0010
0001
0000
1000
0001
,
0100
0010
2000
0000
3001
0000
0001
0010
,
0100
1000
0100
0000
1000
0001
0100
0001
,
0010
0100
1000
0001
0100
0010
0100
0001
,
0010
0100
1000
0001
0100
0000
0000
0000
,
0000
0000
0000
0000
;
#NOTES:
     dance-single:
     :
     Hard:
     16:
     :
0000
0000
0000
0000
,
0000
0000
0000
0000
,
0000
0000
0000
0000
,
0000
0000
0000
0000
,
0000
0000
0000
0000
,
0001
0000
1000
0001
0100
0001
0010
0000
,
0100
1000
0001
1000
0010
0100
0001
1000
,
0100
0000
0010
0001
0100
0010
0100
0001
,
1000
0100
0001
0100
1000
0001
0100
0000
,
0010
0000
0100
0001
1000
0001
0010
0000
,
0001
1000
0001
1000
0001
0000
0010
0000
0100
0000
1000
0001
1000
0000
0010
0000
,
0100
0001
0100
0000
0010
0000
1000
0001
1000
0000
0100
0000
0010
0001
0010
0000
,
0100
1000
0001
1000
0010
0000
0100
0000
0010
1000
0001
1000
0100
0010
0001
1000
,
0020
0000
0000
0000
,
0130
0000
0000
0000
1001
0000
0000
0000
1000
0000
0001
0100
0001
0000
1000
0000
,
0100
0000
0010
0000
0100
0000
1000
0000
0010
0000
0100
0000
0001
1000
0000
0001
,
1000
0000
0100
0000
0010
0000
0001
0000
0100
0000
0010
0000
0100
0000
0001
1000
,
0001
0010
0100
1000
0020
0000
0100
0130
,
0010
0000
1000
0000
0001
0000
0010
0000
0001
0000
1000
0000
0010
0000
0100
0001
,
0100
0000
0010
0000
1000
0000
0001
0000
0010
0000
0000
0000
0001
1000
0001
1000
,
0001
0000
0010
0000
0100
0000
1000
0000
0010
0000
0100
0001
0000
1000
0100
0000
,
0001
0000
0100
0000
1000
0000
0001
0000
0100
0000
0010
1000
0000
0001
0010
0000
,
0100
0000
0010
0000
0001
0000
0100
0000
0010
0000
1000
0100
0000
0010
0001
0000
,
1000
0000
0010
0000
0001
0000
0010
0000
1000
0000
0100
0000
0010
0000
0010
0001
,
1000
0000
0010
0000
0100
0000
0001
0000
0010
0000
0100
1000
0000
0001
0100
0000
,
1000
0000
0100
0000
0001
0000
1000
0000
0100
0000
0010
0001
0000
1000
0010
0000
,
0100
0000
0010
0000
1000
0000
0100
0000
0010
0000
0001
0100
0000
0010
1000
0000
,
0001
0000
0010
0000
1000
0000
0010
0000
0001
0000
0100
0000
0010
0000
0010
1000
,
0001
0000
0100
0001
1000
0000
0100
0010
,
0001
1000
0010
0100
,
0001
0000
1000
0100
0010
0100
1000
0001
,
1000
0010
0100
0001
1000
0100
0010
0000
,
0110
0000
0100
1000
0001
0000
0100
0010
,
2000
0010
0001
3100
,
1000
0001
0010
0001
1000
0010
0100
0001
1000
0100
0010
0001
1000
0001
0100
0010
,
1000
0000
0000
0001
0000
0000
1001
0000
0000
1000
0001
1000
,
0001
0100
0010
1010
,
0101
1000
0001
0011
,
1100
0001
1000
0110
,
2001
3100
1002
0013
,
0001
0000
1000
0010
0000
1000
0001
0000
0000
1001
0000
0000
,
0110
0001
1000
0011
,
1100
0010
0100
1001
,
0001
0000
1000
0010
0100
0001
1000
0000
0001
0010
0100
1000
0001
1000
0010
0000
,
0100
0000
0000
0001
0000
1000
0100
0000
0000
0110
0000
0000
,
1001
0000
0000
0001
0000
0100
0000
0000
0001
0010
0000
0000
,
1001
0000
0000
1000
0000
0001
0100
0000
0000
0110
0000
0000
,
1001
0000
0000
1000
0000
0100
0010
0000
0001
1000
0000
0000
,
0010
1000
0001
0010
0001
1000
0100
0000
0000
0110
0000
0000
,
1001
0000
0000
1000
0000
0100
0000
0000
1000
0010
0000
0000
,
1001
0000
0000
0010
0000
0100
0010
0000
0000
0110
0000
0000
,
1002
0000
0000
0013
,
0100
1000
0001
0000
0100
0010
1000
0000
,
0001
0010
0100
1000
,
0001
0100
0010
0100
0001
1000
0001
0010
,
0100
1000
0001
0100
0010
0000
0110
0000
,
0100
0001
1000
0000
0100
0010
0002
0000
,
0010
0000
1000
0000
0103
0000
0001
0010
,
0001
0000
1000
0000
0010
0000
0100
0000
0001
0000
1000
0000
0001
0010
0100
1000
,
0001
0100
0010
1000
0002
0000
0000
0000
1003
0000
0000
0000
0001
0000
0101
0000
,
1001
0000
0011
0000
1010
0000
1001
0000
1100
0000
1000
0001
0010
0000
0000
0000
,
0110
0000
0000
0000
1001
0000
0000
0000
0110
0000
0000
0000
0001
0000
0010
0100
,
1000
0000
1000
0100
0010
0000
0000
0000
0011
0000
0001
0000
1001
0000
0000
0000
,
1010
0101
0110
1001
,
0011
0000
1100
0000
1010
1000
1001
0000
,
0011
0000
0000
0000
1100
0000
0000
0000
0110
0000
0000
0000
1000
0000
0010
0100
,
0001
0000
0001
1000
0001
0000
0001
0010
0100
0000
1000
0000
1001
0000
0000
0000
,
0001
0000
0010
0100
2000
0000
0001
0000
0000
0000
0010
0000
0000
0000
3100
0000
,
1000
0000
0001
1000
0010
0000
0100
0001
1000
0000
0100
0000
0100
0000
0000
0000
,
1000
0000
0010
0100
0001
0000
0001
0000
1000
0000
1000
0000
0100
0000
0010
0001
,
1000
0000
1000
0001
0100
0000
0000
0000
1001
0000
1000
0000
1001
0000
0000
0000
,
0001
0000
0100
0010
1000
0000
1000
0000
0001
0000
0001
0000
0100
0000
0010
0000
,
1000
0000
0001
1000
0010
0000
0100
0001
1000
0000
0100
0000
0100
0000
0000
0000
,
0010
0000
0001
1000
0100
0000
0100
0000
0010
0000
0010
0000
2002
0000
0000
0000
,
3003
0000
0000
0000
0022
0000
0033
0000
2200
0000
3300
0000
0001
0000
1000
0100
,
0010
0100
1000
0000
0001
0000
0100
0000
0010
0000
1000
0000
0001
0000
0010
0100
,
1000
0000
0001
0000
1000
0010
0100
0000
0001
0000
1000
0000
0001
0000
0010
0100
,
1000
0100
0010
0000
0001
0000
1000
0000
0010
0100
0010
0000
1000
0000
0100
0010
,
0001
0000
1000
0000
0001
0100
0010
0000
1000
0000
0001
0000
1000
0000
0100
0010
,
0001
0010
0100
0000
1000
0000
0001
0000
0100
0010
0100
0000
0001
0000
1000
0001
,
0010
0000
0100
0000
1000
0001
0100
0000
0010
0000
1000
0000
0001
0000
0001
0000
,
1000
0000
1000
0000
2020
0000
3030
0000
0202
0000
0303
0000
1000
0000
0001
0010
,
0100
0000
1000
0001
0100
0000
0010
1000
0001
0000
0010
0000
0100
0000
0010
0001
,
1000
0000
0010
0100
0001
0000
0010
0100
1000
0000
0001
0000
0100
0000
0010
1000
,
0001
0000
1000
0100
0010
0000
0001
0100
0010
0000
1000
0000
0100
0000
0010
0001
,
1000
0000
0010
0100
0001
0000
0010
0100
1000
0000
1000
0000
0010
0000
0100
0000
,
0001
0000
0000
0000
0000
0000
0010
0000
0000
0000
0000
0000
0100
0000
0000
0000
0100
0000
0000
0000
0100
0000
0000
0000
0010
0000
0000
0000
0000
0000
0001
0000
0000
1000
0000
0000
0010
0000
0000
0100
0000
0000
0001
0000
0000
0000
0000
0000
,
1000
0000
0100
1000
0001
1000
0010
0000
0100
0000
0001
1000
0100
0010
0001
0000
,
1000
0000
0010
1000
0001
1000
0100
0000
0010
0000
0001
1000
0010
0100
0001
1000
,
0100
1000
0001
0010
0001
1000
0010
0100
0002
0000
0000
0000
0003
0000
0000
0000
,
0000
0000
0000
0000
;
#NOTES:
     dance-double:
     :
     Easy:
     7:
     :
00000000
00000000
00000000
00000000
,
00000000
00000000
00000000
00000000
,
00000000
00000000
00000000
00000000
,
00000000
00000000
00000000
00000000
,
00000000
00000000
00000000
00000000
,
00001000
00000000
00010000
00000100
,
00001000
00000000
00000100
00000000
,
00010000
00001000
00001000
00100000
,
00010000
00100000
00001000
00000000
,
00010000
00000000
00000100
00001000
,
00000010
00000010
00000100
00000000
,
00000001
00000100
00000010
00001000
,
00000100
00000000
00010000
00001000
,
00022000
00000000
00033000
00000000
,
00010000
00001000
01000000
00010000
,
00100000
01000000
10000000
00100000
,
00010000
00001000
00010000
01000000
,
10000000
00010000
01000000
00100000
,
00010000
00001000
00010000
00000010
,
00001000
00000100
00000010
00000000
,
00000001
00000000
00000001
00000100
,
00001000
00010000
00001000
00001000
,
01000000
00010000
00110000
00000000
,
00100000
01000000
10000000
00000000
,
10000000
00010000
01000000
00010000
,
00100000
00001000
00011000
00000000
,
00010000
00000100
00001000
00000010
,
00001000
00000001
00001000
00000000
,
00000010
00000000
00000010
00000000
,
00000100
00000000
00000100
00000000
,
00000001
00000000
00000001
00000000
,
00001000
00000000
00001000
00000000
,
00000010
00000010
00001000
00001000
,
00000100
00000100
00010000
00010000
,
00001000
00100000
00010000
01000000
,
00100000
10000000
10010000
00000000
,
10000000
11000000
10000000
11000000
,
10000000
00100000
01000000
00000000
,
00010000
00110000
00010000
00110000
,
00010000
01000000
00001000
00000000
,
00010000
00011000
00010000
00011000
,
00010000
00000010
00001000
00000000
,
00000001
00000011
00000001
00000011
,
00000001
00000100
00001000
00010000
,
01000000
11000000
01000000
11000000
,
01000000
00100000
00001000
00000000
,
00010000
00011000
00010000
00011000
,
00010000
00001000
00000010
00000000
,
00000001
00001001
00000001
00001001
,
00000001
00000100
00001000
00000000
,
00010000
00011000
00010000
00011000
,
00020000
00000000
00000000
00031000
,
00000000
00001000
00000000
00100000
,
00000000
00010000
00000000
10000000
,
00000000
10000000
00000000
01000000
,
00000000
00100000
00000000
00001000
,
00000000
00001000
00000000
00010000
,
00000000
00000100
00000000
00001000
,
00000010
00010000
00001000
00010000
,
00010000
00011000
00000000
00002000
,
00000000
00000000
00000000
00013000
,
00010000
00010000
00010000
00010000
,
00010000
00010000
00001000
00010000
,
00010000
00010000
00010000
00010000
,
00010000
00010000
00000100
00010000
,
00010000
00010000
00010000
00001000
,
00000100
00000010
00010000
00001000
,
00001000
00001000
00001000
00001000
,
00001000
00001000
00000010
00001000
,
00001000
00001000
00001000
00001000
,
00001000
00001000
00010000
00001000
,
00001000
00001000
00001000
00001000
,
00001000
00001000
00100000
00001000
,
00001000
00001000
00001000
00022000
,
00000000
00033000
00000000
00001000
,
00010000
00000100
00001000
00000010
,
00000100
00001000
00010000
01000000
,
00100000
00010000
01000000
00100000
,
00010000
00001000
00010000
01000000
,
10000000
00010000
01000000
00100000
,
00010000
00001000
00100000
00001000
,
00010000
00011000
00000000
00001000
,
00000100
00000001
00000010
00000001
,
00000100
00001000
00010000
01000000
,
10000000
00100000
10000000
01000000
,
00010000
00001000
00000010
00000001
,
00001000
00000020
00000030
00000000
,
00000100
00000000
00000001
00000100
,
00001000
00010000
01000000
10000000
,
00100000
01000000
00020000
00030000
,
00000000
00000000
00000000
00000000
;
#NOTES:
     dance-double:
     :
     Medium:
     12:
     :
00000000
00000000
00000000
00000000
,
00000000
00000000
00000000
00000000
,
00000000
00000000
00000000
00000000
,
00000000
00000000
00000000
00000000
,
00000000
00000000
00000000
00000000
,
00001000
00010000
00000100
00001000
,
00000010
00000000
00010000
00000000
,
00001000
01000000
00010000
00100000
,
01000000
10000000
00100000
00010000
,
00000000
00001000
00010000
00000100
,
00001000
00000010
00000000
00000000
,
00000100
00000001
00000100
00001000
,
00010000
00001000
00010000
00001000
01000000
00010000
00100000
01000000
,
20000000
00000000
00000000
30000000
,
00010000
01000000
00100000
00000000
10000000
01000000
00100000
00000000
,
00001000
00010000
00000100
00000000
00001100
00000000
00010010
00000000
,
00010000
00001000
00100000
00000000
00010000
01000000
00100000
00000000
,
00010000
00001000
00100000
00000000
00110000
00000000
01001000
00000000
,
00001000
00010000
00000010
00000000
00001000
00000100
00000010
00000000
,
00000001
00001000
00000001
00001000
00000010
00000000
00000000
00000000
,
00010000
00001000
00010000
00000000
00001000
01000000
00100000
00000000
,
01000000
00010000
01000000
00010000
10000000
00000000
01000000
00000000
,
10000000
00010000
01000000
00000000
00010000
01000000
00100000
00000000
,
00010000
00001000
00010000
00001000
00100000
00000000
01000000
00000000
,
10000000
01000000
00010000
00000000
01000000
00010000
00001000
00000000
,
00010000
00000010
00000100
00000010
00001000
00000000
00000001
00000000
,
00000010
00000100
00001000
00000000
00000100
00010000
00001000
00000000
,
00010000
00001000
00010000
00100000
01000000
00000000
00010000
00000000
,
10000000
00000000
01000000
00000000
,
00100000
00010000
01000000
00000000
,
00001000
00010000
00010000
00000100
,
00001000
00000010
00000100
00000001
,
00001000
00001000
00000100
00000100
,
00010000
00010000
00001000
00001000
,
00010000
00001000
00010000
00001000
01000000
00010000
00100000
00001000
,
00020000
00000000
00031000
00000000
,
00001000
00011000
01000000
01010000
,
00010000
00110000
01001000
00000000
,
00010000
00011000
00000010
00001010
,
00001000
00001100
00010010
00000000
,
00000010
00000000
00000100
00000010
00000000
00000000
00000010
00000000
00000000
00001010
00000000
00000000
,
00010000
00011000
00010010
00000000
,
00001100
00000110
00000011
00000000
,
00000001
00000100
00001000
00010000
00001000
00010000
01000000
00000000
,
10000000
11000000
00100000
01100000
,
00010000
00110000
00001000
00011000
,
00000100
00001100
00000010
00000110
,
00000001
00000011
00001000
00001100
,
00010000
00000000
00001000
00000000
00010000
00000000
00001000
00000000
00000000
00101000
00000000
00000000
,
00010000
00101000
00010000
00101000
,
00001000
00010010
00001000
00010010
,
00020000
00000000
00000000
00031000
,
00010000
00001000
00010000
00000100
,
00001000
00000100
00010000
00001000
,
00010000
00001000
00100000
00010000
,
00100000
00001000
00010000
00001000
,
01000000
00100000
01000000
00010000
,
00100000
00000000
01000000
00000000
10000000
00000000
10000000
00010000
,
01000000
00100000
01000000
00010000
00100000
00001000
00010000
00010000
,
00010000
00011000
00000000
00002000
,
00000000
00000000
00000000
00013000
,
00010000
00000000
00010000
00000000
00010000
00000000
00010000
00001000
,
00010000
00001000
00010000
00000000
00010000
00000010
00010000
00000000
,
00010000
00010000
00010000
00010000
,
00010000
00000000
00010000
00000000
00010000
00001000
00010000
00000000
,
00010000
00000000
00010000
00000000
00010000
00000000
00001000
00001000
,
00010000
00010000
00100000
00100000
01000000
01000000
00010000
00000000
,
01000000
00010000
00100000
00001000
00010000
00001000
00000000
00001000
,
01000000
00010000
00100000
00001000
01000000
01000000
00100000
00000000
,
00010000
00000000
00001000
00100000
01000000
00010000
01000000
10000000
,
01000000
00100000
00010000
00000000
00100000
00001000
00010000
00000000
,
00000010
00001000
00000100
00010000
00001000
00000100
00000010
00010000
,
00000010
00001000
00000100
00010000
00000010
00000100
00001000
00000000
,
00010000
00000000
00001000
00010000
00001000
00000000
00022000
00000000
,
00000000
00000000
00030000
00000000
00003000
00000000
00010000
00001000
,
00100000
00000000
00010000
01000000
00100000
00000000
10000000
01000000
,
00100000
00000000
00001000
00010000
00000100
00000000
00000010
00000001
,
00001000
00000000
00000001
00000100
00000010
00000000
00010000
00001000
,
01000000
00000000
00100000
10000000
00010000
00000000
10000000
01000000
,
00100000
00000000
00010000
00100000
00001000
00000000
00010000
00001000
,
00000010
00000000
00001000
00010000
00000100
00000000
00001000
00000000
,
00000001
00000000
00000101
00000000
00001001
00000000
00000001
00000100
,
00001000
00000000
00010000
00001000
00100000
00000000
01000000
10000000
,
00010000
10000000
00100000
00010000
00001000
00000000
00010000
00000100
,
00000010
00000000
00001000
00000010
00000001
00000000
00000001
00000100
,
00001000
00010000
00001000
00010000
01000000
00000000
10000000
00100000
,
01000000
00000000
00020000
00000000
00130000
01000000
10000000
00000000
,
10000000
00100000
00010000
00000000
00001000
00010000
00000010
00001000
,
00000001
00000010
00000100
00010000
00001000
00000100
00000001
00000010
,
00001000
00010000
00100000
01000000
00020000
00000000
00030000
00000000
,
00000000
00000000
00000000
00000000
;
#NOTES:
     dance-double:
     :
     Hard:
     16:
     :
00000000
00000000
00000000
00000000
,
00000000
00000000
00000000
00000000
,
00000000
00000000
00000000
00000000
,
00000000
00000000
00000000
00000000
,
00000000
00000000
00000000
00000000
,
00001000
00000000
00010000
00000100
00001000
00000000
00000100
00000000
,
00000020
00000000
00000000
00000030
,
00000100
00000000
00010000
00001000
01000000
00100000
01000000
10000000
,
01000000
00010000
00100000
00001000
00020000
00000000
00031000
00000000
,
00010000
00000000
00001000
01000000
00100000
00000000
00010000
00000000
,
00001000
00200000
00000000
00300000
,
00010000
01000000
00001000
00010000
00000100
00001000
00000010
00010000
,
00001000
00010000
00001000
00010000
00000100
00001000
00000100
00000010
00000001
00001000
00000001
00001000
00000100
00000010
00000001
00001000
,
00000020
00000000
00000000
00000000
,
00000130
00000000
00000000
00000000
00001001
00000000
00000000
00000000
00000001
00000000
00001000
00000100
00001000
00000000
00000010
00000000
,
00010000
00000000
00001000
00000000
00010000
00000000
00100000
00000000
01000000
00000000
00010000
00000000
10000000
01000000
00000000
10000000
,
01000000
00000000
00010000
00000000
00001000
00000000
00000010
00000000
00000001
00000000
00000010
00000000
00000100
00000000
00001000
00000100
,
00001000
00000010
00010000
00001000
00000200
00000000
00000010
00000310
,
00000100
00000000
00000010
00000000
00010000
00000000
00001000
00000000
01000000
00000000
00010000
00100000
00010000
00000000
00100000
00000000
,
01000000
10000000
10000000
00100000
00010000
00000000
00000100
00000000
,
00010000
00000000
00001000
00000000
00000010
00000000
00000001
00000000
00000010
00000000
00000100
00001000
00000000
00000001
00000100
00000000
,
00000010
00000000
00010000
00000000
00001000
00000000
00000100
00000000
00001000
00000000
00010000
00001000
00000000
01000000
00010000
00000000
,
00100000
00000000
01000000
00000000
10000000
00000000
00100000
00000000
00010000
00000000
00001000
00010000
00000000
00000010
00001000
00000000
,
00000100
00000000
00010000
00000000
00001000
00000000
00010000
00000000
01000000
00000000
10000000
00000000
00100000
00000000
00100000
01000000
,
00010000
00000000
00100000
00000000
00010000
00000000
10000000
00000000
01000000
00000000
00010000
00001000
00000000
00010000
00000100
00000000
,
00000010
00000000
00001000
00000000
00000010
00000000
00000001
00000000
00000100
00000000
00001000
00010000
00000000
00001000
01000000
00000000
,
00100000
00000000
00010000
00000000
00100000
00000000
10000000
00000000
01000000
00000000
00010000
00001000
00000000
00010000
00000010
00000000
,
00001000
00000000
00000001
00000000
00000100
00000000
00001000
00000000
00010000
00000000
00100000
00000000
10000000
00000000
00100000
01000000
,
00010000
00000000
00100000
00001000
00010000
00000000
00001000
00000000
,
00000200
00000000
00000000
00000300
,
00000010
00000000
00000010
00000100
00000010
00001000
00000010
00010000
,
00001000
00000100
00000010
00001000
00000100
00000000
00010000
00000000
,
00001000
00000000
00010000
01000000
00100000
00000000
00001000
00000000
,
00010000
00000100
00001100
00010100
,
00010000
00001000
00100000
00010000
01000000
00100000
10000000
00010000
,
10000000
00000000
00000000
01000000
00000000
00000000
10000000
00000000
00000000
01000000
00000000
00000000
00100000
00000000
00000000
00010000
00000000
00000000
10000000
00000000
00000000
00010000
00000000
00000000
01000000
00000000
00000000
00000000
00000000
00000000
00000000
00000000
00000000
00000000
00000000
00000000
00010000
00000000
00000000
00000000
10000000
00000000
00000000
00000000
00010000
00000000
00000000
00000000
,
20000000
00100000
00010000
01000000
,
30020000
01000000
10000000
00100000
,
00032000
00000100
00000001
00000010
,
00003002
00000100
00001000
00000010
,
00001003
00000000
00000100
00010000
00000000
00001000
00100000
00000000
00000000
00010000
00000000
00000000
,
02000000
00001000
00010000
13000000
,
01000000
00010000
00100000
00110000
,
10000000
01000000
00100000
00010000
00100000
00000000
00001000
00010000
00001000
00010000
00000100
00000000
00001000
00000100
00000010
00000000
,
00000001
00000000
00000100
00000001
00000000
00001000
00000001
00000000
00000000
00000010
00000000
00000000
,
00001000
00000000
01000000
00010000
00000000
10000000
00010000
00000000
00000000
00100000
00000000
00000000
,
00001000
00000000
00000100
00000001
00000000
00001000
00000001
00000000
00000000
00000010
00000000
00000000
,
00001000
00000000
01000000
00010000
00000000
10000000
00010000
00000000
00000000
00100000
00000000
00000000
,
01000000
10000000
00010000
10000000
00100000
01000000
00010000
00000000
00000000
10010000
00000000
00000000
,
10000000
00000000
01000000
10000000
00000000
00010000
10000000
00000000
00000000
00100000
00000000
00000000
,
00010000
00000000
00000100
00001000
00000000
00000001
00001000
00000000
00000000
00000010
00000000
00000000
,
00020000
00000000
00000000
00031000
,
00001000
00010000
00100000
00000000
01000000
00000000
00020000
00000000
,
00100000
00100000
00130000
00001000
,
00010000
00001000
00010000
00000100
00001000
00000010
00001000
00000001
,
00000010
00000100
00001000
00000000
00000010
00000000
00010000
00000000
,
00001000
00000100
00000010
00000000
00001000
00000000
00000100
00000000
,
00002000
00000000
00000010
00000000
00003010
00000000
00010000
00001000
,
00010000
00000000
00001000
00000000
01000000
00000000
00010000
00000000
00100000
00000000
01000000
00000000
10000000
01000000
00100000
00010000
,
10000000
00010000
01000000
00200000
00000000
00000000
00000000
00000000
00300000
00000000
00000000
00000000
01000000
00000000
01010000
00000000
,
10010000
00000000
10010000
00000000
00110000
00000000
00110000
00000000
00101000
00000000
00001000
00010000
00000100
00000000
00000010
00000000
,
00001000
00000000
00010000
00000000
00000010
00000000
00000100
00000000
00001000
00000000
00010000
00000000
00000100
00000000
00001000
00000100
,
00000010
00000000
00000010
00000100
00001000
00000000
00000000
00000000
00001010
00000000
00000010
00000000
00010000
00000000
00000000
00000000
,
00001000
00010000
00001000
01000000
00001000
00010000
00001000
00100000
,
00001000
00010000
00001000
00000100
00001000
00010000
00001000
00100000
,
00010000
00000000
00001000
00000000
00010000
00000000
00100000
00000000
00010000
00000000
10000000
00000000
00010000
00000000
00010000
01000000
,
00001000
00000000
00001000
01000000
00010000
00000000
00010000
00100000
00001000
00000000
00001000
00000000
00100000
00000000
00000000
00000000
,
00110000
00000000
00100000
01000000
10000000
00000000
10000000
00000000
01000000
00000000
00100000
00000000
00001000
00000000
00010000
00000000
,
00001000
00000000
01000000
00010000
00100000
00000000
00001000
00100000
00010000
00000000
01000000
00000000
01001000
00000000
00000000
00000000
,
00110000
00000000
00010000
00100000
00001000
00000000
00010000
00000000
00001000
00000000
00000010
00000000
00000001
00000000
00000010
00000100
,
00001000
00000000
00001000
00000100
00000010
00000000
00000000
00000000
00000001
00000000
00001000
00000000
00001010
00000000
00000000
00000000
,
00010010
00000000
00010000
00001000
00010000
00000000
00000100
00000000
00001000
00000000
00000010
00000000
00010000
00000000
00100000
00000000
,
00010000
00000000
00001000
01000000
00010000
00000000
00010000
01000000
00001000
00000000
00010000
00000000
00011000
00000000
00000000
00000000
,
00010000
00000000
00000100
00001000
00000010
00000000
00000100
00000000
00000001
00000000
00001000
00000000
00002002
00000000
00000000
00000000
,
00003003
00000000
00000000
00000000
00000022
00000000
00000033
00000000
00002200
00000000
00003300
00000000
00000001
00000000
00001000
00000100
,
00001000
00000000
00000001
00000000
00000100
00000000
00000010
00001000
00000010
00000000
00010000
00000000
00001000
00000000
01000000
00010000
,
01000000
00000000
00100000
00000000
10000000
00000000
01000000
00100000
01000000
00000000
00010000
00000000
00001000
00000000
00010000
00000100
,
00010000
00000000
00001000
00000000
00000010
00000000
00000001
00001000
00000001
00000000
00000100
00000000
00001000
00000000
00010000
00001000
,
01000000
00000000
00010000
00000000
10000000
00000000
01000000
00100000
00010000
00000000
00100000
00000000
00001000
00000000
00010000
00000100
,
00001000
00000000
00000010
00000000
00010000
00000000
00001000
00000100
00000010
00000000
00001000
00000000
00000001
00000000
00000100
00001000
,
00010000
00000000
00001000
00000000
01000000
00000000
00010000
00100000
01000000
00000000
10000000
00000000
00100000
00000000
00010000
00000000
,
00001000
00000000
00010000
00000000
00011000
00000000
00000000
00000000
00010100
00000000
00000000
00000000
00000100
00000000
00001000
00000100
,
00001000
00000100
00001000
00000000
00000010
00000000
00000100
00000001
00000100
00000001
00001000
00000000
00000001
00000000
00000100
00001000
,
00010000
00000000
00001000
00000000
00010000
00000000
00100000
10000000
00100000
00000000
01000000
00000000
00010000
00000000
10000000
01000000
,
10000000
01000000
00100000
00000000
00010000
00000000
01000000
00010000
01000000
00010000
00100000
00000000
00001000
00000000
00010000
00000100
,
00001000
00000000
00000010
00000000
00001000
00000000
00000001
00000010
00000100
00000000
00010000
00000000
00001000
00000000
00010000
00001000
,
00010000
00000000
00000000
00001000
00000000
00000000
00010000
00000000
00000000
00000000
00000000
00000000
00001000
00000000
00000000
00000000
00001000
00000000
00000000
00000000
00001000
00000000
00000000
00000000
01000000
00000000
00000000
00000000
00000000
00000000
00010000
00000000
00000000
00100000
00000000
00000000
00010000
00000000
00000000
00100000
00000000
00000000
01000000
00000000
00000000
00000000
00000000
00000000
,
10000000
00000000
00010000
10000000
00010000
10000000
00100000
00000000
01000000
00000000
00010000
10000000
00010000
10000000
01000000
00000000
,
00100000
00000000
00010000
01000000
00010000
01000000
00001000
00000000
00010000
00000000
00001000
00010000
00001000
00010000
00000010
00001000
,
00000001
00000100
00000001
00001000
00000010
00001000
00000100
00000010
00000002
00000000
00000000
00000000
00000003
00000000
00000000
00000000
,
00000000
00000000
00000000
00000000
;
