
//----- song ID: cnfc -----//
#TITLE:コンフェイト*コンチェルト;
#ARTIST:ここなつ Produced by U-ske;
#TITLETRANSLIT:Confeito concerto;
#ARTISTTRANSLIT:CocoNatsu Produced by U-ske;
#BANNER:Confeito concerto.png;
#BACKGROUND:Confeito concerto-bg.png;
#CDTITLE:./CDTitles/SDVX III GRAVITY WARS.png;
#MUSIC:Confeito concerto.ogg;
#SAMPLESTART:46.376;
#SAMPLELENGTH:15;
#BPMS:0=142;
#BGSTAGE:5;
#NOTES:
     dance-single:
     :
     Beginner:
     2:
     :
0000
0000
0000
0000
,
0000
0000
0000
0000
,
0000
0000
0000
0000
,
0000
0000
0000
0000
,
0000
0000
0000
0000
,
0000
0000
0000
0000
,
0001
0000
0000
0000
,
0001
0000
0000
0000
,
0010
0000
0000
0000
,
0000
0000
0000
0000
,
0001
0000
0000
0000
,
0100
0000
0000
0000
,
0001
0000
0000
0000
,
0000
0000
0000
0000
,
0100
0000
0000
0000
,
0100
0000
0000
0000
,
0010
0000
0000
0000
,
0000
0000
0000
0000
,
0100
0000
0000
0000
,
1000
0000
0000
0000
,
0100
0000
0000
0000
,
0000
0000
0000
0000
,
0100
0000
0000
0000
,
0100
0000
0000
0000
,
0010
0000
0000
0000
,
0000
0000
0000
0000
,
1001
0000
0000
0000
,
0000
0000
0000
0000
,
1000
0000
0100
0000
,
1000
0000
0000
0000
,
0010
0000
0000
0000
,
0010
0000
0000
0000
,
0001
0000
0010
0000
,
0001
0000
0000
0000
,
0100
0000
0000
0000
,
0000
0000
0000
0000
,
0001
0000
0001
0000
,
0010
0000
0000
0000
,
0100
0000
0000
0000
,
0100
0000
0000
0000
,
1000
0000
1000
0000
,
0010
0000
0000
0000
,
0100
0000
0000
0000
,
0000
0000
0000
0000
,
1001
0000
0000
0000
,
0000
0000
0000
0000
,
1001
0000
0000
0000
,
0000
0000
0000
0000
,
0010
0000
0010
0000
,
0010
0000
0000
0000
,
0100
0000
0100
0000
,
0100
0000
0000
0000
,
1001
0000
0000
0000
,
0000
0000
0000
0000
,
0001
0000
0000
0000
,
0000
0000
0000
0000
,
0010
0000
0000
0000
,
0000
0000
0000
0000
,
0100
0000
0000
0000
,
0000
0000
0000
0000
,
1000
0000
0000
0000
,
0000
0000
0000
0000
,
1001
0000
0000
0000
,
1000
0000
0100
0000
,
0010
0000
0000
0000
,
1001
0000
0000
0000
,
0001
0000
0000
0000
,
0010
0000
0000
0000
,
0001
0000
0000
0000
,
0000
0000
0000
0000
,
1000
0000
0000
0000
,
0000
0000
0000
0000
,
0001
0000
0000
0000
,
0010
0000
0000
0000
,
0001
0000
0000
0000
,
0100
0000
0000
0000
,
1000
0000
0000
0000
,
0010
0000
0000
0000
,
1000
0000
0000
0000
,
0000
0000
0000
0000
,
1001
0000
0000
0000
,
0000
0000
0000
0000
;
#NOTES:
     dance-single:
     :
     Easy:
     6:
     :
0000
0000
0000
0000
,
0000
0000
0000
0000
,
0000
0000
0000
0000
,
0000
0000
0000
0000
,
0000
0000
0000
0000
,
0000
0000
0000
0000
,
1000
1000
0100
0000
,
1000
1000
0010
0000
,
2000
0000
0000
3000
,
1001
0000
0000
0000
,
0001
0001
0100
0000
,
0001
0001
0010
0000
,
0001
0010
0100
0010
,
0001
0100
0010
0000
,
1000
1000
0100
0000
,
1000
1000
0010
0000
,
1000
0010
0100
0010
,
1000
0100
0010
0000
,
0002
0000
0000
0003
,
0200
0000
0000
0300
,
0010
1000
0010
1000
,
0100
0000
0110
0000
,
2000
0000
0000
3000
,
0200
0000
0000
0300
,
0110
0000
0000
0000
,
1001
0000
0000
0000
,
1001
0000
0000
0000
,
0000
0000
0001
1000
,
0001
0001
0010
0010
,
0100
0010
0100
0000
,
1000
1000
0010
0010
,
0100
0010
0100
0000
,
0001
0100
0001
0100
,
0001
1000
0010
0000
,
1000
0100
1000
0100
,
0010
0110
0000
0000
,
1000
1000
0100
0100
,
0010
0100
0010
0000
,
0001
0001
0100
0100
,
0010
0100
0010
0000
,
1000
0010
1000
0010
,
1000
0001
0100
0000
,
0001
0010
0001
0010
,
0100
0110
0000
0000
,
2000
0000
0000
3000
,
0100
0000
0000
0110
0000
0000
0000
0000
,
0010
0000
0000
0110
0000
0000
0000
0000
,
0000
0000
0001
0001
,
1000
0100
1000
0000
,
0100
0000
0001
0000
,
0100
0000
1000
0000
,
0001
1000
0001
0000
,
0100
0000
1000
0000
,
0100
0001
0000
0000
,
0020
0000
0000
0030
,
0200
0000
0000
0300
,
2000
0000
0000
3000
,
0002
0000
0000
0003
,
0001
0000
0100
0000
,
0010
1000
0100
0000
,
1000
0000
0100
0000
,
0010
0110
0000
0000
,
1001
0000
0000
0000
,
0001
0100
0010
1000
,
0100
0100
0010
0000
,
0110
0000
1001
0000
,
1000
0010
1000
0100
,
0010
0010
0100
0000
,
1000
1000
1000
0000
,
0001
0001
0001
0000
,
0100
0100
0100
0000
,
0010
0110
0000
0000
,
0002
0000
0000
0003
,
0001
0100
0001
0100
,
0020
0000
0000
0030
,
0010
1000
0010
0000
,
2000
0000
0000
3000
,
1000
0100
1000
0100
,
0020
0000
0000
0030
,
0010
0001
0010
0000
,
2002
0000
3003
0000
,
0000
0000
0000
0000
;
#NOTES:
     dance-single:
     :
     Medium:
     10:
     :
0000
0000
0000
0000
,
0000
0000
0000
0000
,
0000
0000
0000
0000
,
0000
0000
0000
0000
,
0000
0000
0000
0000
,
0000
0000
0000
0000
,
1000
0000
1001
0000
0001
0100
0000
0110
,
0000
0010
1000
0000
0001
0010
0001
0100
,
0020
0000
1000
0000
0100
0000
1030
0001
,
0000
0001
1000
0002
0000
0000
0003
0000
,
0001
0000
0001
0100
0010
0000
0010
1000
,
0100
0010
0100
0000
0020
0000
0030
0000
,
0010
0001
0010
0000
0001
0000
1000
0100
,
0000
0100
0010
0000
0001
1000
0001
1000
,
0001
0000
1000
0010
0100
0000
0100
0010
,
1000
0001
1000
0000
0020
0000
0030
0000
,
1000
0100
0010
0000
0100
0000
0010
0001
,
0000
0001
0100
0000
0020
0000
0030
0000
,
0000
1000
0100
0001
,
0000
0001
0100
1000
,
0000
0000
0001
0000
0100
0000
1000
0100
,
0000
0100
0001
1000
,
0010
1000
0010
0000
1000
0100
1000
0000
,
0100
0010
0100
0000
0010
0001
0010
0002
,
0000
0000
0000
0000
,
0003
0000
0000
0001
1000
0001
1000
0000
,
0001
0000
0000
0000
,
0000
0000
1000
0001
,
1000
0100
0010
0000
0001
0100
0000
0100
,
0010
1000
0010
0000
0100
0001
0000
0001
,
0020
0000
0230
0000
2300
0000
3001
0100
,
0000
0100
0010
0000
1010
0000
0011
0000
,
0001
0000
1000
0000
0100
1000
0000
1000
,
0001
0000
0100
0000
0001
0010
0000
0010
,
0002
0000
0203
0000
0320
0000
1030
0001
,
0000
0001
1000
0000
0000
0000
0000
0000
,
0001
0010
0100
0000
1000
0010
0000
0010
,
0100
0001
0100
0000
0010
1000
0000
1000
,
0200
0000
0320
0000
0032
0000
1003
0010
,
0000
0010
0100
0000
0101
0000
1100
0000
,
1000
0000
0001
0000
0010
0001
0000
0001
,
1000
0000
0010
0000
1000
0100
0000
0100
,
2000
0000
3020
0000
0230
0000
0301
1000
,
0000
1000
0001
1000
0000
0000
0000
0000
,
0001
0010
0100
1000
,
1100
0000
0000
0101
0000
0000
1001
0000
,
1010
0000
0000
0011
0000
0000
0000
1001
,
0000
1000
0001
0000
1001
0000
0110
0000
,
0000
1000
0000
1000
0000
0010
0000
0100
,
0001
0000
0001
0010
0000
0010
0001
0000
,
1000
0100
1000
0000
0010
0100
0000
0110
,
0000
1000
0001
1000
0000
0000
0000
0000
,
0001
0010
0001
0000
0100
0010
0000
0110
,
0000
0001
1000
0001
0000
0000
0000
0000
,
2000
3000
0200
0300
,
0020
0030
0002
0003
,
1000
0010
1000
0000
0001
0010
0001
0010
,
0000
0001
0100
0000
0010
0000
0010
0000
,
1000
0000
0100
0000
0001
0100
1000
0000
,
0001
0000
0100
0000
1000
0100
0001
0000
,
1000
0000
0010
0000
0001
0000
0010
1000
,
0000
1000
0002
0000
0003
0000
0000
0000
,
1001
0000
1000
0001
1000
0001
1000
0000
,
0001
0010
0001
0000
0100
0000
1000
0000
,
0100
0000
0010
1000
0100
0000
0010
0001
,
0000
0001
0100
0000
0110
0000
1010
0000
,
1000
0001
0100
0000
0001
0010
0000
0010
,
0001
0000
0100
0000
0001
0010
0000
1000
,
0010
0000
0001
0010
0002
0000
0003
0000
,
1000
0000
0010
1000
0020
0000
0030
0000
,
0100
0000
0001
0100
0001
0000
1000
0100
,
0000
0100
1000
0000
0000
0000
0000
0000
,
0001
0000
1001
0000
1000
0100
0000
0010
,
0000
0100
1000
0000
0001
0010
0100
0000
,
1000
0000
1001
0000
0001
0100
0000
0010
,
0000
0100
0001
0000
0101
0000
1100
0000
,
0010
0000
1001
0000
0001
0100
0000
0010
,
0000
0100
1000
0000
0100
0010
0100
0000
,
0002
0000
0010
0000
0100
0000
1003
0010
,
0000
0010
1000
0100
0000
0000
0000
0000
,
0220
0000
0330
0000
,
0000
0000
0000
0000
;
#NOTES:
     dance-single:
     :
     Hard:
     14:
     :
0000
0000
0000
0000
,
0000
0000
0000
0000
,
0000
0000
0000
0000
,
0000
0000
0000
0000
,
0000
0000
0000
0000
,
0000
0000
0000
0000
,
1000
0100
0010
0001
1000
0010
0100
0010
,
1000
0100
0001
0100
1000
0010
0100
0010
,
2000
0000
0000
0000
3001
0000
0010
0000
0100
0000
1000
0001
1000
0000
1001
0000
,
0000
1000
0100
0020
0000
0000
0030
0000
,
0001
0000
0100
0000
0001
0000
0100
0000
0001
0000
0010
0001
0010
0000
0001
0000
,
1000
0000
0010
0000
1000
0000
0100
1000
0100
0000
1000
0001
1000
0000
0001
0000
,
0100
0000
0010
1000
0010
0000
0100
0001
0100
0000
0001
0000
0001
0000
0020
0000
,
0000
0100
0130
0000
0110
1000
0110
0001
,
1000
0000
0010
0000
1000
0000
0010
0000
1000
0000
0100
1000
0100
0000
1000
0000
,
0001
0000
0100
0000
0001
0000
0010
0001
0010
0000
0001
1000
0001
0000
1000
0000
,
1000
0010
0010
0100
0001
1000
0001
0200
,
0000
0310
0110
0000
2002
0003
0001
3001
,
1000
0010
0100
0001
1000
0010
0100
0001
,
0010
0001
1000
0100
0010
0001
1000
0100
,
0010
1000
0010
1000
0010
0001
0100
0010
,
0100
1000
0100
1000
0100
0001
1000
0100
,
0010
0001
0010
0000
0001
0000
0100
0000
0010
1000
0010
0000
1000
0000
0100
0000
,
0010
0100
0010
0000
0001
0000
1000
0000
0010
0100
0010
0000
0010
0000
2001
0000
,
0000
0000
0000
0000
3002
0000
0000
0000
0023
0000
0000
0000
0130
0000
1000
0001
,
1000
0000
0000
0001
0100
1000
0200
0000
,
0301
0010
0100
1000
0100
0000
0110
0000
0000
0000
1000
0000
1000
0000
1010
0000
,
0000
0000
0001
1000
0002
0000
0000
0000
0003
0000
0000
0000
0000
0000
0000
0000
,
1000
0000
0001
0000
0010
0000
0001
0100
0001
0000
1000
0000
0100
0000
0001
0000
,
0100
0000
0010
0001
0100
0000
0010
0000
1000
0000
0100
1000
0002
0000
0000
0000
,
0103
0000
0010
1000
0010
0000
0100
0001
0100
0000
0010
1000
0010
0000
1010
0000
,
0000
0000
0010
1000
0100
0010
0001
0000
0011
0000
0000
0000
1100
0000
0000
0000
,
0001
1000
0100
1100
1000
0001
0011
0110
,
1100
0000
1000
0000
0010
0000
0100
0000
0001
0000
0010
0001
1000
0010
1000
0000
,
0010
0000
0101
0000
0001
0000
1100
0000
0100
0000
0010
0001
0100
0000
0110
0000
,
0000
1000
0001
0000
1001
0000
0110
0000
,
1000
0000
0100
0010
0001
0000
0010
0100
1000
0000
0010
0000
0001
0000
0010
0000
,
0100
0000
0010
1000
0010
1000
0010
0000
0100
0000
0001
0010
0002
0000
0000
0000
,
0103
0000
0010
1000
0001
0000
0010
0001
1000
0000
0100
1000
0001
0000
0101
0000
,
0000
0000
0100
0001
0010
0100
1000
0000
1100
0000
0000
0000
0011
0000
0000
0000
,
0001
1000
0100
0000
1100
0000
1000
0000
0100
1000
0001
0000
0100
0000
0010
0000
,
1000
0000
1010
0000
0010
0000
0110
0000
0001
0000
1001
0000
1000
0001
1000
0000
,
0010
0000
0010
0000
0100
0000
0100
0000
0101
0000
0001
0100
0010
0000
0110
0000
,
0000
1000
0001
2002
0000
0000
3003
0000
,
1000
0000
0100
1000
0010
0000
0100
0000
0001
0000
0100
0000
0001
0000
0010
0000
,
0110
0000
0000
0000
1000
0000
1001
0000
0000
0000
0001
0010
0200
0000
0000
0000
,
1300
0000
0000
0000
1000
0100
0020
0000
0000
0000
0031
0000
0100
0000
0001
0000
,
0000
0001
1000
0010
0110
1000
1001
0001
,
0000
1000
1000
1000
1000
0100
0100
0010
,
0001
0000
0000
0000
0001
0100
0010
0000
1000
0000
0100
0000
0010
0000
0000
0000
,
0011
0001
0100
0010
1010
1100
0000
1010
,
0000
0000
1000
0100
1000
0100
0010
0000
0000
0000
0001
1000
0001
1000
0001
0000
,
0011
0010
0100
1000
1001
0101
0000
1010
,
0000
0000
1000
0100
0010
0001
1000
0000
0000
0000
0000
0000
0000
0000
0000
0000
,
0002
0103
2000
3100
,
0002
0013
2000
3010
,
0001
0100
0001
0010
0100
1000
0001
0100
,
0000
0100
0010
0000
1010
0000
1001
0000
,
0001
0100
1000
0001
0010
1000
0000
1000
,
1000
0100
0001
1000
0010
0001
0000
0001
,
0100
0010
0001
1000
0100
0010
1000
0100
,
0000
0100
0010
0000
0110
0000
1001
0000
,
0001
0000
0000
0000
1000
0100
0010
0000
0001
0100
0010
1000
0001
0000
0100
0000
,
0010
0000
0001
0000
1000
0000
0100
0000
0010
0000
1000
0001
0010
0100
1000
0000
,
0001
0000
0100
0010
1000
0000
0100
0010
0001
0000
0010
0100
1000
0000
0001
0000
,
0100
0000
0010
1000
0100
0010
0001
0000
0101
0000
0000
0000
1100
0000
0000
0000
,
1000
0100
0010
1000
0001
0100
0010
0001
,
0100
0000
1000
0000
0100
0000
0001
0000
1000
0000
0010
0100
0001
1000
0001
0000
,
0101
0000
0100
0000
0010
0000
1000
0000
1010
0000
0010
1000
0001
0100
0001
0000
,
0011
0000
0010
0000
0100
0000
1000
0000
1100
0000
0100
0010
0001
1000
0001
0000
,
0101
0000
0100
0000
0010
0000
1000
0000
1001
0000
0001
0010
0100
0000
0110
0000
,
0000
0000
0010
0100
0010
0000
0200
0000
0000
0000
0000
0000
0300
0000
0000
0000
,
1000
0000
0001
0000
0100
0000
0001
0010
0100
0000
1000
0000
0010
0000
0001
0000
,
1000
0000
0100
0001
0100
0010
0100
0000
0001
0000
0010
0100
1000
0100
1000
0000
,
0001
0000
0100
0000
1000
0000
0100
0000
0001
0000
0010
0100
0010
0000
0001
0000
,
0000
0000
0001
0100
0010
1000
0100
0000
0002
0000
0000
0000
0203
0000
0000
0000
,
1300
0010
0100
0110
1010
1000
0001
0010
,
0100
0000
0001
0000
1000
0000
0010
0000
0001
0000
0100
0010
1000
0010
0100
0000
,
0001
0000
0010
0000
0100
0000
1000
0000
0100
0000
0010
0001
1000
0000
1001
0000
,
0000
0000
0001
1000
0001
0000
0200
0000
0000
0000
0000
0000
0310
0000
0000
0000
,
0220
0000
0330
0000
,
0000
0000
0000
0000
;
#NOTES:
     dance-double:
     :
     Easy:
     5:
     :
00000000
00000000
00000000
00000000
,
00000000
00000000
00000000
00000000
,
00000000
00000000
00000000
00000000
,
00000000
00000000
00000000
00000000
,
00000000
00000000
00000000
00000000
,
00000000
00000000
00000000
00000000
,
10000000
00000000
01000000
00000000
,
00100000
00010000
00100000
00000000
,
00002000
00000000
00000000
00003000
,
00011000
00000000
00000000
00000000
,
00010000
00000000
00000100
00000000
,
00001000
00000100
00001000
00000000
,
00000100
00000010
00000100
00000000
,
00000110
00000000
00001001
00000000
,
00000001
00000000
00000010
00000000
,
00000100
00001000
00000100
00000000
,
00010000
00001000
00010000
00001000
,
00010000
00000000
00011000
00000000
,
00200000
00000000
00000000
00300000
,
02000000
00000000
00000000
03000000
,
01100000
00000000
10010000
00000000
,
10000000
00010000
10000000
00000000
,
10000000
00000000
01000000
00000000
,
00010000
00000000
00001000
00000000
,
00011000
00000000
00000000
00000000
,
00011000
00000000
00000000
00000000
,
00010000
00000100
00010000
00000000
,
00000100
00001000
00000100
00000000
,
00001000
00000000
00000001
00000000
,
00000010
00000100
00000010
00000000
,
00000001
00000000
00000100
00000000
,
00001000
00000000
00011000
00000000
,
00010000
00000000
00001000
00000000
,
00100000
00010000
00100000
00000000
,
00010000
00000000
01000000
00000000
,
01100000
00000000
00000000
00000000
,
00010000
00000000
10000000
00000000
,
00100000
01000000
00100000
00000000
,
10000000
00000000
01000000
00000000
,
00010000
00000000
00011000
00000000
,
00001000
00000000
00010000
00000000
,
00000010
00001000
00000010
00000000
,
00001000
00000000
00000100
00000000
,
00000010
00000010
00000000
00000000
,
00000002
00000000
00000000
00000003
,
00001000
00000000
00000000
00001000
00000000
00000000
00000000
00000000
,
00000100
00000000
00000000
00000100
00000000
00000000
00000000
00000000
,
00010000
00000000
00011000
00000000
,
00001000
00100000
00001000
00000000
,
00100000
00000000
01000000
00000000
,
01100000
00000000
00000000
00000000
,
10010000
00000000
00000000
00000000
,
10000000
01000000
00010000
00000000
,
00011000
00000000
00000000
00000000
,
00002000
00000000
00000000
00003000
,
00020000
00000000
00000000
00030000
,
00000020
00000000
00000000
00000030
,
00002000
00000000
00000000
00003000
,
00000001
00000000
00000010
00000000
,
00000100
00001000
00000100
00000000
,
00010000
00000000
00001000
00000000
,
00010000
00011000
00000000
00000000
,
01100000
00000000
00000000
00000000
,
10000000
00100000
10000000
00100000
,
01000000
00010000
01000000
00000000
,
00010000
00100000
00001000
00000000
,
00001000
00010000
00001000
00010000
,
00000100
00001000
00000100
00000000
,
00000110
00000000
00001001
00000000
,
00000001
00000100
00001000
00000000
,
00011000
00000000
00011000
00000000
,
00100000
01000000
00000000
00000000
,
01100000
00000000
00000000
00000000
,
10000000
00100000
01000000
00100000
,
10000000
00000000
00000000
00000000
,
10000000
01000000
00100000
00001000
,
00010000
00000000
00000000
00000000
,
00001000
00010000
00001000
00010000
,
00000200
00000000
00000000
00000300
,
00000100
00000010
00000001
00000000
,
00002002
00000000
00003003
00000000
,
00000000
00000000
00000000
00000000
;
#NOTES:
     dance-double:
     :
     Medium:
     10:
     :
00000000
00000000
00000000
00000000
,
00000000
00000000
00000000
00000000
,
00000000
00000000
00000000
00000000
,
00000000
00000000
00000000
00000000
,
00000000
00000000
00000000
00000000
,
00000000
00000000
00000000
00000000
,
10000000
00000000
10010000
00000000
10000000
01000000
00000000
01100000
,
00000000
00100000
00001000
00000000
00010000
00001000
00010000
00000000
,
00000200
00000000
00001000
00000000
00000320
00000000
00000031
00001000
,
00000000
00001000
00000001
00002000
00000000
00000000
00003000
00000000
,
00000001
00000000
00000001
00000100
00000010
00000000
00000010
00001000
,
00000010
00010000
00001000
00000000
00022000
00000000
00033000
00000000
,
00010000
00001000
00010000
00000000
00001000
00000000
00100000
00010000
,
00000000
00010000
01000000
00000000
00100000
01000000
01100000
00000000
,
10000000
00000000
10000000
01000000
00100000
00000000
00100000
00010000
,
00100000
00001000
00010000
00000000
00022000
00000000
00033000
00000000
,
00001000
00010000
00001000
00000000
00010000
00000000
00000010
00001000
,
00000000
00001000
00000100
00000000
00000220
00000000
00000330
00000000
,
00000000
00000001
00000100
00001000
,
00000000
00010000
00100000
10000000
,
00000000
00000000
10000000
00000000
01000000
00000000
00010000
00001000
,
00000000
00001000
00010000
00100000
,
00010000
00001000
00010000
00000000
00001000
00000010
00001000
00000000
,
00010000
00001000
00010000
00000000
01000000
00010000
00001000
00020000
,
00000000
00000000
00000000
00000000
,
00030000
00000000
00000000
00010000
00001000
00010000
00001000
00000000
,
00011000
00000000
00000000
00000000
,
00000000
00000000
00010000
00001000
,
00010000
00000010
00001000
00000000
00000100
00000010
00000000
00000010
,
00000001
00000100
00000001
00000000
00001000
00000100
00000000
00000100
,
00000002
00000000
00000203
00000000
00002300
00000000
00003010
00010000
,
00000000
00010000
00001000
00000000
00011000
00000000
00011000
00000000
,
00001000
00000000
00010000
00000000
00100000
01000000
00000000
01000000
,
00100000
00000000
10000000
00000000
01000000
00100000
00000000
00100000
,
02000000
00000000
03020000
00000000
00032000
00000000
00003010
00001000
,
00000000
00001000
00010000
00000000
00000000
00000000
00000000
00000000
,
00010000
00001000
00010000
00000000
00000100
00001000
00000000
00001000
,
00000010
00000100
00000010
00000000
00000100
00000001
00000000
00000001
,
00000020
00000000
00002030
00000000
00023000
00000000
01030000
10000000
,
00000000
10000000
00010000
00000000
01010000
00000000
01100000
00000000
,
10100000
00000000
10000000
00000000
00010000
00100000
00000000
00010000
,
01000000
00000000
00001000
00000000
00010000
00001000
00000000
00010000
,
00000020
00000000
00002030
00000000
00003100
00000000
00000010
00000001
,
00000000
00000001
00001000
00000001
00000000
00000000
00000000
00000000
,
00000001
00000100
00000010
00010000
,
00010010
00000000
00000000
00011000
00000000
00000000
01000000
00000000
,
01100000
00000000
00000000
10010000
00000000
00000000
00000000
10000000
,
00000000
10000000
01000000
00100000
00010000
00000000
00110000
00000000
,
00000000
00001000
00000000
00001000
00000000
00010000
00000000
00010000
,
00000100
00000000
00001000
00000001
00000000
00000001
00001000
00000000
,
00000001
00000100
00001000
00000000
00010000
00001000
00000000
00011000
,
00000000
00010000
00100000
10000000
00000000
00000000
00000000
00000000
,
10000000
01000000
00010000
00000000
00001000
00010000
00000000
00011000
,
00000000
00001000
00000010
00000001
00000000
00000000
00000000
00000000
,
00000002
00000003
00002000
00003000
,
00020000
00030000
20000000
30000000
,
10000000
00100000
10000000
00000000
01000000
00100000
01000000
00100000
,
00000000
00100000
00001000
00000000
00010000
00000000
00011000
00000000
,
00001000
00000000
00010000
00000000
00000100
00001000
00000010
00000000
,
00000100
00000000
00001000
00000000
00010000
01000000
00100000
00000000
,
00001000
00000000
00010000
00000000
00000100
00000000
00000010
00001000
,
00000000
00001000
00020000
00000000
00030000
00000000
00000000
00000000
,
00011000
00000000
00001000
00010000
00001000
00010000
00001000
00000000
,
00010000
00001000
00100000
00000000
00010000
00000000
01000000
00000000
,
10000000
00000000
01000000
00100000
10000000
00000000
01000000
00100000
,
00000000
00100000
00001000
00000000
00011000
00000000
00011000
00000000
,
00010000
00000010
00001000
00000000
00000100
00000001
00000000
00000001
,
00000100
00000000
00000010
00000000
00000001
00000100
00000000
00000100
,
00001000
00000000
00010000
00100000
00020000
00000000
00030000
00000000
,
00001000
00000000
00001000
00000010
00002000
00000000
00003000
00000000
,
00010000
00001000
00010000
00001000
00010000
00000000
00001000
00001000
,
00000000
00010000
00010000
00000000
00000000
00000000
00000000
00000000
,
00001000
00000000
00011000
00000000
00010000
00001000
00000000
01000000
,
00000000
00010000
00100000
00000000
00110000
00000000
11000000
00000000
,
10000000
00000000
01000000
00000000
00100000
00001000
00000000
00010000
,
00000000
00010000
00001000
00000000
00000110
00000000
00001001
00000000
,
00000001
00000000
00000100
00000000
00000001
00000010
00000000
00001000
,
00000000
00010000
01000000
00000000
00100000
00010000
01000000
00100000
,
20000000
00000000
00100000
00000000
32000000
00000000
03010000
00001000
,
00000000
00001000
00010000
00001000
00000000
00000000
00000000
00000000
,
00022000
00000000
00033000
00000000
,
00000000
00000000
00000000
00000000
;
#NOTES:
     dance-double:
     :
     Hard:
     14:
     :
00000000
00000000
00000000
00000000
,
00000000
00000000
00000000
00000000
,
00000000
00000000
00000000
00000000
,
00000000
00000000
00000000
00000000
,
00000000
00000000
00000000
00000000
,
00000000
00000000
00000000
00000000
,
10000000
01000000
00100000
00010000
10000000
01000000
00010000
01000000
,
10000000
00100000
01000000
00010000
00100000
00001000
00010000
00000100
,
00002000
00000000
00000000
00000000
00003020
00000000
00000000
00000000
00000130
00000000
00000001
00001000
00000001
00000000
00001001
00000000
,
00000000
00001000
00000100
00000020
00000000
00000000
00000030
00000000
,
00000001
00000000
00001000
00000000
00000010
00000000
00000100
00000000
00000001
00000000
00001000
00000100
00001000
00000000
00000010
00000000
,
00000100
00000000
00001000
00000000
00010000
00000000
00100000
00000000
01000000
00000000
00010000
01000000
00010000
00000000
10000000
00000000
,
00100000
00000000
00010000
00000000
10000000
00000000
01000000
00000000
00010000
00000000
10000000
01000000
10000000
00000000
00020000
00000000
,
00000000
00100000
00130000
00000000
00101000
00001000
00011000
00000000
,
00010000
00000000
00001000
00000000
00000010
00000000
00000001
00000000
00001000
00000000
00000100
00000010
00000100
00000000
00000001
00000000
,
00000100
00000000
00000010
00000000
00000001
00000000
00000100
00000010
00001000
00000000
00000010
00000100
00000001
00000000
00000100
00000000
,
00001000
00010000
00001000
00010000
00100000
10000000
00100000
02000000
,
00000000
03100000
01100000
00000000
20020000
00030000
00010000
30010000
,
10000000
01000000
00010000
00001000
00000010
00001000
00010000
01000000
,
00010000
00001000
00000100
00001000
00010000
00100000
00010000
00001000
,
00000100
00000001
00000010
00000100
00001000
00000010
00000100
00001000
,
00010000
00100000
01000000
10000000
01000000
00001000
00010000
01000000
,
10000000
00010000
10000000
00000000
00100000
00000000
01000000
00000000
00100000
00010000
00100000
00000000
00010000
00000000
00001000
00000000
,
00000100
00001000
00000100
00000000
00000001
00000000
00000010
00000000
00000100
00000010
00000100
00000000
00001000
00000000
00002001
00000000
,
00000000
00000000
00000000
00000000
00003002
00000000
00000000
00000000
00000203
00000000
00000000
00000000
00001300
00000000
00010000
00001000
,
00010000
00000000
00000000
00001000
00010000
01000000
20000000
00000000
,
30010000
00100000
01000000
10000000
01000000
00000000
01100000
00000000
00000000
00000000
10000000
00000000
01000000
00000000
00010000
00000000
,
00000000
00000000
00001000
00010000
00002000
00000000
00000000
00000000
00003000
00000000
00000000
00000000
00000000
00000000
00000000
00000000
,
00010000
00000000
00000010
00001000
00000010
00000000
00001000
00000100
00001000
00000000
00000001
00000000
00000010
00000000
00000100
00000000
,
00001000
00000000
00000010
00000100
00000010
00000000
00001000
00000001
00001000
00000000
00000100
00000000
00020000
00000000
00000000
00000000
,
00031000
00000000
00100000
00001000
00010000
00000000
00001000
00100000
00010000
00000000
01000000
00100000
10000000
00000000
10100000
00000000
,
00000000
00000000
10000000
01000000
00100000
00010000
00100000
00000000
00001000
00000000
00010000
00000000
00011000
00000000
00000000
00000000
,
00001000
00010000
00001000
00000100
00000001
00000011
00000110
00001100
,
00001000
00000000
00000100
00010000
00000100
00000000
00010000
00001000
00010000
00000000
00011000
00000000
00001000
00100000
00001000
00000000
,
00010000
00000000
01000000
00000000
00100000
00000000
00001000
00000000
00010000
00000000
01000000
00100000
00010000
00000000
10010000
00000000
,
00000000
00010000
01000000
10000000
10010000
00000000
01100000
00000000
,
10000000
00000000
00100000
01000000
00010000
00000000
00100000
01000000
10000000
00000000
00100000
00000000
00010000
00000000
00001000
00000000
,
00000100
00000000
00000010
00001000
00000010
00001000
00000010
00000000
00000100
00000000
00000001
00000010
00000002
00000000
00000000
00000000
,
00000103
00000000
00000010
00001000
00000001
00000000
00000010
00000001
00001000
00000000
00000100
00010000
00001000
00000000
00011000
00000000
,
00000000
00000000
00010000
00001000
01000000
00010000
01000000
00000000
00100000
00000000
10000000
00000000
10100000
00000000
00000000
00000000
,
10000000
00000000
01000000
00000000
00010000
00000000
00001000
00000000
00001010
00000000
00000011
00000000
00000000
00000000
00000001
00000100
,
00000001
00000000
00000100
00000000
00001000
00000000
00010000
00000000
00110000
00000000
10100000
00000000
00000000
00000000
00100000
10000000
,
00100000
00000000
10000000
00000000
00010000
00000000
00100000
00000000
00001000
00000000
00000010
00000100
00001000
00000000
00001100
00000000
,
00000000
00001000
00000001
00002002
00000000
00000000
00003003
00000000
,
00000001
00000000
00000100
00000010
00001000
00000000
00000100
00000000
00000010
00000000
00001000
00000000
00010000
00000000
01000000
00000000
,
01100000
00000000
00000000
00000000
10000000
00000000
10010000
00000000
00000000
00000000
10000000
01000000
00200000
00000000
00000000
00000000
,
00301000
00000000
00000000
00000000
00001000
00010000
00002000
00000000
00000000
00000000
00003010
00000000
00000001
00000000
00000010
00000000
,
00000000
00000010
00000001
00000100
00000110
00000000
00001001
00000000
,
00000000
00000001
00000001
00001000
00001000
00010000
00010000
10000000
,
10000000
00000000
00000000
00000000
10000000
00100000
01000000
00000000
00010000
00000000
00100000
00000000
00010000
00000000
00000000
00000000
,
00110000
00100000
00001000
00010000
00000010
00001010
00000000
00001100
,
00000000
00000000
00000100
00001000
00000100
00010000
00001000
00000000
00000000
00000000
00010000
00001000
00010000
00001000
00010000
00000000
,
00011000
00001000
00100000
00010000
01010000
01001000
00000000
00011000
,
00000000
00000000
00010000
00000100
00001000
00000100
00000010
00000000
00000000
00000000
00000000
00000000
00000000
00000000
00000000
00000000
,
00000001
00000000
00000100
00000000
00000010
00001000
00000000
00001000
,
00000100
00000000
00010000
00000000
00001000
00010000
00000000
00010000
,
00100000
01000000
00100000
00000000
10000000
01000000
00100000
00010000
,
00000000
00010000
00100000
00000000
00101000
00000000
00011000
00000000
,
00010000
00001000
00000010
00000100
00010000
00001000
00000000
00001000
,
00010000
00100000
01000000
00001000
00010000
00100000
00000000
00100000
,
10000000
01000000
10000000
01000000
00010000
00001000
00010000
00001000
,
00000000
00001000
00000010
00000000
00000110
00000000
00001001
00000000
,
00000000
00000000
00000000
00000000
00000001
00000100
00000010
00000000
00001000
00000100
00010000
00000100
00002000
00000000
00000000
00000000
,
00003010
00000000
00000100
00000000
00001000
00000000
00010000
00000000
00100000
00000000
01000000
00010000
10000000
00000000
01000000
00100000
,
00010000
00000000
10000000
00000000
01000000
00000000
00010000
00001000
00010000
00000000
00000100
00000010
00000100
00000000
00000110
00000000
,
00000000
00000000
00000001
00000010
00000100
00001000
00000001
00000000
00000011
00000000
00000000
00000000
00001100
00000000
00000000
00000000
,
00001000
00000100
00010000
00001000
00100000
01000000
00010000
00001000
,
00000010
00000000
00001000
00000000
00010000
00000000
00100000
00000000
01000000
00000000
00001000
00000000
00010000
00001000
00010000
00000000
,
00000100
00000000
00000010
00000000
00000100
00000000
00010000
00000000
00011000
00000000
00001000
00010000
00001000
00000000
00001000
00000000
,
01000000
00000000
00100000
00000000
01000000
00000000
00001000
00000000
00011000
00000000
00010000
00001000
00010000
00000000
00010000
00000000
,
00000010
00000100
00000010
00010000
00001000
00010000
01000000
01100000
,
00000000
00000000
10000000
00010000
10000000
00000000
00020000
00000000
00000000
00000000
00000000
00000000
00030000
00000000
00000000
00000000
,
10000000
00000000
00100000
00000000
01000000
00000000
00010000
10000000
01000000
00000000
00100000
00000000
00001000
00000000
00010000
00000000
,
00001000
00000000
00000010
00000000
00000001
00000010
00000100
00000000
00000010
00000000
00000100
00000000
00001000
00000001
00001000
00000000
,
00000001
00000000
00000100
00000000
00001000
00000000
00010000
00000000
00000010
00000000
00000100
00001000
00000100
00000000
00000010
00000000
,
00001000
00000000
00000100
00010000
00000100
00000000
00010000
00000000
02000000
00000000
00000000
00000000
13000000
00000000
00000000
00000000
,
10000000
00100000
00010000
00001000
00100000
01000000
00010000
00001000
,
00000010
00000000
00000011
00000000
00000001
00000000
00001001
00000000
00001000
00000000
00000010
00000100
00000001
00001000
00000010
00000000
,
00000100
00000000
00001000
00000000
00010000
00000000
00000010
00000000
00001000
00000000
00000010
00010000
00001000
00000000
00011000
00000000
,
00000000
00000000
00001000
00010000
00001000
00000000
00200000
00000000
00000000
00000000
00000000
00000000
01300000
00000000
00000000
00000000
,
02200000
00000000
03300000
00000000
,
00000000
00000000
00000000
00000000
;
