
//----- song ID: cogv -----//
#TITLE:Complete Game Victory;
#ARTIST:Numb'n'dub;
#BANNER:Complete Game Victory.png;
#BACKGROUND:Complete Game Victory-bg.png;
#CDTITLE:./CDTitles/DDR A3.png;
#MUSIC:Complete Game Victory.ogg;
#SAMPLESTART:2.4;
#SAMPLELENGTH:15;
#BPMS:0=200;
#STAGE:17;
#NOTES:
     dance-single:
     :
     Beginner:
     2:
     :
0000
0000
0000
0000
,
0000
0000
0000
0000
,
0000
0000
0000
0000
,
0000
0000
0000
0000
,
0000
0000
0000
0000
,
0000
0000
0000
0000
,
0001
0000
0000
0000
,
0001
0000
0000
0000
,
1000
0000
0000
0000
,
1000
0000
0000
0000
,
0010
0000
0000
0000
,
0010
0000
0000
0000
,
0100
0000
0000
0000
,
0100
0000
0000
0000
,
0001
0000
0000
0000
,
0000
0000
0000
0000
,
1000
0000
1000
0000
,
1000
0000
0000
0000
,
0001
0000
0001
0000
,
0001
0000
0000
0000
,
0100
0000
0100
0000
,
0100
0000
0000
0000
,
0010
0000
0010
0000
,
0010
0000
0000
0000
,
2000
0000
0000
0000
,
0000
0000
3000
0000
,
0000
0000
0000
0000
,
0000
0000
0000
0000
,
0002
0000
0000
0000
,
0000
0000
0003
0000
,
0000
0000
0000
0000
,
2002
0000
3003
0000
,
1000
0000
0000
0000
,
1000
0000
0000
0000
,
0001
0000
0000
0000
,
0001
0000
0000
0000
,
1000
0000
0000
0000
,
1000
0000
0000
0000
,
0001
0000
0000
0000
,
0001
0000
0000
0000
,
1000
0000
0000
0000
,
0001
0000
0000
0000
,
0100
0000
0000
0000
,
0010
0000
0000
0000
,
0100
0000
0000
0000
,
0001
0000
0000
0000
,
1000
0000
0000
0000
,
0001
0000
0000
0000
,
0000
0000
0000
0000
,
1000
0000
1000
0000
,
1000
0000
0000
0000
,
0001
0000
0001
0000
,
0001
0000
0000
0000
,
1000
0000
1000
0000
,
1000
0000
0000
0000
,
0001
0000
0001
0000
,
0001
0000
0000
0000
,
0100
0000
0100
0000
,
0100
0000
0000
0000
,
0010
0000
0010
0000
,
0010
0000
0000
0000
,
1000
0000
1000
0000
,
1000
0000
0000
0000
,
0001
0000
0001
0000
,
0001
0000
0000
0000
,
0100
0000
0000
0000
,
0010
0000
0000
0000
,
1000
0000
0000
0000
,
2002
0000
3003
0000
,
1000
0000
0000
0000
,
1000
0000
0000
0000
,
0001
0000
0000
0000
,
0001
0000
0000
0000
,
1000
0000
0000
0000
,
1001
0000
0000
0000
,
0010
0000
0000
0000
,
0110
0000
0000
0000
,
0001
0000
0000
0000
,
1001
0000
0000
0000
,
0100
0000
0000
0000
,
0110
0000
0000
0000
,
0001
0000
0000
0000
,
0001
0000
0000
0000
,
1000
0000
0000
0000
,
1000
0000
0000
0000
,
0020
0000
0000
0000
,
0000
0000
0000
0000
,
0000
0000
0000
0000
,
0030
0000
0000
0000
,
0200
0000
0000
0000
,
0000
0000
0000
0000
,
0000
0000
0000
0000
,
0300
0000
0000
0000
,
0002
0000
0000
0000
,
0000
0000
0000
0000
,
0000
0000
0000
0000
,
0003
0000
0000
0000
,
2000
0000
0000
0000
,
0000
0000
0000
0000
,
0000
0000
0000
0000
,
3000
0000
0000
0000
,
0000
0000
0000
0000
;
#NOTES:
     dance-single:
     :
     Easy:
     8:
     :
0000
0000
0000
0000
,
0000
0000
0000
0000
,
0000
0000
0000
0000
,
0000
0000
0000
0000
,
0000
0000
0000
0000
,
0000
0000
0000
0000
,
0001
1000
0010
0000
,
0100
0001
1000
0000
,
0001
1000
0010
0000
,
0100
0100
0001
1000
,
1001
0000
0000
0001
0000
0000
0011
0000
,
1000
0000
0000
1000
0000
1010
0000
0000
,
0001
0000
0000
0001
0000
0000
0011
0000
,
1000
0000
0000
1000
0000
0000
1010
0000
,
0001
0001
0001
0000
0100
0000
0010
0000
,
1010
0101
1010
0101
,
0001
0000
0010
0000
0100
0000
1000
1000
,
1000
0001
0011
1100
,
1000
0010
0100
0001
,
1000
0100
1100
0011
,
1000
0000
0010
0000
0100
0000
0001
0001
,
0001
1000
1100
0110
,
0001
0001
0001
0001
,
1000
0010
0100
0110
,
0002
0000
0000
0000
,
2003
0000
3200
0000
,
0000
0000
0000
0000
0000
0000
0000
0300
,
0000
0000
0000
0000
,
2000
0000
0000
0000
,
3020
0000
0230
0000
,
0000
0000
0000
0000
0000
0000
0000
0300
,
0010
0000
1001
0000
,
0001
0100
0010
0100
,
0001
1000
0100
0010
,
0100
1000
0001
0100
,
0010
1000
0001
0100
,
0001
0010
0100
1000
,
0010
1000
0001
0010
,
0100
1000
1000
1000
,
0001
0100
0010
0000
,
1000
1100
0001
0100
,
0001
0010
0100
1000
,
0001
0101
1000
0100
,
1000
0010
0100
0001
,
1000
1100
0001
0101
,
1000
1100
0001
0101
,
1000
0100
0010
0001
,
0200
0310
1000
2002
,
3003
0000
0000
0000
,
0001
0011
1000
1100
,
0001
0000
0100
0000
0010
0000
1000
0001
,
1000
1100
0001
0011
,
1000
0000
0010
0000
0100
0000
0001
1000
,
0001
0010
0100
1100
,
1000
0001
0100
0110
,
0010
1000
0100
1000
,
0001
0100
0010
0000
,
1000
1100
0001
0011
,
1000
0000
0010
0000
0100
0000
0001
1000
,
0001
0011
1000
1100
,
0001
0000
0100
0000
0010
0000
1000
0001
,
1000
0100
0010
0001
,
0001
0100
0010
1000
,
1000
0001
0100
0010
,
2000
0000
0002
3003
,
1000
1000
1000
0000
,
0001
0001
0001
0000
,
1000
0010
0100
0001
,
0020
0030
1001
0000
,
1000
0000
0100
0000
,
1000
0000
0010
0000
,
0100
0000
0001
0000
,
0010
0000
0100
0000
,
1000
0000
0000
1000
0000
0000
1100
0000
,
0001
0000
0000
0001
0000
0000
0101
0000
,
1000
0000
0000
0010
0000
0000
0110
0000
,
0001
0000
0000
0100
0000
0000
0110
0000
,
1000
0000
0000
0001
0000
0000
0011
0000
,
0100
0000
0000
1000
0000
0000
1010
0000
,
0010
0100
0001
0001
,
1000
0100
1000
1000
,
0001
0000
0000
0100
0000
0000
0001
0000
,
1000
0000
0000
0100
0000
0000
1000
0000
,
0010
0000
0000
0100
0000
0000
0010
0000
,
1000
0000
0000
0001
0000
0000
1000
0000
,
1002
0000
0000
0000
,
0203
0000
0302
2003
,
0000
0000
0000
0000
,
3000
0000
0000
0000
,
0020
0000
0000
0000
,
0230
0000
0302
0023
,
0000
0000
0000
0000
,
0030
0000
0000
0000
,
0200
0000
0000
0000
,
2300
0000
3002
0203
,
0000
0000
0000
0000
,
0300
0000
0000
0000
,
0002
0000
0000
0000
,
2003
0000
3200
0020
,
0000
0000
0000
0000
,
0300
0000
0000
0000
0000
0000
0000
0000
0000
0000
0000
0000
0000
0000
0000
0030
,
0000
0000
0000
0000
;
#NOTES:
     dance-single:
     :
     Medium:
     12:
     :
0000
0000
0000
0000
,
0000
0000
0000
0000
,
0000
0000
0000
0000
,
0000
0000
0000
0000
,
0000
0000
0000
0000
,
0000
0000
0000
0000
,
0001
1000
0010
0100
,
0010
1000
0001
0010
,
0100
1000
0001
0100
,
0001
0010
0100
1000
0010
1000
0100
0010
,
0001
0000
0000
1000
0000
0000
1100
0000
,
0001
0000
0000
0001
0000
0000
0001
0000
0000
0000
0101
0000
0000
0000
0000
0000
,
1000
0100
1000
0001
,
0100
0001
1000
0000
2002
0000
3003
0000
,
0001
0001
0001
0000
1000
0010
0100
0000
,
0001
0100
0001
1000
0100
1000
0001
0100
,
0010
0000
1010
0000
0101
0000
0001
0010
,
0100
0000
1100
0000
1000
0001
1000
0001
,
0100
0000
0101
0000
1010
0000
1000
0100
,
0010
0000
0001
0000
1000
0010
1000
0010
,
0100
0101
2001
0010
,
0001
0000
3100
0000
1000
0010
0100
0001
,
1000
0100
1000
0010
0100
0001
0010
0001
,
0100
0000
0110
0000
1000
0100
0010
0001
,
0200
0000
0000
0000
,
0320
0000
2030
0000
,
0000
0000
0000
0000
0000
0000
0000
3000
,
0000
0000
0000
0000
,
0002
0000
0000
0000
,
0203
0000
0320
0000
,
0000
0000
0000
0000
0000
0000
0000
0030
,
0100
0000
0000
0001
1001
0000
0000
0000
,
1000
0000
0100
0000
1000
0001
0010
0000
,
0001
0000
0100
0010
0100
0000
0001
0000
,
1000
0000
0001
0000
0010
0100
1000
0000
,
0001
0000
0100
0010
0100
0000
0001
0000
,
1000
0000
0010
0000
0100
0001
1000
0000
,
0010
0000
1000
0001
1000
0000
0010
0000
,
1000
0100
1000
0001
,
0100
0000
0001
0000
1000
0100
1000
0100
,
0010
0000
0011
0000
1000
0010
0100
0000
,
0001
0000
1001
0000
1000
0100
0010
0000
,
0100
0000
1100
0000
0001
0100
0010
0000
,
0100
0000
1001
0000
0001
0010
0100
0000
,
1100
1100
0101
0101
,
1001
0110
1001
0110
,
0001
1000
0100
0000
1000
0001
0010
0001
,
1000
0010
0100
0000
0001
0010
0100
0000
,
0000
0000
0000
0000
,
1100
0000
0011
0000
1000
0100
0010
0001
,
1000
0010
0100
0010
1000
0000
0001
0000
,
0011
0000
1100
0000
0001
0010
0100
1000
,
0001
0100
0010
0100
0001
0000
1000
0000
,
1100
0000
0101
0000
1000
0010
0100
0001
,
1000
0100
0010
0100
1000
0000
0001
0000
,
1000
0010
0200
0000
0001
0000
0010
0000
,
0301
0000
1000
0100
0010
0000
0000
0000
,
0001
1000
0001
1000
0010
0100
0001
0010
,
0001
0100
0001
0010
0001
0100
0010
0000
,
1000
0001
1000
0001
0010
0100
1000
0010
,
1000
0100
1000
0010
1000
0100
0010
0000
,
0001
1000
0001
1000
0010
0100
0010
1000
,
0001
0010
0100
1000
0001
0000
1000
0000
,
0020
0100
1000
0130
,
1000
0001
0010
0001
1000
0010
0100
0001
,
1000
0000
0100
0000
0010
0000
0001
0001
,
0001
0000
0100
0000
0010
1000
0001
0001
,
0001
0010
0100
1000
,
0001
0000
0000
0001
1001
0000
0000
0000
,
0002
0023
0230
0000
,
0320
0032
2003
3020
,
0230
0302
2003
0000
,
3002
0023
0230
2300
,
3010
0000
0100
0001
0000
0010
0011
0000
,
1000
0000
0100
1000
0000
0010
0100
0100
,
0100
0000
0001
1000
0000
1000
0100
0010
,
0001
0000
0100
0001
0000
1000
0001
0010
,
0100
0000
1000
0010
0000
0100
0001
1000
,
0100
0000
0010
0001
1000
1000
1000
0010
,
0100
0000
0001
0010
0100
0000
1100
0000
,
1000
0010
0100
0001
1000
0000
0001
0010
,
0100
0000
0000
1000
0000
0000
1010
0000
,
0001
0000
0000
0100
0000
0000
0101
0000
,
1000
0000
0100
1000
0000
0100
1000
0000
,
0001
0000
0100
0001
0000
0100
0001
0000
,
0020
0000
0000
0000
,
0230
0000
2300
3002
,
0000
0000
0000
0000
,
0003
0000
0000
0000
,
0200
0000
0000
0000
,
0320
0000
2030
3002
,
0000
0000
0000
0000
,
0003
0000
0000
0000
,
2000
0000
0000
0000
,
3200
0000
0320
0032
,
0000
0000
0000
0000
,
0003
0000
0000
0000
,
2000
0000
0000
0000
,
3002
0000
0203
0020
,
0000
0000
0000
0000
,
0300
0000
0000
0000
0000
0000
0000
0000
0000
0000
0000
0000
0000
0000
0000
0030
,
0000
0000
0000
0000
;
#NOTES:
     dance-single:
     :
     Hard:
     17:
     :
0000
0000
0000
0000
,
0000
0000
0000
0000
,
0000
0000
0000
0000
,
0000
0000
0000
0000
,
0000
0000
0000
0000
,
0000
0000
0000
0000
,
1000
0010
0100
0001
0010
0010
0001
1000
,
0100
1000
0100
1000
0100
0000
0010
0000
0001
1000
0001
1000
0001
0000
0100
0000
,
0000
0000
0010
0000
1000
0000
0001
0000
0100
0010
0100
0000
0001
0000
1000
0000
,
0001
0010
0001
1000
0100
1000
0001
0100
0001
1000
0010
1000
0001
0010
0100
1000
,
0001
0000
0100
0000
0001
0000
0101
0000
0000
0000
0000
0000
1000
0100
0000
0000
,
1000
0000
0000
0010
0000
0000
0100
0000
0000
0000
0101
0000
0000
0000
0000
0000
,
0001
0000
0001
0000
0010
0000
0100
0000
1000
0001
1000
0000
0010
0000
0100
0000
,
0001
0000
0001
0000
0010
0000
0100
0000
1000
0000
0000
0000
0001
1000
0001
1000
,
0001
0000
0100
0000
0010
0000
0000
0000
1000
0001
1000
0001
1000
0000
0100
0000
,
0010
0000
0001
0010
0001
0000
1000
0100
1000
0001
0100
0001
1000
0100
0010
0001
,
1000
0010
0100
0010
1000
0001
0100
0001
,
0001
1000
0100
0010
0011
0001
1001
0000
,
1000
0000
0100
0000
1000
0000
0010
0000
0100
0001
0100
0000
0001
0000
0010
0000
,
0100
1000
0001
0100
0110
0010
1010
0000
,
1000
1000
0001
0001
0100
0100
0001
0001
,
0010
0100
1000
0001
2000
0000
3002
0000
,
1003
0100
1000
0100
1000
0100
0010
0001
1000
0010
1000
0010
1000
0010
0100
0001
,
1000
0000
0100
0000
1000
0000
0001
0000
1000
0010
1000
0001
0010
0000
0001
0000
,
0200
0000
0000
0000
,
0302
0000
2003
0000
,
0000
0000
0000
0000
0000
0000
0000
3000
,
0000
0000
0000
0000
,
0002
0000
0000
0000
,
0023
0000
0230
0000
,
0000
0000
0000
0000
0000
0000
0000
0300
,
1000
0000
0000
0000
0000
0000
0010
1000
0001
0000
0000
0000
0000
0000
0000
0000
,
1000
0100
1000
0010
1000
0100
1000
0010
,
1000
0100
0010
0001
1000
0010
0100
0001
,
0010
0001
0100
0001
0010
0001
0100
0001
,
0010
0001
0100
0010
1000
0001
0010
0100
,
1000
0010
1000
0100
0010
0100
1000
0010
,
1000
0100
0010
0100
1000
0010
0100
0001
,
2000
0010
0001
3100
,
0001
0000
1000
0010
0100
0001
1000
0100
,
1000
0001
0101
0100
0010
1000
1001
0001
,
0100
0010
1010
1000
0100
0010
0011
0001
,
0100
0010
1010
1000
0001
0100
0110
0010
,
1000
0100
0110
0010
0001
1000
0010
0100
,
0101
0001
0011
0010
0110
0100
1100
1000
,
1010
0000
0010
0000
0110
0000
0100
0000
0101
0000
0001
0000
1000
0001
1000
0001
,
1000
0000
0100
0000
0010
0000
0001
0000
1000
0010
1000
0001
0100
0001
1000
0100
,
1000
0001
0100
0010
1000
0000
0001
0000
1000
0100
0010
0001
1000
0000
0000
0000
,
0002
1000
1000
1003
,
0001
0000
0010
0000
0001
0000
0100
0000
0010
0000
1000
0000
0100
0000
1000
0001
,
0100
0000
0010
0000
0100
0000
0001
0000
0010
0000
0100
0000
1000
0000
0001
0100
,
0010
0000
0100
0000
0001
0000
1000
0000
0100
0000
1000
0000
0010
0000
0100
0001
,
1000
0000
0100
0000
1000
0000
0010
0000
1000
0000
0001
0000
0010
0000
0100
1000
,
0001
0000
0010
0000
0001
0000
0100
0001
1000
0000
0100
0000
0010
0000
0001
1000
,
0010
0000
0100
0000
0001
0000
1000
0100
0010
0000
0100
0000
1000
0000
0010
0100
,
0001
0000
1000
0000
0100
0000
1000
0001
0100
0000
0010
0000
0100
0000
0001
1000
,
0100
0000
0010
0000
0100
0000
1000
0000
0010
0000
0010
0000
0100
0000
0100
0001
,
1000
0000
0100
0000
1000
0000
0010
0100
0001
0000
1000
0000
0100
1000
0100
0010
,
0001
0000
1000
0000
0010
0000
0100
0001
1000
0000
0100
0000
1000
0001
0100
0010
,
1000
0000
0001
0000
1000
0000
0100
0010
0001
0000
1000
0000
0001
0100
0010
0100
,
0001
0000
1000
0000
0001
0000
0010
0100
1000
0000
0001
0000
1000
0010
0100
0010
,
1000
0000
0001
0000
0100
0000
0001
0010
0100
0000
1000
0000
0010
0100
0001
1000
,
0100
0000
0010
0000
0001
0000
0100
0001
0010
0000
0001
0000
1000
0100
1000
0010
,
0100
0001
0010
0001
0100
0001
0010
0001
,
1000
0000
1000
0000
0001
0000
0001
0000
1000
0001
0100
0010
0100
0001
1000
0100
,
0010
0000
0001
0000
0100
0000
0010
0100
,
0100
0000
0001
0000
1000
1000
0001
0001
,
0100
0010
1000
0010
0100
0010
1000
0010
,
0200
0000
0000
0000
0300
0000
0010
1000
0001
0000
0000
0000
0000
0000
0000
0000
,
1000
0100
1000
0000
0001
0100
0001
0000
,
1000
0010
0100
0001
0010
0100
1000
0000
,
0001
0100
0001
1000
0100
1000
0001
0100
,
0001
0000
0001
0000
1000
0000
1000
0000
0001
0010
0100
1000
0001
1000
0010
0100
,
0001
0000
0010
0000
0100
0000
1000
0001
1000
0000
0010
0000
1010
0000
0000
0000
,
0101
0000
0001
0000
0010
0000
0100
1000
0100
0000
0010
0000
0011
0000
0011
0000
,
1000
0000
0010
0000
0100
0000
0001
0010
0001
0000
0100
0000
0010
1000
0010
1000
,
0001
0000
0010
0000
0100
0000
1000
0010
1000
0000
0100
0000
0010
0001
0100
0010
,
1000
0000
0001
0000
0100
0000
0010
1000
0010
0000
0100
0000
0101
0000
0011
0000
,
0001
0000
1000
0000
0010
0000
0100
0001
1000
0100
1000
0100
0010
0000
0001
0000
,
0011
0000
1000
0000
0010
0000
0100
0001
0010
0000
0100
0000
1000
0000
0010
0000
,
0110
0000
0100
0000
0001
0000
1000
0001
1000
0000
0001
0010
0100
1000
0010
0100
,
0001
0000
0000
0000
0000
0000
0001
0000
0000
0000
0000
0000
1000
0100
0000
0000
,
1000
0000
0000
0000
0000
0000
0001
0000
0000
0000
0000
0000
1000
0100
0000
0000
,
1000
0000
0010
0000
0010
0000
0100
0000
0001
0000
0001
0000
1000
0100
0000
0000
,
1000
0000
0010
0000
0100
0000
0001
0000
1000
0100
0010
0000
0001
0100
0010
1000
,
0002
0000
0000
0000
,
2003
0000
3002
0203
,
0000
0000
0000
0000
,
0300
0000
0000
0000
,
0020
0000
0000
0000
,
2030
0000
3002
0023
,
0000
0000
0000
0000
,
0030
0000
0000
0000
,
0002
0000
0000
0000
,
2000
0003
3200
0020
,
0300
0000
0000
0000
,
0030
0000
0000
0000
,
0200
0000
0000
0000
,
2000
0300
3020
0200
,
0000
0000
0000
0000
,
0030
0000
0000
0000
0000
0000
0000
0000
0000
0000
0000
0000
0000
0000
0000
0300
,
0000
0000
0000
0000
;
#NOTES:
     dance-double:
     :
     Easy:
     8:
     :
00000000
00000000
00000000
00000000
,
00000000
00000000
00000000
00000000
,
00000000
00000000
00000000
00000000
,
00000000
00000000
00000000
00000000
,
00000000
00000000
00000000
00000000
,
00000000
00000000
00000000
00000000
,
00010000
00001000
00100000
00001000
,
00001000
00010000
00000100
00010000
,
00010000
00001000
01000000
00010000
,
00010000
00100000
01000000
10000000
,
00100000
00000000
00000000
00100000
00000000
00000000
01100000
00000000
,
00001000
00000000
00000000
00010000
00000000
00011000
00000000
00000000
,
00010000
00000000
00000000
00000010
00000000
00000000
00001000
00000000
,
00000100
00001000
00001010
00000000
,
00000001
00000001
00000001
00000000
00000100
00000000
00000010
00000000
,
00001000
00001100
00000001
00000101
,
00000001
00000100
00001000
00010000
,
01000000
10000000
00100000
01100000
,
00010000
10000000
01000000
00010000
,
00001000
00000100
00000001
00000011
,
00000100
00001000
00000001
00000100
,
00001000
00010000
00001000
00011000
,
00001000
00010000
00001000
00010000
00001000
00010000
00001000
00000000
,
00100000
00010000
01000000
00010000
,
20000000
00000000
00000000
00000000
,
30200000
00000000
02300000
00000000
,
00000000
00000000
00000000
00000000
00000000
00000000
00000000
03000000
,
00000000
00000000
00000000
00000000
,
00002000
00000000
00000000
00000000
,
00023000
00000000
00030200
00000000
,
00000000
00000000
00000000
00000000
00000000
00000000
00000000
00000300
,
00000010
00000000
00001001
00000000
,
00000001
00000100
00000010
00001000
,
00000100
00010000
00001000
00000100
,
00000001
00000010
00000100
00010000
,
00001000
00010000
00100000
01000000
,
00010000
10000000
01000000
00100000
,
00010000
01000000
00001000
00010000
,
01000000
10000000
00100000
01000000
,
00001000
00010000
00001000
00000010
,
00000001
00000011
00001000
00001100
,
00010000
00001000
01000000
00010000
,
00100000
00110000
10000000
11000000
,
00100000
00010000
01000000
00001000
,
00011000
00011000
00101000
00101000
,
00011000
00011000
00010010
00010010
,
00000010
00001000
00000100
00000010
,
00000001
00001000
00000010
00000110
,
00000000
00000000
00000000
00000000
,
00010000
00001000
00010000
00100000
,
10000000
01000000
00100000
01000000
,
10000000
00100000
00010000
00001000
,
00000010
00000001
00000100
00000010
,
00000100
00000001
00000010
00001000
,
00010000
00100000
10000000
01000000
,
01100000
00110000
10000000
00100000
,
01100000
10100000
00010000
01000000
,
00001000
00010000
01000000
00100000
,
00001000
00010000
00100000
01000000
,
00001000
00010000
00001000
00000010
,
00000100
00010000
00001000
00000100
,
00000001
00000010
00001000
00010000
,
00100000
01000000
00001000
00010000
,
01000000
10000000
00100000
00010000
,
00001000
00010000
00000100
00000010
,
00000001
00000001
00000001
00000001
,
00001000
00001000
00001000
00001000
,
00000010
00000010
00000010
00000010
,
00010000
00000000
00011000
00000000
,
00001000
00000000
01000000
00000000
,
00100000
00000000
10000000
00000000
,
00010000
00010000
01000000
00100000
,
00100000
10000000
01000000
00010000
,
00011000
00000000
00000000
00000100
00000000
00000000
00010000
00000000
,
00001000
00000000
00000000
00100000
00000000
00000000
00001000
00000000
,
00010000
00000000
00000000
00000100
00000000
00000000
00000010
00000000
,
00000100
00000000
00000000
00010000
00000000
00000000
00001000
00000000
,
01000000
00000000
00000000
00100000
00000000
00000000
01000000
00000000
,
00001000
00000000
00000000
00010000
00000000
00000000
00011000
00000000
,
00001000
00000000
00000000
00000010
00000000
00000000
00000001
00000000
,
00000001
00000000
00000000
00000100
00000000
00000000
00001000
00000000
,
00000100
00000000
00000000
00000010
00000000
00000000
00000010
00000000
,
00001000
00000000
00000000
00000100
00000000
00000000
00000100
00000000
,
00010000
00000000
00000000
00001000
00000000
00000000
00001000
00000000
,
01000000
00000000
00000000
00010000
00000000
00000000
00010000
00000000
,
20000000
00000000
00000000
00000000
,
32000000
00000000
03200000
00320000
,
00000000
00000000
00000000
00000000
,
00030000
00000000
00000000
00000000
,
02000000
00000000
00000000
00000000
,
03200000
00000000
00320000
00032000
,
00000000
00000000
00000000
00000000
,
00003000
00000000
00000000
00000000
,
00020000
00000000
00000000
00000000
,
00030200
00000000
00000320
00000032
,
00000000
00000000
00000000
00000000
,
00000003
00000000
00000000
00000000
,
00002000
00000000
00000000
00000000
,
00003020
00000000
00020030
00002000
,
00000000
00000000
00000000
00000000
,
00030000
00000000
00000000
00000000
00000000
00000000
00000000
00000000
00000000
00000000
00000000
00000000
00000000
00000000
00000000
00003000
,
00000000
00000000
00000000
00000000
;
#NOTES:
     dance-double:
     :
     Medium:
     12:
     :
00000000
00000000
00000000
00000000
,
00000000
00000000
00000000
00000000
,
00000000
00000000
00000000
00000000
,
00000000
00000000
00000000
00000000
,
00000000
00000000
00000000
00000000
,
00000000
00000000
00000000
00000000
,
00001000
00010000
00000100
00001000
,
00000001
00000000
00001000
00000100
00000000
00000010
00000001
00000000
,
00001000
00000010
00010000
00001000
,
00022000
00000000
00000000
00033000
,
00010000
00000000
00000000
01000000
00000000
00000000
10000000
00000000
,
00100000
00000000
00000000
01000000
00000000
00000000
00100000
00000000
00000000
00000000
10100000
00000000
00000000
00000000
00000000
00000000
,
10000000
00000000
01000000
00100000
00010000
00000000
01000000
00000000
,
00001000
00010000
00000100
00001000
00000010
00000000
00000100
00000000
,
00000001
00000001
00000001
00000000
00000001
00000100
00001000
00000000
,
00010000
00001000
00010000
00000000
00001000
00010000
00100000
01000000
,
00010000
00000000
10000000
00000000
11000000
00000000
00010000
01000000
,
01000000
00000000
00100000
00000000
00010000
00001000
00000010
00000100
,
00001000
00000000
00001010
00000000
00000001
00000100
00001000
00010000
,
00001000
00000000
00100000
00000000
01000000
10000000
00100000
00000000
,
10000000
01000000
00100000
00010000
01000000
00100000
00010000
00001000
,
00010000
00000000
00000100
00000010
00000001
00000000
00001001
00000000
,
00000001
00000100
00000010
00010000
00001000
00100000
01000000
10000000
,
00010000
00000000
00010000
00000000
10000000
00100000
01000000
00000000
,
00002000
00000000
00000000
00000000
,
00023000
00000000
00030200
00000000
,
00000000
00000000
00000000
00000000
00000000
00000000
00000000
00000300
,
00000000
00000000
00000000
00000000
,
00002000
00000000
00000000
00000000
,
00003020
00000000
00000230
00000000
,
00000000
00000000
00000000
00000000
00000000
00000000
00000000
00000300
,
00000001
00000000
00000000
00001000
00001001
00000000
00000000
00000000
,
00000001
00000100
00001000
00010000
,
00100000
00000000
01000000
00001000
00010000
00000000
00001000
00000000
,
00010000
01000000
10000000
00100000
,
01000000
00000000
00010000
10000000
01000000
00000000
00100000
00000000
,
00010000
10000000
00100000
00010000
,
00001000
00000000
00100000
00001000
00010000
00000000
00001000
00000000
,
00000010
00000001
00000001
00000001
,
00001000
00000000
00000010
00001000
00000001
00000000
00001001
00000000
,
00000001
00000100
00001000
00000000
00010000
00000100
00001000
00000000
,
00000100
00010000
00001000
00010000
00100000
00000000
01000000
00000000
,
00010000
10000000
01000000
00000000
00010000
00001000
00100000
00000000
,
00001000
00010000
00001000
00000100
00000010
00000000
00001000
00000000
,
00001001
00001001
00001100
00001100
,
00010100
00010100
00011000
00011000
,
00001000
00010000
00100000
00000000
01000000
00010000
10000000
00000000
,
02000000
03200000
00320000
10030000
,
00000000
00000000
00000000
00000000
,
11000000
00000000
00110000
00000000
10000000
00100000
00010000
00000000
,
00011000
00000000
00010200
00000000
00000310
00000001
00001000
00000000
,
00000101
00000000
00001010
00000000
00000001
00000010
00001000
00000000
,
00011000
00000000
02001000
00000000
03100000
10000000
00010000
00000000
,
10100000
00000000
01010000
00000000
10000000
01000000
00010000
00000000
,
00011000
00000000
00010020
00000000
00000130
00000001
00001000
00000000
,
00000002
00000010
00000010
00000013
,
00001000
00010000
00001000
00011000
,
00010000
01000000
10000000
00010000
00100000
01000000
10000000
00010000
,
01000000
00100000
00010000
00001000
00010000
00000000
00000100
00000000
,
00000010
00001000
00000010
00000001
00000100
00001000
00010000
00001000
,
00100000
00001000
00010000
00001000
01000000
00000000
00100000
00000000
,
10000000
00100000
10000000
00100000
00010000
00001000
00010000
00001000
,
00000010
00000001
00000010
00000001
00001000
00000000
00000010
00000000
,
00000100
00000001
00000100
00000001
00000010
00000001
00000010
00000001
,
00002000
00000000
00000002
00003003
,
00000001
00000000
00000100
00000000
00001000
00000000
00010000
00001000
,
00010000
00000000
01000000
00000000
10000000
10000000
00010000
01000000
,
00100000
00100000
01000000
01000000
,
00001000
00000000
00000000
00010000
00011000
00000000
00000000
00000000
,
00020000
00032000
00003020
00000000
,
00002030
00023000
00032000
00003200
,
00002300
00023000
00230000
00000000
,
00320000
00032000
00023000
02030000
,
13000000
00000000
00100000
01000000
00000000
00010000
00110000
00000000
,
00001000
00000000
00010000
00001000
00000000
00010000
00000100
00000010
,
00000001
00000000
00001000
00000010
00000000
00000100
00000001
00000000
,
00000001
00000100
00001000
00010000
00000000
00001000
00001000
00000000
,
01000000
00000000
00010000
00100000
00000000
01000000
11000000
00000000
,
10000000
00100000
00010000
00001000
00010000
00001000
00000010
00000001
,
00001000
00000000
00000001
00000100
00000000
00000001
00000010
00000000
,
00000100
00010000
00001000
00010000
00000000
00000000
00001000
00000000
,
00100000
00000000
00000000
00010000
00000000
00000000
01000000
00000000
,
00100000
00000000
00000000
10000000
00000000
00000000
01000000
00000000
,
00010000
00000000
00000000
00001000
00000000
00000000
00010000
00000000
,
00001000
00000000
00000000
00000010
00000000
00000000
00000001
00000000
,
00000200
00000000
00000000
00000000
,
00000320
00000000
00002030
00003200
,
00000000
00000000
00000000
00000000
,
00000300
00000000
00000000
00000000
,
00020000
00000000
00000000
00000000
,
00032000
00000000
02003000
03020000
,
00000000
00000000
00000000
00000000
,
00030000
00000000
00000000
00000000
,
00200000
00000000
00000000
00000000
,
00302000
00000000
00023000
02030000
,
00000000
00000000
00000000
00000000
,
03000000
00000000
00000000
00000000
,
20000000
00000000
00000000
00000000
,
30200000
00000000
00320000
00002000
,
00000000
00000000
00000000
00000000
,
00030000
00000000
00000000
00000000
00000000
00000000
00000000
00000000
00000000
00000000
00000000
00000000
00000000
00000000
00000000
00003000
,
00000000
00000000
00000000
00000000
;
#NOTES:
     dance-double:
     :
     Hard:
     17:
     :
00000000
00000000
00000000
00000000
,
00000000
00000000
00000000
00000000
,
00000000
00000000
00000000
00000000
,
00000000
00000000
00000000
00000000
,
00000000
00000000
00000000
00000000
,
00000000
00000000
00000000
00000000
,
00010000
00001000
00010000
00000010
00001000
00000001
00000010
00000100
,
00001000
00000100
00001000
00000100
00001000
00000000
00000010
00000000
00010000
00001000
00010000
00001000
00010000
00000000
00001000
00000000
,
00000000
00000000
01000000
00000000
00010000
00000000
00100000
00000000
01000000
10000000
01000000
00000000
00100000
00000000
00001000
00000000
,
00010000
00001000
00010000
00000010
00001000
00000010
00010000
00001000
00010000
00000100
00001000
00000100
00000010
00000001
00000010
00000100
,
00001000
00000000
00000000
00000000
00000000
00000000
00000001
00000000
00000000
00000000
00000000
00000000
00000100
00000010
00000000
00000000
,
00010000
00000000
00000000
00001000
00000000
00000000
00010000
00000000
00000000
00000000
00011000
00000000
00000000
00000000
00000000
00000000
,
00010000
00000000
00001000
00000000
00001000
00000000
00100000
00000000
01000000
00000000
10000000
00000000
00010000
01000000
00000000
00000000
,
00010000
00000000
00010000
00000000
10000000
00000000
01000000
00000000
00010000
00000000
00000000
00000000
00001000
00010000
00001000
00010000
,
00001000
00000000
00010000
00000000
00011000
00000000
00000000
00000000
00010000
00000100
00001000
00000100
00000010
00000000
00000001
00000000
,
00001000
00000000
00000010
00000100
00000010
00000000
00001000
00000100
00001000
00000001
00000010
00000001
00001000
00000010
00001000
00000001
,
00000100
00000001
00000010
00001000
00010000
00100000
01000000
00001000
,
00001000
00010000
01000000
10000000
10100000
00100000
01100000
00000000
,
10000000
00100000
00010000
00001000
00000010
00000100
00010000
00001000
,
00000100
00000001
00000010
00000100
00001100
00001000
00001010
00000000
,
00000010
00010000
00001000
00000010
00000001
00000100
00001000
00010000
,
01000000
00100000
00010000
00100000
00001000
00010000
00011000
00000000
,
00000100
00001000
00000100
00001000
00000100
00010000
00001000
00010000
00000010
00001000
00000010
00001000
00000010
00010000
00001000
00010000
,
00000100
00000000
00001000
00000000
00000010
00000000
00001000
00000000
00000001
00000100
00000001
00000100
00000001
00000000
00000010
00000000
,
00000200
00000000
00000000
00000000
,
00020300
00000000
00032000
00000000
,
00000000
00000000
00000000
00000000
00000000
00000000
00000000
00003000
,
00000000
00000000
00000000
00000000
,
02000000
00000000
00000000
00000000
,
03020000
00000000
00230000
00000000
,
00000000
00000000
00000000
00000000
00000000
00000000
00000000
00300000
,
01000000
00000000
00000000
00000000
00000000
00000000
00100000
00010000
10000000
00000000
00000000
00000000
00000000
00000000
00000000
00000000
,
10000000
01000000
10000000
01000000
00100000
00010000
00100000
00010000
,
01000000
00100000
00010000
00001000
00010000
00000100
00000010
00000001
,
00001000
00000010
00001000
00000010
00000100
00000001
00000100
00000001
,
00000010
00000100
00001000
00000010
00000100
00001000
00010000
01000000
,
10000000
00100000
10000000
00100000
01000000
00010000
01000000
00010000
,
00100000
01000000
00010000
00001000
00100000
00001000
00010000
00100000
,
01000000
00001000
01000000
00010000
01000000
00100000
01000000
10000000
,
01000000
00100000
01000000
00010000
01000000
00001000
00010000
01000000
,
00100000
00001000
00010000
01000000
10000000
00100000
00010000
00100000
,
10000000
01000000
00010000
00001000
00000010
00000001
00001000
00000010
,
00000001
00000010
00010000
00001000
01000000
00100000
10000000
01000000
,
00010000
00000000
00001000
00000000
00010000
00000000
00100000
00000000
01000000
00000000
00001000
00000000
00010000
00000000
00000100
00001000
,
00000100
00001000
00000010
00000100
00000101
00000001
00000010
00000100
,
00001100
00000000
00001000
00000000
00000010
00000000
00010000
00000000
00011000
00000000
00001000
00000000
01000000
00010000
01000000
00010000
,
00100000
00000000
00010000
00000000
10000000
00000000
00000000
00000000
00010000
01000000
00010000
10000000
00100000
10000000
00010000
00100000
,
01000000
10000000
01000000
10000000
01000000
00000000
00010000
00000000
00001000
00010000
00001000
00010000
00001000
00000000
00000000
00000000
,
00020000
00001000
00001000
00031000
,
00010000
00000000
00000100
00000000
00000010
00000000
00000001
00000000
00001000
00000000
00000001
00000000
00000100
00000000
00001000
00010000
,
00100000
00000000
10000000
00000000
00010000
00000000
01000000
00000000
00100000
00000000
10000000
00000000
01000000
00000000
00010000
00001000
,
00000010
00000000
00000001
00000000
00001000
00000000
00000010
00000000
00000100
00000000
00000001
00000000
00000100
00000000
00001000
00010000
,
00100000
00000000
01000000
00000000
00010000
00000000
10000000
00000000
01000000
00000000
00100000
00000000
00001000
00000000
00010000
00001000
,
00000010
00000000
00000001
00000000
00000010
00000000
00000100
00000000
00001000
00000000
00000010
00000000
00010000
00000000
00001000
00010000
,
00100000
00000000
10000000
00000000
01000000
00000000
00100000
00000000
01000000
00000000
10000000
00000000
00100000
00000000
00010000
00001000
,
00010000
01000000
00010000
00001000
00010000
01000000
00010000
00001000
,
00010000
00000000
00000100
00000000
00000010
00000000
00000001
00000000
00000100
00000000
00000100
00000000
00000010
00000000
00000010
00001000
,
00000001
00000000
00000010
00000000
00000100
00000000
00001000
00000001
00000100
00000000
00001000
00000000
00010000
00000000
00100000
01000000
,
00010000
00000000
10000000
00000000
01000000
00000000
00010000
00001000
00100000
00000000
00001000
00000000
00010000
00000000
00001000
00000010
,
00000100
00000000
00001000
00000000
00000001
00000000
00000100
00001000
00010000
00000000
00001000
00000000
00100000
00000000
00010000
00100000
,
01000000
00000000
10000000
00000000
00010000
00000000
01000000
00100000
00010000
00000000
00001000
00000000
00000010
00000000
00000001
00000010
,
00000100
00000000
00010000
00000000
00001000
00000000
00010000
00100000
01000000
00000000
00010000
00000000
10000000
00000000
01000000
00100000
,
00010000
00000000
01000000
00000000
00100000
00000000
00010000
00001000
00010000
00000000
00000100
00000000
00001000
00000000
00000010
00000000
,
00010000
00001000
00000010
00001000
00010000
00001000
00000010
00001000
,
00010000
00000000
00001000
00000000
00000100
00000000
00000001
00000000
00001000
00000100
00001000
00000001
00000010
00000001
00001000
00000010
,
00000100
00000000
00000001
00000000
00001000
00000000
00000010
00010000
,
00010000
00000000
00001000
00000000
01000000
01000000
00010000
00010000
,
10000000
01000000
10000000
00100000
10000000
01000000
10000000
00100000
,
02000000
00000000
00000000
00000000
03000000
00000000
00100000
10000000
00010000
00000000
00000000
00000000
00000000
00000000
00000000
00000000
,
20000000
32000000
03200000
00010000
,
00302000
00023000
00230000
02300000
,
03002000
00023000
01000000
00031000
,
00010000
00000000
00010000
00000000
00001000
00000000
00001000
00000000
00010000
00001000
00010000
00001000
00010000
00001000
00010000
00001000
,
00010000
00000000
00001000
00000000
01000000
00000000
00010000
00100000
00010000
00000000
10000000
00000000
10100000
00000000
00000000
00000000
,
01100000
00000000
00100000
00000000
00010000
00000000
00001000
00010000
00000100
00000000
00000010
00000000
00000001
00000000
00000001
00000000
,
00000100
00000000
00001000
00000000
00010000
00000000
00100000
01000000
00100000
00000000
10000000
00000000
00010000
00100000
00010000
00100000
,
00001000
00000000
00010000
00000000
01000000
00000000
10000000
01000000
10000000
00000000
00010000
00000000
00100000
00010000
00100000
00001000
,
00010000
00000000
00000100
00000000
00000010
00000000
00000001
00001000
00000001
00000000
00000100
00000000
00000010
00000000
00001010
00000000
,
00000001
00000000
00000100
00000000
00001000
00000000
00010000
00000000
00001000
00010000
00000100
00010000
00001000
00000000
01000000
00000000
,
00010000
00100000
00001000
00010000
00001010
00000001
00001010
00010000
,
00000010
00000000
00001000
00000000
00000100
00000000
00000010
00000001
00000010
00000000
00000100
00000000
00010000
00000000
01000000
00000000
,
10000000
00000000
00000000
00000000
00100000
00000000
01000000
00000000
00000000
00000000
00100000
00000000
10000000
00010000
00000000
00000000
,
01000000
00000000
00000000
00000000
00001000
00000000
00100000
00000000
00000000
00000000
00001000
00000000
00010000
00001000
00000000
00000000
,
00010000
00000010
00000010
00001000
00000001
00000001
00000010
00000100
,
00001000
00000100
00001000
00000000
00000010
00000000
00010000
00001000
00010000
00000000
00001000
00000000
01000000
00010000
01000000
00100000
,
20000000
00000000
00000000
00000000
,
30020000
00000000
02030000
03200000
,
00000000
00000000
00000000
00000000
,
00300000
00000000
00000000
00000000
,
02000000
00000000
00000000
00000000
,
03200000
00000000
00320000
00032000
,
00000000
00000000
00000000
00000000
,
00003000
00000000
00000000
00000000
,
00020000
00000000
00000000
00000000
,
00000200
00030000
00000320
00000032
,
00000000
00000000
00000000
00000000
,
00000003
00000000
00000000
00000000
,
00000200
00000000
00000000
00000000
,
00000020
00000300
00020030
00002000
,
00000000
00000000
00000000
00000000
,
00030000
00000000
00000000
00000000
00000000
00000000
00000000
00000000
00000000
00000000
00000000
00000000
00000000
00000000
00000000
00003000
,
00000000
00000000
00000000
00000000
;
