
//----- song ID: m1dy -----//
#TITLE:Come To m1dy;
#ARTIST:m1dy;
#BANNER:Come To m1dy.png;
#BACKGROUND:Come To m1dy-bg.png;
#CDTITLE:./CDTitles/DDR A3.png;
#MUSIC:Come To m1dy.ogg;
#SAMPLESTART:10.667;
#SAMPLELENGTH:15;
#DISPLAYBPM:113:450;
#BPMS:0=450,72=112.5,73=225,74=450,132=225,136=450,199=225,200=450,254=225,258=450,316=225,317=112.5,318=450,376=225,377=112.5,378=450,482=225,486=450,542=225,546=450,668=225,669=112.5,670=225;
#STOPS:168=0.133;
#BGSTAGE:17;
#NOTES:
     dance-single:
     :
     Beginner:
     6:
     :
0000
0000
0000
0000
,
0000
0000
0000
0000
,
0000
0000
0000
0000
,
0000
0000
0000
0000
,
0000
0000
0000
0000
,
0000
0000
0000
0000
,
0000
0000
0000
0000
,
0000
0000
0000
0000
,
0000
0000
0000
0000
,
0000
0000
0000
0000
,
0000
0000
0000
0000
,
0000
0000
0000
0000
,
1000
0000
0000
0000
,
0000
0000
0000
0000
,
0001
0000
0000
0000
,
0000
0000
0000
0000
,
1000
0000
0000
0000
,
0000
0000
0000
0000
,
2002
0000
3003
0000
,
0001
0000
0000
0000
,
0001
0000
0000
0000
,
1000
0000
0000
0000
,
1000
0000
0000
0000
,
0010
0000
0000
0000
,
0010
0000
0000
0000
,
0100
0000
0000
0000
,
0100
0000
0000
0000
,
0001
0000
0000
0000
,
0001
0000
0000
0000
,
0010
0000
0000
0000
,
0010
0000
0000
0000
,
0100
0000
0000
0000
,
0100
0000
0000
0000
,
2000
0000
0000
3000
,
0001
0000
0000
0000
,
1000
0000
0000
0000
,
0001
0000
1000
0000
,
0001
0000
0000
0000
,
1000
0000
0000
0000
,
0001
0000
0000
0000
,
1000
0000
0001
0000
,
1000
0000
0000
0000
,
1001
0000
0000
0001
,
0000
0000
0000
1000
,
0000
0000
0000
0001
,
0000
1000
0000
0001
,
0000
0000
0000
0100
,
0000
0000
0000
0010
,
0000
0010
0000
0010
,
0000
0000
0000
0000
,
0010
0000
0010
0000
,
0000
0000
0100
0000
,
0000
0000
0010
0000
,
0000
0000
1000
0000
,
0000
0000
0001
0000
,
0000
0000
1000
0000
,
0001
0000
1000
0000
,
0000
0000
1001
0000
,
0000
0000
0110
0000
,
0000
0000
1001
0000
,
0000
0000
0110
0000
,
0000
0000
1000
0000
,
0000
0000
0001
0000
,
0000
0000
1001
0000
,
0000
0000
0001
0000
,
0000
0000
0010
0000
,
0000
0000
0001
0000
,
0001
0000
0001
0000
,
0000
0000
1000
0000
,
0000
0000
0010
0000
,
0000
0000
1000
0000
,
1000
0000
1000
0000
,
0000
0000
0100
0000
,
0000
0000
0010
0000
,
0000
0000
0100
0000
,
0100
0000
0100
0000
,
0000
0000
1000
0000
,
0000
0000
0001
0000
,
0000
0000
1001
0000
,
0000
0000
1000
0000
,
0000
0000
0100
0000
,
0000
0000
1000
0000
,
1000
0000
1000
0000
,
0000
0000
0001
0000
,
0000
0000
0100
0000
,
0000
0000
0001
0000
,
0001
0000
0001
0000
,
0000
0000
0010
0000
,
0000
0000
0100
0000
,
0000
0000
0010
0000
,
0010
0000
0010
0000
,
0000
0000
0001
0000
,
0000
0000
1000
0000
,
0000
0000
1001
0000
,
0000
0000
0002
0000
,
0000
0000
0000
0000
,
0000
0000
0000
0000
,
0003
0000
2000
0000
,
0000
0000
0000
0000
,
0000
0000
0000
0000
,
3000
0000
0001
0000
,
0000
0000
0000
0000
,
0001
0000
0000
0000
,
0000
0000
1000
0000
,
0000
0000
0000
0000
,
1000
0000
0000
0000
,
0000
0000
0010
0000
,
0000
0000
0010
0000
,
0000
0000
0100
0000
,
0000
0000
0100
0000
,
0000
0000
0010
0000
,
0000
0000
0010
0000
,
0000
0000
0100
0000
,
0000
0000
0100
0000
,
0000
0000
0001
0000
,
0000
0000
1000
0000
,
0000
0000
0001
0000
,
0000
0000
1000
0000
,
0000
0000
0001
0000
,
0001
0000
1000
0000
,
1000
0000
0000
0000
,
0000
0000
0001
0000
,
0000
0000
0100
0000
,
0000
0000
0001
0000
,
0001
0000
0100
0000
,
0000
0000
0010
0000
,
0000
0000
1000
0000
,
0000
0000
0010
0000
,
0010
0000
1000
0000
,
0000
0000
0100
0000
,
0000
0000
0010
0000
,
0000
0000
0100
0000
,
0100
0000
0010
0000
,
0000
0000
0001
0000
,
0000
0000
1000
0000
,
0000
0000
1001
0000
,
0000
0000
0001
0000
,
0001
0000
1000
0000
,
0000
0000
0001
0000
,
0001
0000
1000
0000
,
0000
0000
1000
0000
,
1000
0000
0001
0000
,
0000
0000
1000
0000
,
1000
0000
0001
0000
,
0000
0000
0100
0000
,
0010
0000
0010
0000
,
0000
0000
0100
0000
,
0010
0000
0010
0000
,
0000
0000
0010
0000
,
0100
0000
0100
0000
,
0000
0000
0010
0000
,
0100
0000
0100
0000
,
0000
0000
0110
0000
,
0000
0000
0000
0000
,
0000
0000
1001
0000
,
0000
0000
0000
0000
,
0000
0000
0110
0000
,
0000
0000
0000
0000
,
0000
0000
1001
0000
,
0000
0000
0000
0000
,
0000
0000
0001
0000
,
0000
0000
1000
0000
,
0000
0000
0001
0000
,
0000
0000
1000
0000
,
0000
0000
0010
0000
,
0000
0000
0100
0000
,
0000
0000
0020
0000
,
0000
0030
0100
0000
,
0000
0000
0000
0000
;
#NOTES:
     dance-single:
     :
     Easy:
     11:
     :
0000
0000
0000
0000
,
0000
0000
0000
0000
,
0000
0000
0000
0000
,
0000
0000
0000
0000
,
0000
0000
0000
0000
,
0000
0000
0000
0000
,
0000
0000
0000
0000
,
0000
0000
0000
0000
,
0000
0000
0000
0000
,
0000
0000
0000
0000
,
0000
0000
0000
0000
,
0000
0000
0000
0000
,
0010
0000
0000
0000
,
0000
0000
0000
0000
,
1000
0000
0000
0000
,
0000
0000
0000
0000
,
0001
0000
0000
0000
,
0000
0000
0000
0000
,
2002
0000
3003
0000
,
0001
0000
0100
0000
,
0001
0010
0100
0000
,
1000
0000
0010
0000
,
1000
0010
0100
0000
,
0010
0000
0100
0000
,
0010
0100
0010
0000
,
1000
0000
0001
0000
,
1000
0001
1000
0000
,
0001
0000
0010
0000
,
0100
0010
0001
0000
,
1000
0000
0010
0000
,
0100
0010
1000
0000
,
0010
0000
1000
0000
,
0001
0000
0100
0000
,
2002
0000
0000
3003
,
0001
0000
0010
0000
,
0001
0000
0100
0000
,
0010
0000
1000
0000
,
0010
0000
0010
0000
,
1000
0000
0010
0000
,
0100
0000
0001
0000
,
0010
0000
0100
0000
,
1000
0000
1000
0000
,
1001
0001
0000
0010
,
0000
0100
0000
1000
,
0000
0010
0000
0100
,
0000
0010
0000
1000
,
0000
1000
0000
0001
,
0000
0001
0000
0010
,
0100
0010
0000
0100
,
0000
0100
0000
0110
,
1001
0000
0001
0000
,
0010
0000
0100
0000
,
1000
0000
0100
1000
,
0100
0000
0010
0000
,
0001
0000
1000
0000
,
0001
0000
1000
0010
,
1000
0000
0001
0010
,
0001
0000
0100
0000
,
0110
0000
1001
0000
,
0110
0000
1001
0000
,
0110
0000
1001
0000
,
0110
0000
1000
0000
,
0010
0000
0100
0000
,
0001
0000
0020
0000
,
0000
0030
0100
0000
,
0100
0000
0010
0001
,
0010
0000
0100
0000
,
0100
0000
1000
0010
,
1000
0000
0100
0000
,
0100
0000
1000
0100
,
1000
0000
0100
0000
,
0100
0000
0010
0001
,
0100
0000
0010
0000
,
0010
0000
0100
0001
,
0100
0000
0010
0000
,
0010
0000
1000
0100
,
1000
0000
0010
0000
,
0010
0000
1000
0010
,
1000
0000
0020
0000
,
0000
0030
0010
0000
,
0100
0000
0001
0010
,
0100
0000
0010
0000
,
0100
0000
1000
0010
,
0100
0000
0001
0000
,
1000
0000
0001
1000
,
0100
0000
1000
0000
,
0001
0000
1000
0001
,
0100
0000
0010
0000
,
0100
0000
0010
1000
,
0100
0000
0010
0000
,
0100
0000
0010
0001
,
0100
0000
0001
0000
,
1000
0000
0100
0100
,
0100
0000
0020
0000
,
0000
0030
0002
0000
,
0000
0000
0000
0000
,
2003
0000
0000
0000
,
0000
0000
3002
0000
,
0000
0000
0000
0000
,
2003
0000
0000
0000
,
0000
0000
3010
0000
,
0010
0000
0010
0000
,
0100
0000
0100
0000
,
0100
0000
0010
0000
,
0010
0000
0010
0000
,
0100
0000
0100
0010
,
0000
0000
0100
0000
,
0010
0000
1000
0000
,
0001
0000
0100
0000
,
0010
0000
1000
0000
,
0001
0000
1000
0000
,
0100
0000
0010
0000
,
0001
0000
1000
0000
,
0100
0000
0010
0000
,
0001
0000
0010
0000
,
0100
0000
1000
0000
,
0001
0000
0010
0000
,
0100
0000
1000
0000
,
0001
0000
0100
0000
,
0010
0000
1000
0000
,
0001
0000
0000
0000
,
0000
0000
0001
0000
,
0001
0000
0100
0000
,
0100
0000
0010
0000
,
0010
0000
1000
0010
,
1000
0000
0100
0000
,
0100
0000
0010
0000
,
0010
0000
0001
0000
,
0001
0000
0010
0001
,
0010
0000
0100
0000
,
0010
0000
0001
0000
,
1000
0000
0010
0000
,
0100
0000
0010
0100
,
0010
0000
1000
0000
,
1000
0000
0001
0000
,
0001
0000
0000
0000
1000
0000
0010
0100
,
0010
0100
0110
0000
,
1001
0000
1000
0100
,
0010
0000
0110
0000
,
1001
0000
0001
0100
,
0010
0000
0110
0000
,
1001
0000
1000
0100
,
0010
0000
0110
0000
,
1001
0000
0001
0100
,
0010
0000
0100
0010
,
1000
0000
0001
0000
,
1000
0000
0010
0100
,
0001
0000
1000
0000
,
0001
0000
1000
0001
,
0010
0000
0001
0000
,
1000
0000
0001
1000
,
0010
0000
0100
0000
,
0010
0000
1000
0000
,
0010
0000
0100
0000
,
0001
0000
0010
0000
,
0100
0000
1000
0000
,
0010
0000
0100
0000
,
0001
0000
1000
0000
,
0010
0000
0100
0000
,
0100
0000
0010
0000
,
0010
0000
1000
0000
,
0100
0000
1000
0100
,
0010
0000
0001
0000
,
0100
0000
0001
0100
,
0010
0000
0100
0000
,
0010
0000
1000
0001
,
0010
0000
2002
0000
,
0000
3003
0100
0000
,
0000
0000
0000
0000
;
#NOTES:
     dance-single:
     :
     Medium:
     15:
     :
0000
0000
0000
0000
,
0000
0000
0000
0000
,
0000
0000
0000
0000
,
0000
0000
0000
0000
,
0000
0000
0000
0000
,
0000
0000
0000
0000
,
0000
0000
0000
0000
,
0000
0000
0000
0000
,
0000
0000
0000
0000
,
0000
0000
0000
0000
,
0000
0000
0000
0000
,
0000
0000
0000
0000
,
1000
0000
0000
0000
,
0000
0000
0000
0001
,
1000
0000
0000
0000
,
0000
0000
0000
0000
,
0001
0000
0000
0000
,
0000
0000
0000
0000
,
2002
0000
3003
0000
,
0001
0001
0100
0000
,
0010
0000
1000
0000
,
0100
0100
0010
0000
,
0001
0000
1000
0000
,
0010
0010
0100
0000
,
0001
0000
0010
0000
,
0100
0100
1000
0000
,
0001
0000
0100
0000
,
0010
0100
0001
0000
,
0010
0000
0100
0000
,
0010
0100
1000
0000
,
0001
0000
1000
0000
,
0001
1000
0010
0000
,
1000
0001
0010
0000
,
0220
0000
0000
0330
,
0001
0001
0100
0100
,
0010
0000
1000
0000
,
0100
0010
0001
1000
,
0010
0100
0010
0000
,
1000
1000
0100
0100
,
0010
0000
0001
0000
,
1000
0100
0010
0001
,
0100
0010
0100
0000
,
0110
0100
0100
0001
,
0001
0010
0000
0100
,
0010
0001
1000
0010
,
0100
0010
0000
1000
,
1000
0001
0001
0010
,
0100
0100
0000
0010
,
0001
1000
0100
0010
,
0001
1000
0000
1100
,
0101
0000
0001
0001
,
0100
0100
0010
1000
,
0100
0000
0010
0001
,
0100
0000
0001
0001
,
1000
1000
0010
0010
,
0100
0100
0010
0100
,
0001
0010
0100
0010
,
0001
1000
0100
0000
,
1100
0000
0101
0000
,
0110
0000
1010
0000
,
0011
0000
0110
0000
,
1001
0000
0001
0100
,
0010
1000
0100
0010
,
0001
1000
0001
1000
,
0001
0100
0010
0000
1000
0000
0010
0000
,
1000
0010
0100
0001
,
0010
0000
0001
0010
,
0001
0010
0100
1000
,
0010
0000
0100
0010
,
0100
0010
1000
0001
,
0100
0000
0010
0100
,
0010
0100
0001
1000
,
0020
0000
1030
0010
,
0001
0010
1000
0010
,
1000
0000
0001
0100
,
1000
0100
0001
0100
,
0001
0000
0010
0001
,
0100
0010
1000
0001
,
0100
0000
0220
0000
,
0000
0330
0100
0010
,
1000
0100
0010
0010
,
0001
0001
0100
0001
,
1000
0010
0100
0100
,
0010
0010
1000
0001
,
0100
0010
1000
1000
,
0001
0001
0010
0100
,
1000
0001
0010
0010
,
0020
0000
0130
1000
,
0001
0100
0010
0010
,
0100
0100
0010
1000
,
0001
0010
0100
0100
,
1000
1000
0100
1000
,
0010
0100
0001
0001
,
0010
0010
0100
1000
,
0001
0000
1000
0000
0001
1000
0001
0000
1001
0000
0000
0000
0000
0000
1000
0000
,
0000
0000
0001
0000
0000
0100
0000
0000
,
0110
0000
0000
1000
0000
0000
0100
0000
,
0000
0010
0000
0000
1001
0000
0000
1000
,
0000
0000
0010
0000
0000
0100
0000
0000
,
0110
0000
0000
0001
0000
0000
1000
0000
,
0001
0000
1000
0100
,
1000
0100
1000
0000
,
0001
0100
0001
0100
,
0001
0000
0100
0010
,
0100
0010
0100
0000
,
0010
1000
0001
0100
,
0000
0000
0001
0100
,
0001
0100
0010
1000
,
0010
1000
0001
0010
,
0001
0010
0100
1000
,
0100
1000
0100
0010
,
0100
0010
0001
1000
,
0001
1000
0001
0010
,
0100
1000
0001
0010
,
0100
1000
0100
0010
,
0001
1000
0010
0100
,
0001
1000
0100
0010
,
0001
1000
0010
0100
,
0001
0100
0010
1000
,
0001
0100
0010
1000
,
0001
0010
0000
0000
,
0000
0000
0001
0100
,
0001
0010
0001
0100
,
0010
1000
0100
1000
,
0010
1000
0100
0010
,
0001
1000
0001
0100
,
0001
0010
0001
0100
,
0010
1000
0100
1000
,
0010
1000
0100
0010
,
0001
1000
0100
0010
,
0001
1000
0010
0100
,
0001
0010
0100
1000
,
0001
0010
0100
1000
,
0010
0100
0010
1000
,
0001
0010
0100
1000
,
0001
0000
1000
0000
0010
0000
0100
0010
,
1000
0001
0100
0000
0001
0000
0001
0000
,
1000
1000
0100
0010
,
0001
0100
0001
0001
,
0010
0010
0100
1000
,
0100
0010
0100
0100
,
1000
1000
0010
0100
,
0001
0010
0100
0100
,
1000
1000
0001
1000
,
0010
0000
0010
1000
,
0001
0100
0010
0010
,
0010
0100
0001
1000
,
0010
0100
0001
0001
,
0001
0010
0100
1000
,
0100
0010
0001
0001
,
0001
1000
0010
0010
,
0100
0100
0010
0010
,
0010
0000
1000
0010
,
1000
0000
1100
0000
,
0101
0000
1000
0001
,
1000
0000
0101
0000
,
0011
0000
0010
0100
,
0010
0000
0011
0000
,
1001
0000
0001
0100
,
0010
1000
0100
0010
,
0001
0000
1000
0010
,
0100
0010
1000
0000
,
0110
0000
0001
0100
,
0010
0100
0001
0000
,
0110
0000
0001
1000
,
0100
0010
0001
0000
,
1001
0000
0200
0000
,
0000
0300
0110
0000
,
0000
0000
0000
0000
;
#NOTES:
     dance-single:
     :
     Hard:
     17:
     :
0000
0000
0000
0000
,
0000
0000
0000
0000
,
0000
0000
0000
0000
,
0000
0000
0000
0000
,
0000
0000
0000
0000
,
0000
0000
0000
0000
,
0000
0000
0000
0000
,
0000
0000
0000
0000
,
0000
0000
0000
0000
,
0000
0000
0000
0000
,
0000
0000
0000
0000
,
0000
0000
0000
0000
,
1001
0000
0000
0000
,
0000
0000
0000
0010
,
0100
0000
0000
0000
,
0000
0000
0000
0000
,
1001
0000
0000
0000
,
0000
0000
0000
0000
,
2002
0000
3003
0000
,
0001
0001
0100
0100
,
0010
0010
1000
1000
,
0010
0010
0100
0100
,
0001
0001
0010
0010
,
0100
0100
1000
1000
,
0001
0001
0010
0010
,
0100
0100
1000
1000
,
0001
0001
0100
0100
,
0010
0010
1000
1000
,
0001
0001
0010
0010
,
0001
0001
1000
1000
,
0010
0010
0100
0100
,
0001
0001
0001
0001
,
1000
1000
1000
1000
,
0010
0100
0010
0000
0100
0010
0100
0000
0010
0100
0010
0000
0100
0000
0010
0000
,
1000
0010
0001
0010
,
0100
0001
0010
0100
,
0010
0001
0010
1000
,
0010
0001
0100
0010
,
1000
0001
0010
0100
,
0001
0100
0010
0001
,
1000
0010
0100
1000
,
0100
0010
1000
0001
,
2000
3001
0010
1000
,
0010
0100
1000
0010
,
0100
0001
0010
0100
,
1000
0001
1000
0010
,
0001
0010
0100
0001
,
0100
0000
0010
0000
1000
0000
0001
1000
,
0001
0010
0001
0100
,
0100
0010
0000
1100
,
0101
0000
0000
0000
0001
0100
0001
0100
,
0001
0000
1000
0100
1000
0000
0010
0000
,
0100
0001
0010
0010
,
0100
0000
0100
0000
1000
0000
0001
0100
,
0001
0000
1000
0000
0001
0000
1000
0100
,
1000
0000
0001
0000
1000
0000
0001
0100
,
0001
0100
0001
0000
0010
0000
0100
0000
,
1000
0000
1001
0000
,
1100
0000
0101
0000
,
0001
0010
0100
1000
0000
0001
,
1000
0000
1000
0001
0000
0010
,
0100
0000
0010
0001
,
0100
0010
1000
0001
,
1000
0001
1000
0001
1000
0000
0001
0000
,
0100
0010
0100
0000
0010
0000
1000
0000
,
0100
0001
0100
1000
,
0010
0001
0010
0100
,
1000
0001
0010
0100
,
0001
0010
0100
0001
,
0100
0010
1000
0001
,
0100
1000
0010
0100
,
0001
1000
0010
0100
,
0020
0000
0130
0001
,
0010
1000
0010
0001
,
0100
1000
0100
0010
,
0001
1000
0100
0010
,
1000
0100
0010
1000
,
0010
0100
1000
0001
,
1000
0000
0100
0100
,
0100
0000
0100
0000
0100
0100
0100
0100
0100
0000
0000
0000
1000
0000
0000
0000
,
0010
0000
0100
0000
0001
0100
0001
0000
,
0100
0001
0010
0100
,
1000
0000
0100
0000
1000
0100
1000
0000
,
0010
0100
0001
0010
,
0100
0000
1000
0000
0100
1000
0100
0000
,
0010
0100
1000
0010
,
0100
0000
0001
0000
0100
0001
0100
0000
,
0002
0000
0103
0010
,
1000
0000
0001
0000
0010
0100
0010
0000
,
0100
1000
0100
0010
,
0001
0000
1000
0000
0010
0100
0010
0000
,
0100
0010
1000
0010
,
0100
0000
0001
0000
0100
0010
0100
0000
,
0001
1000
0002
0000
,
0000
0000
0000
0000
1003
0000
0000
0010
,
0000
0000
1000
0000
0000
0010
1000
0000
,
0001
0000
0000
0100
0000
0000
0001
0000
,
0000
0100
0001
0000
0010
0000
0000
0001
,
0000
0000
0010
0000
0000
0001
0010
0000
,
0100
0000
0000
1000
0000
0000
0100
2000
,
0000
3000
1000
0100
,
1000
0100
1000
0000
0010
0000
0100
0000
,
0001
0000
0100
0000
0001
0100
0001
0000
,
0010
0100
1000
0001
,
1000
0001
1000
0000
0010
0000
0100
0000
,
0001
0010
0100
1000
,
0000
0000
0001
0010
,
0100
1000
0001
0010
,
0100
1000
0001
0010
,
0100
1000
0001
0010
,
0100
1000
1000
0010
,
0100
0001
1000
0010
,
0100
0001
1000
0010
,
0100
0001
1000
0010
,
0100
0001
0001
0100
,
0001
0010
0001
0100
,
0010
1000
0010
1000
,
0100
1000
0010
0100
,
0001
0000
0100
0000
0001
0100
0001
0000
,
1000
0100
1000
0000
0001
0100
0001
0000
,
1000
0100
1000
0000
0000
0000
0000
0000
,
0000
0000
0001
0100
,
1000
0100
0001
0100
,
1000
0100
0001
0100
,
1000
0000
0100
0000
0001
1000
0001
0000
,
1000
0001
1000
0000
0001
0000
0010
0000
,
1000
0010
0001
0010
,
1000
0010
0001
0010
,
1000
0000
0010
0000
0001
1000
0001
0000
,
1000
0001
1000
0000
0001
0000
0100
0000
,
0010
1000
0100
0010
,
0001
0100
0010
1000
,
0100
0000
0010
0000
0001
1000
0001
0000
,
1000
0001
1000
0000
0001
0000
0001
0000
,
0010
0010
0100
0100
,
1000
0000
1000
0000
0001
0000
0010
0100
,
1000
0001
1000
0000
0100
0000
0000
0000
1000
0000
0000
0000
0010
0000
0000
0000
,
0001
1000
0100
0010
,
0001
0010
1000
0001
,
0010
1000
0001
0100
,
0010
1000
0001
0100
,
1000
0001
0100
0010
,
1000
0010
0001
1000
,
0100
0000
0010
0000
1000
0001
1000
0000
,
0001
0010
0100
0100
,
1000
0000
1000
0000
0001
1000
0001
0000
,
1000
0010
0100
0100
,
0001
0000
0001
0000
0010
0100
0010
0000
,
0100
1000
0100
0100
,
1000
0000
1000
0000
0001
0010
0001
0000
,
0100
0001
0100
0100
,
0010
0000
0010
0000
1000
0001
1000
0001
,
1000
0000
1000
0100
,
1000
0100
0010
0001
,
0010
0001
1000
0010
,
1000
0010
0100
0001
,
0100
0001
0010
0100
,
0010
0100
1000
0001
,
1000
0000
0001
0000
0100
0000
0000
0010
,
0000
0100
0001
0010
,
0100
1000
0001
0100
,
1000
0100
0001
1000
,
0001
0010
1000
0010
,
0001
0010
1000
0001
,
0100
0010
0001
1000
,
0100
0010
0001
0100
,
0010
1000
2002
0000
,
0000
3003
0110
0000
,
0000
0000
0000
0000
;
#NOTES:
     dance-single:
     :
     Challenge:
     18:
     :
0000
0000
0000
0000
,
0000
0000
0000
0000
,
0000
0000
0000
0000
,
0000
0000
0000
0000
,
0000
0000
0000
0000
,
0000
0000
0000
0000
,
0000
0000
0000
0000
,
0000
0000
0000
0000
,
0000
0000
0000
0000
,
0000
0000
0000
0000
,
0000
0000
0000
0000
,
0000
0000
0000
0000
,
0100
0000
0000
0000
,
0000
0000
0000
0100
,
0100
0000
0000
0000
,
0000
0000
0000
0000
,
0100
0000
0000
0000
,
0000
0000
0000
0000
,
0000
0000
0000
0000
,
0001
0100
0010
1000
,
0010
0100
0001
1000
,
0100
0010
0100
1000
,
0001
0000
0100
0000
0010
1000
0001
0000
,
0100
0010
0100
0001
,
1000
0100
0010
0001
,
0010
0100
0010
0001
,
1000
0000
0100
0000
0010
0100
1000
0100
,
0010
0100
1000
0001
,
0010
0100
0010
0001
,
1000
0010
0100
0001
,
1000
0000
0010
0000
0100
0010
1000
0000
,
0001
0000
0010
0100
1000
0000
0010
0000
,
0100
0010
1000
0000
0001
0010
0100
0000
,
1000
0001
1000
0000
0001
0100
0001
0000
1000
0100
1000
0100
1000
0000
0001
0000
,
1000
0000
0001
0100
0001
0000
1000
0000
,
0001
0000
1000
0100
1000
0000
0010
0000
,
0100
0000
0010
0100
0010
0000
1000
0000
,
0100
0010
0100
0000
1000
0000
0001
0000
,
0010
0000
0100
0010
0100
0000
1000
0000
,
0010
0000
1000
0001
1000
0000
0010
0000
,
0100
0000
0001
0000
1000
0100
1000
0000
,
0001
0100
0001
0000
1000
0000
0100
0000
,
0010
0000
0010
0100
0010
0000
0100
0000
,
0010
0100
0010
0000
0001
0000
1000
0000
,
0001
1000
0001
0000
1000
0000
0001
1000
,
0001
0010
0100
1000
,
0001
0100
0001
0000
1000
0000
0001
0000
,
1000
0100
1000
0000
0010
0000
0100
0010
,
1000
0000
0100
0000
0010
0000
0001
1000
,
0001
0100
0000
0002
,
1003
0000
0000
0000
1000
0100
1000
0100
,
0010
0000
0001
0010
0001
0000
1000
0010
,
1000
0000
0010
0000
0100
0001
0100
0000
,
0010
0000
0100
0000
0001
0000
0010
0100
,
0010
0000
0100
0000
1000
0000
0010
1000
,
0010
0000
0100
0000
0001
0000
1000
0100
,
0010
0001
1000
0000
0100
0010
0100
0000
,
1000
0000
0000
0010
0000
0000
0100
0000
0000
0000
0010
0000
,
1000
0000
1000
0100
0000
0100
,
0010
0001
1000
0010
0000
0010
,
0100
0001
1000
0100
0000
0100
,
0010
0000
0000
0000
0000
0000
0000
0000
0010
0000
0000
0000
0100
0000
0000
0000
0000
0000
1000
0000
0000
0001
0000
0000
,
1000
0000
0001
0000
0100
0010
0100
0010
,
1000
0001
1000
0001
2000
0000
0000
0000
,
0000
0000
3001
0100
,
0010
0000
1000
0000
0001
0100
0010
0000
,
1000
0010
0100
0001
,
0010
0000
0100
0000
1000
0100
0010
0000
,
0001
1000
0001
0100
,
0010
0000
1000
0000
0001
0100
0010
0000
,
1000
0010
0100
0001
,
0010
0000
0100
0000
1000
0100
0010
0100
,
2000
0000
3010
0100
,
0001
0000
0010
0000
0100
0010
0001
0000
,
0010
0100
1000
0010
,
0100
0000
0001
0000
1000
0010
0100
0000
,
0001
1000
0010
0100
,
0001
0000
0010
0000
0100
0010
0001
0000
,
1000
0000
0100
0100
,
0100
0000
0100
0000
0100
0100
0100
0100
0001
0000
0000
0000
0010
0000
0000
0000
,
0001
0000
0100
0000
0010
0100
0001
0000
,
0010
0100
1000
0010
,
1000
0000
0100
0000
0010
0100
1000
0000
,
0010
0100
0010
1000
,
0001
0000
0100
0000
0001
1000
0010
0000
,
0100
0010
1000
0001
,
0100
0000
0001
0000
1000
0001
0010
0001
,
2000
0000
3100
0010
,
0001
0000
1000
0000
0100
0010
0001
0000
,
1000
0010
0100
0010
,
1000
0000
0001
0000
1000
0001
0010
0000
,
0100
0010
0001
1000
,
0100
0000
0010
0000
0100
1000
0010
0000
,
0100
0000
0010
0000
0200
0000
0000
0300
,
0010
0000
0100
0000
0010
0000
0100
0000
0010
0100
0010
0100
0020
0000
0030
0000
2000
0000
0000
0000
0000
0000
0000
0000
0000
0000
0000
0000
3020
0000
0000
0000
,
0000
0000
0032
0000
0000
0013
0100
0000
,
0002
0000
0000
0023
0000
0000
2030
0000
,
0000
3010
0100
0000
2000
0000
0000
3020
,
0000
0000
0032
0000
0000
0013
0100
0000
,
0001
0000
0000
0010
0000
0000
1000
0020
,
0000
0030
0001
0010
,
0100
1000
0100
1000
0000
0100
1000
0000
,
0010
0000
0100
0000
0001
0100
0001
0100
,
0000
0001
0100
0000
0010
0000
0100
0000
,
0001
1000
0010
0100
0000
0001
1000
0000
,
0100
0000
0010
0000
0001
1000
0001
1000
,
0000
0000
0001
0100
,
0001
0100
0010
1000
,
0010
1000
0100
1000
,
0100
1000
0001
0010
,
0001
0010
0100
1000
,
0010
1000
0001
0010
,
0001
0100
0001
0010
,
0100
1000
0010
0100
,
0001
0000
1000
0000
0001
0100
0001
0000
,
1000
0010
1000
0000
0010
0100
0010
0000
,
0100
0001
0100
0000
0001
0100
0001
0000
,
0010
0100
0010
0000
0100
0010
0100
0000
,
1000
0010
1000
0000
0001
1000
0001
1000
,
0001
1000
0001
1000
0001
1000
0001
1000
,
0001
1000
0001
0000
0000
0000
0000
0000
,
0000
0000
0001
0010
,
0001
0100
0001
0010
,
0001
0100
0001
0010
,
0001
0000
0100
0010
0000
1000
0100
0000
,
0100
1000
0010
0000
1000
0000
0100
0000
,
1000
0010
1000
0100
,
1000
0010
1000
0100
,
1000
0000
0010
0100
0000
0001
0010
0000
,
0010
0001
0100
0000
0010
0000
1000
0000
,
0001
0100
0010
1000
,
0001
0100
0010
1000
,
0001
0000
0100
0010
0000
1000
0100
0000
,
0010
0001
0100
0000
0010
0000
1000
0000
,
0001
1000
0100
0010
,
0001
0000
0000
0000
1000
0000
0000
0000
0001
0000
0000
0000
2000
0000
0000
3001
,
0010
0100
1000
0000
0002
0000
0000
0000
1003
0000
0000
0000
0100
0000
0000
0000
,
0010
0000
0100
0010
0100
1000
0001
0000
,
1000
0010
0100
0001
,
1000
0000
0010
0100
0010
1000
0001
0000
,
0010
0100
1000
0001
,
0010
0000
0100
0010
0100
1000
0001
0000
,
1000
0010
0100
0010
,
1000
0000
0001
1000
0001
0010
0100
0000
,
1000
0010
0100
0010
,
1000
0000
0001
0010
0100
1000
0001
0000
,
1000
0010
0100
0000
0010
0000
1000
0000
,
0001
0000
1000
0010
0100
0001
1000
0000
,
0001
0010
0100
0000
0010
0000
0100
0000
,
1000
0000
0001
0100
0010
1000
0001
0000
,
1000
0010
0100
0000
0001
0000
0010
0000
,
0100
0000
1000
0100
0010
0001
1000
0000
,
0001
0010
0100
1000
0001
0000
1000
0000
,
0010
1000
0100
0010
,
0001
0100
0001
0010
,
0100
0010
0001
1000
,
0010
0100
0001
0100
,
0010
1000
0001
0010
,
0100
0000
1000
0000
0002
0000
0000
2003
,
0000
0000
3001
0000
0010
0100
0010
0000
,
0100
0010
0001
1000
,
0010
0100
0001
0000
0010
0100
1000
0000
,
0001
0010
0100
0000
1000
0000
0001
0000
,
0010
0100
1000
0000
0100
0010
0001
0000
,
0100
0010
1000
0000
0100
0000
0010
0000
,
0100
1000
0001
0000
0010
0001
1000
0000
,
0001
0010
0100
0000
1000
0001
1000
0001
,
1000
0000
0001
0000
1000
0000
0001
0000
1000
0001
1000
0001
1000
0001
1000
0001
1000
0000
0000
0000
0000
0000
0000
0000
0000
0000
0000
0000
0000
0000
0000
0000
,
0000
0000
0000
0000
;
#NOTES:
     dance-double:
     :
     Easy:
     11:
     :
00000000
00000000
00000000
00000000
,
00000000
00000000
00000000
00000000
,
00000000
00000000
00000000
00000000
,
00000000
00000000
00000000
00000000
,
00000000
00000000
00000000
00000000
,
00000000
00000000
00000000
00000000
,
00000000
00000000
00000000
00000000
,
00000000
00000000
00000000
00000000
,
00000000
00000000
00000000
00000000
,
00000000
00000000
00000000
00000000
,
00000000
00000000
00000000
00000000
,
00000000
00000000
00000000
00000000
,
10000000
00000000
00000000
00000000
,
00000000
00000000
00000000
00000000
,
00010000
00000000
00000000
00000000
,
00000000
00000000
00000000
00000000
,
00001000
00000000
00000000
00000000
,
00000000
00000000
00000000
00000000
,
00002002
00000000
00003003
00000000
,
00000001
00000000
00000100
00000000
,
00000001
00000000
00000100
00000000
,
00001000
00000000
00010000
00000000
,
00001000
00000000
00010000
00000000
,
01000000
00000000
10000000
00000000
,
01000000
00000000
10000000
00000000
,
00100000
00000000
01000000
00000000
,
00100000
00000000
01000000
00000000
,
00001000
00000000
00010000
00000000
,
00001000
00000000
00010000
00000000
,
00000100
00000000
00000010
00000000
,
00000100
00000000
00000010
00000000
,
00000001
00000000
00001000
00000000
,
00000010
00000000
00000100
00000000
,
00000220
00000000
00000000
00000330
,
00000001
00000000
00000100
00000000
,
00000010
00001000
00000010
00000000
,
00001000
00000000
00000100
00000000
,
00010000
00000000
00010000
00000000
,
00001000
00000000
01000000
00000000
,
00100000
10000000
00100000
00000000
,
01000000
00000000
01000000
00000000
,
00100000
00000000
10000000
00000000
,
10010000
10000000
00000000
00100000
,
00000000
01000000
00000000
00010000
,
00100000
00010000
00000000
00100000
,
00001000
00100000
00000000
00001000
,
00000000
00010000
00000000
00000100
,
00000000
00000010
00000000
00000001
,
00001000
00000001
00000000
00000100
,
00000000
00000100
00000000
00000110
,
00001001
00000000
00000001
00000000
,
00000100
00000000
00000010
00000000
,
00001000
00000000
00000100
00001000
,
00000100
00000000
00010000
00000000
,
00001000
00000000
01000000
00000000
,
00100000
00000000
10000000
00000000
,
00010000
00000000
01000000
00100000
,
01000000
00000000
00100000
00000000
,
01100000
00000000
00001000
00000000
,
00011000
00000000
00000100
00000000
,
00000110
00000000
00000001
00000000
,
00001001
00000000
00001000
00000000
,
00000100
00000000
00000010
00000000
,
00000001
00000000
00000200
00000000
,
00000000
00000300
00000010
00000000
,
00000100
00000000
00000010
00000100
,
00000010
00000000
00010000
00000000
,
00001000
00000000
00010000
00001000
,
00010000
00000000
01000000
00000000
,
00100000
00000000
01000000
00100000
,
01000000
00000000
10000000
00000000
,
00010000
00000000
10000000
00010000
,
10000000
00000000
01000000
00000000
,
00010000
00000000
00001000
00010000
,
00001000
00000000
00000100
00000000
,
00000001
00000000
00001000
00000001
,
00001000
00000000
00000010
00000000
,
00000100
00000000
00000010
00001000
,
00000001
00000000
00002002
00000000
,
00000000
00003003
00000100
00000000
,
00000010
00000000
00001000
00000010
,
00000100
00000000
00001000
00000000
,
00010000
00000000
00001000
00100000
,
00010000
00000000
10000000
00000000
,
00010000
00000000
10000000
00100000
,
01000000
00000000
00001000
00000000
,
00010000
00000000
00001000
00010000
,
00001000
00000000
00000100
00000000
,
00000010
00000000
00001000
00000001
,
00000010
00000000
00000100
00000000
,
00010000
00000000
00001000
00010000
,
00000100
00000000
00010000
00000000
,
00001000
00000000
01000000
00010000
,
10000000
00000000
00200000
00000000
,
00000000
00300000
20000000
00000000
,
00000000
00000000
00000000
00000000
,
30020000
00000000
00000000
00000000
,
00000000
00000000
00230000
00000000
,
00000000
00000000
00000000
00000000
,
00302000
00000000
00000000
00000000
,
00000000
00000000
00013000
00000000
,
00010000
00000000
00010000
00000000
,
00000100
00000000
00000100
00000000
,
00000100
00000000
00000010
00000000
,
00000010
00000000
00000010
00000000
,
00000001
00000000
00001000
00000001
,
00000000
00000000
00000002
00000000
,
00000000
00000000
00000203
00000000
,
00000000
00000000
00002300
00000000
,
00000000
00000000
00023000
00000000
,
00000000
00000000
02030000
00000000
,
00000000
00000000
23000000
00000000
,
00000000
00000000
30200000
00000000
,
00000000
00000000
00320000
00000000
,
00000000
00000000
00031000
00000000
,
00010000
00000000
00001000
00000000
,
00010000
00000000
00000100
00000000
,
00000010
00000000
00000100
00000000
,
00000010
00000000
00000001
00000000
,
00001000
00000000
00000001
00001000
,
00000001
00001000
00000000
00000000
,
00000000
00000000
00000001
00000000
,
00000001
00000000
00000100
00000000
,
00000100
00000000
00000010
00000000
,
00000010
00000000
00010000
00000010
,
00010000
00000000
00001000
00000000
,
00001000
00000000
01000000
00000000
,
01000000
00000000
00100000
00000000
,
00100000
00000000
10000000
01000000
,
10000000
00000000
01000000
00000000
,
00100000
00000000
00001000
00000000
,
00010000
00000000
00000100
00000000
,
00001000
00000000
00000100
00001000
,
00000100
00000000
00000010
00000000
,
00000010
00000000
00000100
00000000
,
00000100
00000000
00000000
00000000
00001000
00000000
00000001
00001000
,
00000001
00001001
00001000
00000000
,
00000001
00000000
00001000
00000100
,
00010000
00000000
00001000
00000000
,
00100000
00000000
00010000
00100000
,
01000000
00000000
10000000
00000000
,
00100000
00000000
01000000
00010000
,
00100000
00000000
00001000
00000000
,
00010000
00000000
00000100
00001000
,
00000010
00000000
00000100
00000000
,
00000001
00000000
00000010
00000001
,
00001000
00000000
00000100
00000000
,
00010000
00000000
00001000
00100000
,
00010000
00000000
10000000
00000000
,
00010000
00000000
01000000
00100000
,
10000000
00000000
01000000
00000000
,
00100000
00000000
00001000
00010000
,
00000100
00000000
00001000
00000000
,
00001000
00000000
00000100
00000000
,
00000010
00000000
00000001
00000000
,
00000001
00000000
00000100
00000000
,
00001000
00000000
00010000
00000000
,
00010000
00000000
00001000
00000000
,
00100000
00000000
01000000
00000000
,
01000000
00000000
10000000
00000000
,
10010000
00000000
01000000
00000000
,
00100000
00000000
10000000
00000000
,
01000000
00000000
00010000
00000000
,
00001000
00000000
00000100
00000000
,
00000001
00000000
00000010
00000000
,
00001000
00000000
00010000
00000000
,
00001000
00000000
00022000
00000000
,
00000000
00033000
00010000
00000000
,
00000000
00000000
00000000
00000000
;
#NOTES:
     dance-double:
     :
     Medium:
     15:
     :
00000000
00000000
00000000
00000000
,
00000000
00000000
00000000
00000000
,
00000000
00000000
00000000
00000000
,
00000000
00000000
00000000
00000000
,
00000000
00000000
00000000
00000000
,
00000000
00000000
00000000
00000000
,
00000000
00000000
00000000
00000000
,
00000000
00000000
00000000
00000000
,
00000000
00000000
00000000
00000000
,
00000000
00000000
00000000
00000000
,
00000000
00000000
00000000
00000000
,
00000000
00000000
00000000
00000000
,
01000000
00000000
00000000
00000000
,
00000000
00000000
00000000
00000000
,
00001000
00010000
00000000
00000000
,
00000000
00000000
00000000
00000000
,
00000010
00000000
00000000
00000000
,
00000000
00000000
00000000
00000000
,
00022000
00000000
00033000
00000000
,
00010000
00001000
00100000
00000000
,
00010000
00000000
10000000
00000000
,
00100000
01000000
00010000
00000000
,
00100000
00000000
00001000
00000000
,
00010000
00001000
00000100
00000000
,
00000010
00000000
00001000
00000000
,
00000001
00000010
00000100
00000000
,
00010000
00000000
00000100
00000000
,
00000010
00000100
00001000
00000000
,
00000001
00000000
00000100
00000000
,
00001000
00010000
00000100
00000000
,
00001000
00000000
00000100
00000000
,
00010000
00001000
01000000
00000000
,
00010000
00100000
01000000
00000000
,
20020000
00000000
00000000
30030000
,
10000000
10000000
00010000
00010000
,
00100000
00000000
00001000
00000000
,
00010000
00001000
00000100
00000000
,
00001000
00000100
00000001
00000000
,
00000001
00000001
00001000
00001000
,
00000100
00000000
00010000
00000000
,
00001000
00010000
00100000
00000000
,
00010000
00100000
10000000
00000000
,
10010000
00010000
00010000
00100000
,
00100000
00001000
00000000
00010000
,
00001000
00000010
00000001
00001000
,
00000010
00000100
00000000
00000001
,
00000001
00001000
00001000
00000010
,
00000100
00000010
00000000
00000100
,
00001000
00010000
01000000
10000000
,
00100000
01000000
00000000
10010000
,
01100000
00000000
10000000
10000000
,
01000000
01000000
00010000
00001000
,
00010000
00000000
00001000
00010000
,
00000100
00000000
00001000
00001000
,
00000010
00000010
00000100
00000100
,
00000001
00000001
00000010
00000100
,
00001000
00000001
00000100
00001000
,
00010000
00001000
00010000
00000000
,
00011000
00000000
00110000
00000000
,
01100000
00000000
11000000
00000000
,
01100000
00000000
01010000
00000000
,
00011000
00000000
00001000
00010000
,
01000000
10000000
01000000
00010000
,
00001000
00000100
00000001
00001000
,
00000001
00001000
00000010
00000000
00000100
00000000
00000001
00000000
,
00000100
00000001
00000010
00000001
,
00000010
00000000
00000100
00001000
,
00000100
00010000
00001000
00100000
,
00010000
00000000
01000000
00100000
,
10000000
00010000
00100000
01000000
,
00100000
00000000
00010000
10000000
,
00100000
01000000
00010000
00100000
,
00002000
00000000
00013000
00001000
,
00000100
00001000
00010000
00001000
,
00000100
00000000
00001000
00010000
,
01000000
00010000
00001000
00010000
,
01000000
00000000
00010000
00001000
,
00000010
00001000
00010000
00100000
,
00010000
00000000
00022000
00000000
,
00000000
00033000
00001000
00010000
,
00001000
00100000
00010000
00010000
,
01000000
01000000
00100000
10000000
,
01000000
00100000
00010000
00010000
,
00100000
00100000
00001000
00010000
,
00001000
00000100
00000010
00000010
,
00000100
00000100
00000001
00000010
,
00000100
00001000
00000100
00010000
,
00002000
00000000
00013000
00001000
,
00100000
00010000
01000000
01000000
,
00100000
00100000
10000000
00010000
,
00100000
01000000
10000000
10000000
,
00010000
00010000
00100000
00001000
,
00010000
00000100
00000010
00000010
,
00000001
00000001
00000100
00000000
,
00000001
00000000
00001000
00000000
00000001
00001000
00000001
00000000
00001001
00000000
00000000
00000000
00000000
00000000
00000001
00000000
,
00000000
00000000
00000100
00000000
00000000
00001000
00000000
00000000
,
00010000
00000000
00000000
01000000
00000000
00000000
10000000
00000000
,
00000000
00100000
00000000
00000000
00010000
00000000
00000000
00001000
,
00000000
00000000
00000100
00000000
00000000
00000001
00000000
00000000
,
00000010
00000000
00000000
00000100
00000000
00000000
00000010
00000000
,
00000110
00000000
00000001
00000100
,
00000010
00001000
00000100
00000000
,
00001000
00000100
00010000
00001000
,
00100000
00000000
00001000
00010000
,
00001000
01000000
00100000
00000000
,
10000000
01000000
00100000
00010000
,
00000000
00000000
10000000
00100000
,
10000000
00000000
00010000
01000000
,
00010000
00000000
00100000
00001000
,
00100000
00000000
00000100
00010000
,
00000100
00000000
00001000
00000010
,
00001000
00000000
00000001
00000100
,
00000001
00000000
00000010
00000100
,
00000010
00000000
00000001
00001000
,
00000001
00000000
00000100
00001000
,
00010000
00000000
00001000
00010000
,
00100000
00000000
00010000
00100000
,
10000000
00000000
01000000
00100000
,
00010000
00000000
00100000
00010000
,
00001000
00000000
00000100
00000010
,
00000001
00001000
00000000
00000000
,
00000000
00000000
00000001
00000100
,
00000010
00001000
00000001
00000010
,
00000100
00001000
00000001
00000100
,
00000010
00001000
00000010
00001000
,
00010000
01000000
00010000
01000000
,
00100000
10000000
00010000
00100000
,
01000000
10000000
00010000
01000000
,
00100000
10000000
01000000
00010000
,
00001000
00000100
00000010
00001000
,
00000100
00000010
00000001
00000100
,
00000010
00001000
00000100
00000010
,
00000001
00001000
00000001
00000100
,
00001000
00010000
01000000
00100000
,
00010000
10000000
00100000
01000000
,
00010000
00000000
10000000
00000000
00100000
00000000
01000000
00100000
,
01000000
00100000
01000000
00000000
00010000
00000000
00010000
00000000
,
01000000
01000000
00100000
10000000
,
01000000
00100000
00001000
00001000
,
00010000
00010000
00000010
00001000
,
00000001
00000100
00000010
00000010
,
00000100
00000100
00000001
00000010
,
00000100
00001000
00000001
00000001
,
00000100
00000100
00000001
00000010
,
00000100
00000000
00001000
00001000
,
00000010
00000010
00000100
00000001
,
00000010
00000100
00010000
00010000
,
00001000
00001000
01000000
00010000
,
10000000
00100000
01000000
01000000
,
00100000
00100000
10000000
01000000
,
00100000
00010000
10000000
10000000
,
00100000
00100000
10000000
01000000
,
00100000
00000000
00110000
00000000
,
00010000
00100000
00010000
01000000
,
00001000
00000000
00011000
00000000
,
00001000
00010000
00001000
00000010
,
00000100
00000000
00000110
00000000
,
00000100
00000010
00000001
00001000
,
00000001
00000000
00000011
00000000
,
00000101
00000000
00001010
00000000
,
00001100
00000000
00011000
00000000
,
00001000
00010000
00001000
00100000
,
00010000
00000000
00110000
00000000
,
01000000
00100000
10000000
01000000
,
10000000
00000000
11000000
00000000
,
10000000
01000000
00100000
00001000
,
00010000
00000000
00002000
00000000
,
00000000
00003000
00011000
00000000
,
00000000
00000000
00000000
00000000
;
#NOTES:
     dance-double:
     :
     Hard:
     17:
     :
00000000
00000000
00000000
00000000
,
00000000
00000000
00000000
00000000
,
00000000
00000000
00000000
00000000
,
00000000
00000000
00000000
00000000
,
00000000
00000000
00000000
00000000
,
00000000
00000000
00000000
00000000
,
00000000
00000000
00000000
00000000
,
00000000
00000000
00000000
00000000
,
00000000
00000000
00000000
00000000
,
00000000
00000000
00000000
00000000
,
00000000
00000000
00000000
00000000
,
00000000
00000000
00000000
00000000
,
10010000
00000000
00000000
00000000
,
00000000
00000000
00000000
00010000
,
00001000
00000000
00000000
00000000
,
00000000
00000000
00000000
00000000
,
00001001
00000000
00000000
00000000
,
00000000
00000000
00000000
00000000
,
00002002
00000000
00003003
00000000
,
00000001
00000001
00000010
00000010
,
00000100
00000010
00000001
00000100
,
00000010
00000010
00001000
00001000
,
00000100
00010000
00001000
00010000
,
00000100
00000100
00010000
00010000
,
00001000
00100000
00010000
01000000
,
00100000
00100000
01000000
01000000
,
00010000
00100000
01000000
10000000
,
00010000
00010000
01000000
01000000
,
00100000
10000000
01000000
00010000
,
00001000
00001000
00010000
00010000
,
00001000
00000100
00000001
00000010
,
00000100
00000100
00000010
00000010
,
00000001
00000100
00001000
00010000
,
00001000
00010000
00001000
00000000
00010000
00001000
00010000
00000000
00001000
00010000
00001000
00000000
00010000
00000000
00001000
00000000
,
00000100
00000010
00001000
00000100
,
00000010
00000001
00000010
00000100
,
00001000
00000100
00010000
00001000
,
00100000
00010000
01000000
00100000
,
10000000
01000000
00100000
00010000
,
10000000
00100000
01000000
00010000
,
00100000
00001000
00010000
00000100
,
00000010
00000010
00000100
00000100
,
00000010
00000001
00000100
00001000
,
00010000
00001000
00000100
00001000
,
00010000
00100000
10000000
00100000
,
01000000
00010000
00100000
01000000
,
10000000
00010000
00100000
00001000
,
00010000
00000000
00000100
00000000
00001000
00000000
00000010
00000100
,
00000010
00000100
00000001
00000010
,
00000010
00000100
00000000
00000011
,
00000101
00000000
00000000
00000000
00000001
00001000
00000001
00001000
,
00000001
00000000
00001000
00000010
00001000
00000000
00000010
00000000
,
00000100
00001000
00010000
00010000
,
00001000
00000000
00001000
00000000
00100000
00000000
00010000
00100000
,
00010000
00000000
01000000
00000000
00010000
00000000
10000000
01000000
,
10000000
00000000
00100000
00000000
01000000
00000000
00010000
01000000
,
00010000
01000000
00010000
00000000
00100000
00000000
00001000
00000000
,
00010000
00000000
00011000
00000000
,
00001100
00000000
00000101
00000000
,
00000001
00000010
00000001
00000010
00000000
00000100
,
00001000
00000000
00001000
00000100
00000000
00010000
,
00001000
00000000
00010000
00100000
,
01000000
00010000
00100000
01000000
,
00100000
01000000
00100000
01000000
00100000
00000000
00010000
00000000
,
10000000
00010000
10000000
00000000
00100000
00000000
10000000
00000000
,
01000000
00100000
01000000
10000000
,
00100000
00010000
00001000
00000100
,
00000001
00000100
00001000
00000001
,
00000010
00001000
00000001
00000010
,
00000100
00000010
00000001
00000100
,
00001000
00010000
00100000
00010000
,
10000000
01000000
00010000
00100000
,
00002000
00000000
00013000
00001000
,
00010000
00100000
01000000
00010000
,
00100000
10000000
00100000
00010000
,
01000000
00001000
00010000
00001000
,
00000100
00000001
00000010
00000100
,
00001000
00000010
00000001
00001000
,
00010000
00000000
00022000
00000000
,
00000000
00000000
00033000
00001000
,
00000100
00000000
00000001
00000000
00001000
00000001
00001000
00000000
,
00000001
00000100
00001000
00010000
,
01000000
00000000
10000000
00000000
00010000
10000000
00010000
00000000
,
10000000
00100000
00010000
00001000
,
00000010
00000000
00000001
00000000
00001000
00000001
00001000
00000000
,
00000001
00000010
00001000
00010000
,
00100000
00000000
10000000
00000000
00010000
10000000
00010000
00000000
,
00020000
00000000
00130000
01000000
,
10000000
00000000
01000000
00000000
00010000
00000000
00001000
00010000
,
00001000
00010000
00000010
00000001
,
00000010
00000000
00000100
00000000
00000010
00000100
00000010
00000000
,
00000100
00001000
00010000
00100000
,
10000000
00000000
01000000
00000000
00010000
00001000
00010000
00000000
,
00000100
00001000
00000020
00000000
,
00000000
00000000
00000000
00000000
00000130
00000000
00000000
00000001
,
00000000
00000000
00000100
00000000
00000000
00000001
00000100
00000000
,
00000001
00000000
00000000
00000010
00000000
00000000
00000001
00000000
,
00000000
00000010
00000001
00000000
00001000
00000000
00000000
00000100
,
00000000
00000000
00001000
00000000
00000000
00000100
00010000
00000000
,
00001000
00000000
00000000
00010000
00000000
00000000
00001000
00200000
,
00000000
00300000
01000000
10000000
,
01000000
10000000
01000000
00000000
00100000
00000000
00010000
00000000
,
01000000
00000000
00001000
00000000
00010000
00001000
00010000
00000000
,
00001000
00000100
00000010
00000100
,
00000010
00001000
00000010
00000000
00000100
00000000
00000001
00000000
,
00001000
00000100
00000010
00000001
,
00000000
00000000
00000001
00000010
,
00000001
00000010
00000100
00001000
,
00000100
00001000
00000010
00010000
,
00000010
00010000
00001000
00100000
,
00001000
00100000
00010000
01000000
,
00010000
01000000
00100000
10000000
,
00100000
10000000
01000000
00100000
,
01000000
00100000
00001000
00010000
,
00001000
00010000
00001000
00000010
,
00000001
00000100
00001000
00010000
,
01000000
10000000
00100000
10000000
,
00100000
00010000
00001000
00000100
,
00000001
00000000
00000010
00000000
00000100
00000010
00000100
00000000
,
00001000
00000100
00001000
00000000
00000100
00010000
00000100
00000000
,
00010000
00001000
00010000
00000000
00000000
00000000
00000000
00000000
,
00000000
00000000
00001000
00010000
,
01000000
00010000
00001000
00010000
,
01000000
00010000
00001000
00010000
,
01000000
00000000
00010000
00000000
00001000
00010000
00001000
00000000
,
00010000
00001000
00010000
00000000
00001000
00000000
00010000
00000000
,
00100000
00010000
00001000
00010000
,
00100000
00010000
00001000
00010000
,
00100000
00000000
00010000
00000000
00001000
00010000
00001000
00000000
,
00010000
00001000
00010000
00000000
00001000
00000000
00000010
00000000
,
00000001
00000010
00001000
00010000
,
00100000
10000000
00100000
00010000
,
00001000
00000000
00000010
00000000
00000001
00000100
00000001
00000000
,
00001000
00000100
00001000
00000000
00000001
00000000
00000100
00000000
,
00001000
00010000
01000000
10000000
,
00010000
00000000
01000000
00000000
00100000
00000000
01000000
00010000
,
10000000
00010000
10000000
00000000
00100000
00000000
00000000
00000000
10000000
00000000
00000000
00000000
10000000
00000000
00000000
00000000
,
01000000
00100000
00001000
00010000
,
00001000
00000100
00000010
00000010
,
00000100
00000001
00000010
00000100
,
00010000
00001000
00010000
00010000
,
00001000
00000100
00000001
00000100
,
00001000
00010000
00100000
00100000
,
01000000
00010000
01000000
00100000
,
10000000
00010000
00100000
00100000
,
00010000
01000000
00100000
00010000
,
00001000
00000100
00000010
00000010
,
00001000
00000100
00000010
00000001
,
00001000
00000010
00000100
00000100
,
00001000
00010000
00100000
10000000
,
00100000
01000000
00010000
00010000
,
00100000
00000000
00100000
00000000
00001000
00010000
00001000
00010000
,
00001000
00000000
00001000
00010000
,
00001000
00010000
01000000
10000000
,
01000000
10000000
00100000
10000000
,
00100000
10000000
00010000
00100000
,
00010000
00100000
00001000
00010000
,
00001000
00010000
00000100
00001000
,
00000100
00000000
00001000
00000000
00000010
00000000
00000000
00000100
,
00000000
00000010
00001000
00000010
,
00000100
00000001
00001000
00000010
,
00000001
00000010
00001000
00010000
,
00100000
10000000
00100000
00010000
,
01000000
00010000
00001000
00000010
,
00000001
00001000
00000001
00000010
,
00001000
00000100
00010000
00001000
,
00100000
01000000
02200000
00000000
,
00000000
03300000
10010000
00000000
,
00000000
00000000
00000000
00000000
;
#NOTES:
     dance-double:
     :
     Challenge:
     18:
     :
00000000
00000000
00000000
00000000
,
00000000
00000000
00000000
00000000
,
00000000
00000000
00000000
00000000
,
00000000
00000000
00000000
00000000
,
00000000
00000000
00000000
00000000
,
00000000
00000000
00000000
00000000
,
00000000
00000000
00000000
00000000
,
00000000
00000000
00000000
00000000
,
00000000
00000000
00000000
00000000
,
00000000
00000000
00000000
00000000
,
00000000
00000000
00000000
00000000
,
00000000
00000000
00000000
00000000
,
10010000
00000000
00000000
00000000
,
00000000
00000000
00000000
00010000
,
00001000
00000000
00000000
00000000
,
00000000
00000000
00000000
00000000
,
00001001
00000000
00000000
00000000
,
00000000
00000000
00000000
00000000
,
00000220
00000000
00000330
00000000
,
00000001
00000100
00000001
00000100
,
00001000
00000100
00001000
00000100
,
00001000
00010000
00001000
00010000
,
01000000
10000000
01000000
10000000
,
00100000
10000000
00100000
10000000
,
01000000
00010000
01000000
00010000
,
00001000
00010000
00001000
00010000
,
00001000
00000100
00001000
00000100
,
00000001
00000010
00000001
00000010
,
00001000
00000010
00001000
00000010
,
00001000
00010000
00001000
00010000
,
00100000
10000000
00100000
10000000
,
01000000
00100000
00010000
01000000
,
00001000
00010000
00001000
00100000
,
00010000
00100000
00010000
00000000
00100000
00001000
00010000
00000000
00001000
00010000
00001000
00010000
00001000
00000000
00010000
00000000
,
00001000
00010000
00001000
00000100
,
00000010
00000100
00001000
00010000
,
01000000
00100000
00010000
01000000
,
00100000
00010000
00001000
00000100
,
00001000
00100000
01000000
00010000
,
00001000
00010000
00100000
00010000
,
00000100
00000010
00001000
00000010
,
00000001
00000100
00001000
00010000
,
00011000
00010000
00001000
00010000
,
01000000
00010000
00001000
00000100
,
00001000
00010000
00100000
00010000
,
00001000
00000010
00001000
00010000
,
01000000
00100000
00001000
00010000
,
00000100
00000000
00000010
00000000
00001000
00000000
00010000
00001000
,
00010000
00001000
00000100
00000010
,
00001000
00000100
00000000
00000110
,
00001001
00000000
00000000
00000000
00000001
00000100
00000001
00000100
,
00000001
00000000
00001000
00000100
00001000
00000000
00000001
00000100
,
00000001
00000000
00000100
00000000
00001000
00010000
00001000
00000000
,
00010000
01000000
10000000
00010000
,
00100000
00001000
00000100
00000001
,
00000010
00001000
00010000
00000100
,
00000010
00001000
00010000
01000000
,
00100000
00000000
00000000
00010000
00000000
00000000
10000000
00000000
00000000
00000000
10000000
00000000
,
01000000
00000000
01000000
00010000
00000000
00010000
,
00001000
00010000
00001000
00000100
00000000
00000100
,
00000001
00000010
00000001
00000010
00000000
00000010
,
00000100
00000000
00000000
00000000
00000000
00000000
00000000
00000000
00000100
00000000
00000000
00000000
00010000
00000000
00000000
00000000
00000000
00000000
00001000
00000000
00000000
00010000
00000000
00000000
,
00001000
00000000
01000000
00000000
00010000
01000000
00010000
00000000
,
10000000
01000000
10000000
00000000
20020000
00000000
00000000
00000000
,
00000000
30030000
10000000
01000000
,
00100000
00000000
00010000
00000000
01000000
00100000
10000000
00000000
,
01000000
00100000
00001000
00010000
,
00001000
00000000
00000100
00000000
00001000
00010000
00000100
00000000
,
00001000
00000100
00000010
00000001
,
00001000
00000000
00000010
00000000
00000100
00000010
00001000
00000000
,
00000100
00000010
00000001
00000100
,
00001000
00000000
00010000
00000000
00001000
00010000
00000100
00000000
,
00010000
00001000
00010000
01000000
,
10000000
00000000
00100000
00000000
01000000
00100000
10000000
00000000
,
01000000
00010000
10000000
00100000
,
00001000
00000000
00010000
00000000
00001000
00010000
00000100
00000000
,
00001000
00000010
00000001
00000010
,
00001000
00000000
00000100
00000000
00010000
00001000
00100000
00000000
,
00010000
01000000
00200000
00000000
,
00000000
00000000
10300000
01000000
,
10000000
00000000
00100000
00000000
01000000
00100000
10000000
00000000
,
01000000
00010000
00001000
00100000
,
00010000
00000000
00001000
00000000
00000100
00001000
00000001
00000000
,
00000100
00000010
00001000
00000100
,
00010000
00000000
00001000
00000000
00100000
00010000
10000000
00000000
,
00010000
01000000
00100000
10000000
,
01000000
00000000
00010000
00000000
00001000
00010000
00000100
00000000
,
00001000
00000010
00000100
00000001
,
00000010
00000000
00000100
00000000
00001000
00000100
00010000
00000000
,
00001000
00100000
00010000
01000000
,
10000000
00000000
01000000
00000000
00100000
10000000
00010000
00000000
,
00100000
00001000
00010000
00000010
,
00001000
00000000
00000100
00000000
00000010
00000001
00001000
00000000
,
00000001
00000100
00000110
00000000
,
00000001
00000000
00001000
00000000
00000001
00000000
00001000
00000000
00000001
00001000
00000001
00001000
00000002
00000000
00000003
00000000
00001001
00000000
00000000
00000000
00000000
00000000
00000000
00000000
00000000
00000000
00000000
00000000
00000011
00000000
00000000
00000000
,
00000000
00000000
00001100
00000000
00000000
00000100
00001000
00000000
,
00001100
00000000
00000000
00011000
00000000
00000000
00110000
00000000
,
00000000
00010000
00100000
00000000
00110000
00000000
00000000
10100000
,
00000000
00000000
11000000
00000000
00000000
10000000
00010000
00000000
,
10010000
00000000
00000000
00110000
00000000
00000000
00100000
00001000
,
00000000
00000000
00010000
00001000
,
00000100
00000000
00000010
00000100
00000000
00000100
00000010
00000000
,
00010000
00000000
00001000
00000000
01000000
00000000
00100000
01000000
,
00000000
01000000
00100000
00000000
00010000
00000000
00001000
00000000
,
00000100
00000000
00000010
00000100
00000000
00000100
00000010
00000000
,
00010000
00000000
00001000
00000000
00010000
00001000
00010000
00001000
,
00000000
00000000
00001000
00001000
,
00010000
00010000
00100000
00100000
,
10000000
10000000
01000000
01000000
,
00010000
00010000
00001000
00001000
,
00000100
00000100
00000001
00000001
,
00000010
00000010
00001000
00001000
,
00010000
00010000
01000000
01000000
,
10000000
10000000
00100000
00100000
,
01000000
01000000
00100000
10000000
,
01000000
00010000
00001000
00000100
,
00000001
00000010
00001000
00010000
,
00100000
10000000
01000000
00010000
,
00001000
00000100
00001000
00010000
,
01000000
00010000
00001000
00000010
,
00001000
00010000
00000000
00000000
,
00000000
00000000
00001000
00100000
,
00010000
00001000
00000100
00000001
,
00000100
00001000
00000010
00001000
,
00100000
00010000
00001000
00010000
,
01000000
10000000
00010000
00100000
,
10000000
00100000
00001000
00100000
,
00010000
01000000
10000000
01000000
,
00001000
00010000
00000100
00000001
,
00000100
00000010
00000001
00000010
,
00000100
00001000
00000010
00000100
,
00001000
00010000
00000100
00001000
,
00010000
00100000
00001000
00010000
,
00100000
01000000
00001000
00010000
,
00100000
01000000
00001000
00010000
,
00100000
10000000
02000000
00000000
,
00000000
00000000
13000000
00100000
,
01000000
00000000
00010000
00100000
00010000
00100000
00001000
00000000
,
00010000
00001000
00000100
00000001
,
00000010
00000000
00000100
00001000
00000100
00001000
00000001
00000000
,
00000100
00001000
00010000
00001000
,
00100000
00000000
00010000
00100000
00010000
00100000
01000000
00000000
,
10000000
00100000
01000000
00010000
,
00100000
00000000
00001000
00010000
00001000
00010000
00000100
00000000
,
00001000
00000100
00000010
00000001
,
00000100
00000000
00001000
00010000
00001000
00010000
00000100
00000000
,
00010000
00001000
01000000
00100000
,
10000000
00000000
00100000
01000000
00100000
01000000
00010000
00000000
,
10000000
00100000
01000000
00001000
,
00010000
00000000
00001000
00100000
00001000
00100000
00010000
00000000
,
00100000
00010000
00001000
00000100
,
00000010
00000000
00000001
00000100
00000010
00001000
00000001
00000000
,
00000100
00000010
00000100
00000000
00000010
00000000
00001000
00000000
,
00000001
00000100
00000010
00001000
,
00000100
00010000
00001000
00100000
,
00010000
01000000
00100000
10000000
,
01000000
00100000
00001000
00010000
,
00000100
00001000
00000100
00000010
,
00000001
00000000
00001000
00000000
00000001
00000000
00000000
00000010
,
00000000
00000000
00000100
00000000
00000010
00000100
00000010
00000000
,
00000001
00001000
00000100
00010000
,
00100000
00001000
00100000
10000000
,
01000000
00010000
00001000
00000100
,
00000010
00001000
00010000
00000010
,
00001000
00000010
00000001
00000100
,
00001000
00010000
00001000
00010000
,
00001000
00010000
00001000
00000000
00010000
00001000
00010000
00001000
,
00010000
00000000
00001000
00000000
00010000
00000000
00001000
00000000
00010000
00001000
00010000
00001000
00010000
00001000
00010000
00001000
00010000
00000000
00000000
00000000
00000000
00000000
00000000
00000000
00000000
00000000
00000000
00000000
00000000
00000000
00000000
00000000
,
00000000
00000000
00000000
00000000
;
