
//----- song ID: cbmf -----//
#TITLE:Come Back to Me (Feel It);
#ARTIST:Dominant Space;
#BANNER:Come Back to Me (Feel It).png;
#BACKGROUND:Come Back to Me (Feel It)-bg.png;
#CDTITLE:./CDTitles/DDR A3.png;
#MUSIC:Come Back to Me (Feel It).ogg;
#SAMPLESTART:35.637;
#SAMPLELENGTH:15;
#BPMS:0=165;
#STAGE:3;
#NOTES:
     dance-single:
     :
     Beginner:
     3:
     :
0000
0000
0000
0000
,
0000
0000
0000
0000
,
0000
0000
0000
0000
,
0000
0000
0000
0000
,
0000
0000
0000
0000
,
0001
0000
0001
0000
,
1000
0000
1000
0000
,
0001
0000
0001
0000
,
0200
0000
0000
0000
,
0300
0000
0000
0000
,
0000
0000
0000
0000
,
0100
0000
0000
0000
,
0000
0000
0000
0000
,
0100
0000
0000
0000
,
0000
0000
0000
0000
,
0100
0000
0000
0000
,
0000
0000
0000
0000
,
0001
0000
0000
0000
,
0001
0000
0000
0000
,
1000
0000
0000
0000
,
0010
0000
0000
0000
,
0100
0000
0000
0000
,
0001
0000
0000
0000
,
2000
0000
0000
0000
,
3000
0000
0000
0000
,
0001
0000
0100
0000
,
0001
0000
0000
0000
,
1000
0000
0010
0000
,
1000
0000
0000
0000
,
0001
0000
0100
0000
,
0001
0000
0000
0000
,
1000
0000
0010
0000
,
1000
0000
0000
0000
,
0001
0000
0100
0000
,
0010
0000
0000
0000
,
1000
0000
0010
0000
,
0100
0000
0000
0000
,
0001
0000
1000
0000
,
0010
0000
0000
0000
,
1000
0000
0001
0000
,
0100
0000
0000
0000
,
0001
0000
0000
0000
,
0010
0000
0000
0000
,
0100
0000
0000
0000
,
1000
0000
0000
0000
,
0001
0000
0000
0000
,
0100
0000
0000
0000
,
0010
0000
0000
0000
,
0000
0000
0000
0000
,
1000
0000
1000
0000
,
1000
0000
0000
0000
,
0001
0000
0001
0000
,
0001
0000
0000
0000
,
0100
0000
0100
0000
,
0100
0000
0000
0000
,
0020
0000
0000
0000
,
0030
0000
0000
0000
,
1000
0000
0001
0000
,
0100
0000
0000
0000
,
0010
0000
1000
0000
,
0001
0000
0000
0000
,
1000
0000
0010
0000
,
0100
0000
0000
0000
,
0010
0000
1000
0000
,
0001
0000
0000
0000
,
0000
1001
0000
0000
,
0000
0000
0000
0000
,
0001
0000
0010
0000
,
0100
0000
0000
0000
,
0010
0000
0001
0000
,
1000
0000
0000
0000
,
2002
0000
0000
3003
,
0000
0000
0000
0000
;
#NOTES:
     dance-single:
     :
     Easy:
     7:
     :
0000
0000
0000
0000
,
0000
0000
0000
0000
,
0000
0000
0000
0000
,
0000
0000
0000
0000
,
0000
0000
0000
0000
,
1000
0001
0100
0100
,
0010
0010
1000
0001
,
0010
0000
0100
0000
1000
0000
0010
0100
,
0000
0000
0000
0000
,
0002
0000
0000
0000
,
0003
0000
0000
0000
,
0020
0000
0000
0000
,
0030
0000
0000
0000
,
0200
0000
0000
0000
,
0300
0000
0000
0000
,
2000
0000
0000
0000
,
3000
0000
0000
0000
,
0001
0001
0001
0001
,
1000
1000
1000
1000
,
0010
0010
0010
0010
,
0100
0100
0100
0100
,
0001
0000
0010
0000
,
0100
0000
1000
0000
,
0001
0100
0010
1000
,
0002
0000
0003
0000
,
1000
0100
1000
0010
,
0100
0001
0010
0001
,
1000
0010
0100
0010
,
1000
0001
0010
0000
,
0010
0001
1000
0010
,
0100
0010
1000
0100
,
1000
0001
0100
0010
,
1000
0100
1000
0000
,
0001
0011
0100
1000
,
0001
0100
0001
0010
,
0100
1100
0001
1000
,
0001
0010
0100
0000
,
0100
0010
0001
1000
,
0010
0100
0010
1000
,
0001
0001
0100
0020
,
0000
0000
0000
0030
,
1000
0100
0001
0000
,
0001
0100
1000
0000
,
1000
0010
0001
0000
,
0001
0010
1000
0000
,
0001
0010
0100
0000
,
0001
0100
1000
0000
,
0010
0100
0001
2000
,
0000
0000
0000
3000
,
0001
0001
0001
0101
,
0100
0100
0100
0110
,
0010
0010
0010
1010
,
1000
1000
1000
1100
,
0001
0001
0010
0010
,
0100
0100
1000
1000
,
0001
0001
0100
0000
,
2002
0000
3003
0000
,
1000
1100
0001
0101
,
1000
0001
0010
0100
,
0010
0011
1000
1100
,
0001
0000
0100
0000
0010
0000
1000
0001
,
1000
0100
0010
0001
,
1000
1010
0001
0011
,
0100
1000
0100
0010
,
0001
1000
0001
0000
0100
0000
0110
0000
,
0000
1001
1000
0010
,
0100
0001
0010
0100
,
1000
0001
0100
0010
,
1000
0000
0100
0000
0010
0000
0001
1000
,
0001
0100
0010
0110
,
1000
0001
0100
0010
,
0110
0000
0000
0001
0000
0000
2002
0000
,
0000
0000
0000
0000
,
3003
0000
0000
0000
,
0000
0000
0000
0000
;
#NOTES:
     dance-single:
     :
     Medium:
     10:
     :
0000
0000
0000
0000
,
0000
0000
0000
0000
,
0000
0000
0000
0000
,
0000
0000
0000
0000
,
0000
0000
0000
0000
,
0001
0100
0001
1000
,
0100
0010
0001
1000
,
0010
0000
1000
0000
0100
0000
0010
0002
,
0000
0000
0000
0000
,
0003
0000
0000
0000
,
0000
0000
0000
0000
,
0200
0000
0000
0000
,
0300
0000
0000
0000
,
0020
0000
0000
0000
,
0030
0000
0000
0000
,
2000
0000
0000
0000
,
3000
0000
0000
0000
,
1000
1100
1000
1100
,
0001
0101
0001
0101
,
1000
1100
1000
1100
,
0001
0101
0001
0101
,
1000
0000
0000
0100
0000
0000
1000
0000
0001
0000
0000
0100
0000
0000
0001
0000
,
1000
0100
1000
0000
0001
0100
0001
0000
,
1000
0100
0010
0001
1000
0001
1000
0010
,
0200
0000
0000
0300
,
0001
0000
1000
0000
0010
0100
0001
0000
,
1000
0100
0010
0000
0001
0000
1000
0000
,
0001
0000
0100
0000
0010
1000
0001
0000
,
0010
0100
1000
0000
0001
0000
0100
0000
,
0001
0000
1000
0000
0100
0010
0001
0000
,
1000
0010
0100
0000
0001
0000
1000
0000
,
0010
0000
0100
0000
0001
1000
0100
0000
,
0010
0000
0001
0000
1000
0000
0000
0000
0010
0000
0000
0010
0000
0000
0010
0000
,
0100
0000
0000
0001
0000
0000
0010
0000
0000
0100
0000
0000
1000
0000
0010
0000
,
0000
0000
0010
0000
0000
0100
0000
0000
0001
0000
0000
1000
0000
0000
0100
0000
,
0010
0000
0000
0001
0000
0000
1000
0000
0000
0001
0000
0000
0100
0000
0010
0000
,
0000
0000
0010
0000
0000
0100
0000
0000
0001
0000
0000
0010
0000
0000
0001
0000
,
1000
0000
0000
0010
0000
0000
0100
0000
0000
0010
0000
0000
1000
0000
0001
0000
,
0000
0000
0001
0000
0000
0010
0000
0000
0100
0000
0000
1000
0000
0000
0010
0000
,
1000
0001
1000
0001
0010
0100
1000
0001
,
0000
0000
0000
0000
,
1000
0000
0000
0000
0001
0000
0000
0000
0100
0000
0000
0100
0000
0000
0010
0000
,
1000
0000
0001
0000
0010
0000
0001
0001
,
0001
0000
0000
0000
1000
0000
0000
0000
0010
0000
0000
0010
0000
0000
0100
0000
,
0001
1000
1100
1001
,
0001
0000
0000
0000
0100
0000
0000
0000
0010
0000
0000
0010
0000
0000
1000
0000
,
0001
0000
0010
0000
0100
0000
1000
1000
,
1000
0000
0000
0000
0010
0000
0000
0000
0100
0000
0000
0001
0000
0000
1000
0000
,
0000
0000
0000
0000
,
1000
1000
0001
0001
,
0100
0100
0010
0010
,
1000
1000
0100
0100
,
0010
0010
0001
0001
,
1000
0010
1000
0010
1000
0010
1000
0010
,
0100
0001
0100
0001
0100
0001
0100
0001
,
0020
0000
0000
0000
,
0030
0000
0000
0000
,
0001
0000
1000
0000
0001
0010
0100
0000
,
1000
0100
0001
0000
0100
1000
0010
0000
,
0100
0000
0001
0000
1000
0010
0001
0000
,
0010
1000
0001
0000
0010
0100
1000
0000
,
0001
0000
1000
0000
0001
0010
1000
0000
,
0010
0001
0100
0000
0010
1000
0001
0000
,
1000
0000
0100
0000
1000
0001
0100
0000
,
0010
1000
0001
0000
0010
0000
0110
0000
,
0000
0000
1001
0000
1000
0010
0100
0000
,
0001
1000
0100
0000
0010
0001
1000
0000
,
0001
0000
0100
0000
0010
1000
0100
0000
,
0001
0100
1000
0000
0010
0100
0001
0000
,
1000
0000
0001
0000
0010
0100
1000
0000
,
0001
0100
1000
0000
0100
0001
0010
0000
,
0110
0000
0000
1100
0000
0000
2002
0000
,
0000
0000
0000
0000
,
3003
0000
0000
0000
,
0000
0000
0000
0000
;
#NOTES:
     dance-single:
     :
     Hard:
     14:
     :
0000
0000
0000
0000
,
0000
0000
0000
0000
,
0000
0000
0000
0000
,
0000
0000
0000
0000
,
0000
0000
0000
0000
,
0001
1000
0001
1000
0001
0100
0001
0100
,
1000
0001
1000
0001
0010
1000
0010
1000
,
0001
0010
0100
0010
0001
1000
0020
0200
,
0000
0000
0000
0000
0000
0000
0000
0030
,
0300
0000
0000
0000
,
0000
0000
0000
0000
,
0002
0000
0000
0000
,
0003
0000
0000
0000
,
2000
0000
0000
0000
,
3000
0000
0000
0000
,
0020
0000
0000
0000
,
0030
0000
0000
0000
,
1000
1100
0010
0011
,
0100
0110
1000
1010
,
0001
0011
1000
1100
,
0001
0101
1000
1001
,
0001
0000
0000
0100
0000
0000
0001
0010
0001
0000
0000
1000
0000
0000
0010
0100
,
0010
0000
1000
0000
0001
0000
0010
0100
1000
0000
0001
0000
1000
0000
0010
0100
,
0001
0000
1000
0100
0010
0000
0001
1000
0010
0000
0100
0001
1000
0000
0100
0010
,
0001
0000
0000
1001
,
0001
0000
0000
1000
0000
0000
0010
0000
0000
0100
0000
0000
0101
0000
0010
0000
,
0000
0000
1000
0000
0000
0100
0000
0000
1000
0000
0000
0001
0000
0000
0100
0000
,
0001
0000
0000
0010
0000
0000
0100
0000
0000
1000
0000
0000
1100
0000
0010
0000
,
0000
0000
0001
0000
0000
0100
0000
0000
0010
0000
0000
0010
0000
0000
0100
0000
,
0001
0000
0000
1000
0000
0000
1100
0000
0000
0010
0000
0000
0011
0000
0100
0000
,
0000
0000
1000
0000
0000
1010
0000
0000
0001
0000
0000
0101
0000
0000
0110
0000
,
1000
0000
0000
0001
0000
0000
0010
0000
0000
0100
0000
0000
1000
0000
1010
0000
,
0000
0000
0100
0000
0000
0001
0000
0000
0011
0000
0000
1100
0000
0000
1001
0000
,
0001
0100
0010
0001
0010
1000
0100
0010
,
0001
1000
0010
0100
1000
0100
0001
0010
,
0001
1000
0010
0100
0001
0010
0100
1000
,
0001
0100
0010
0100
0001
0010
1000
0000
,
0001
0100
1000
0010
1000
0001
0100
0001
,
0010
0100
1000
0001
0100
0010
1000
0100
,
1000
0000
1000
0000
0001
0000
0001
0000
0100
0001
0010
0000
0100
1000
0010
0000
,
0000
0000
0000
0000
,
1000
0000
0000
0000
0001
0000
0100
0000
1000
0000
0000
0001
0000
0000
1000
0000
,
0100
0000
0001
0000
0001
0000
0000
0000
1000
0000
0001
0010
0100
0000
1000
0000
,
0001
0000
0000
0000
1000
0000
0100
0000
0001
0000
0000
1000
0000
0000
0001
0000
,
0100
1000
1000
0000
0110
0000
1001
0000
,
1000
0000
0000
0000
0001
0000
0010
0000
1000
0000
0000
0001
0000
0000
1000
0000
,
0010
0000
0001
0000
0001
0000
0000
0000
1000
0000
0001
0100
0010
0000
1000
0000
,
0001
0000
0000
0000
1000
0000
0100
0000
0010
0000
0000
0001
0000
0000
0100
0000
,
0000
0000
0000
0000
,
0002
0023
2030
3002
,
0203
2300
3020
0032
,
2003
3002
0023
2030
,
3200
0320
0032
2003
,
3001
0010
0001
0010
0100
1000
0001
0100
,
0010
1000
0001
0010
0100
1000
0100
0010
,
0001
1000
0010
0000
0100
0001
1000
0000
0001
0010
0100
0000
1000
0010
0100
0000
,
0000
0000
0000
0000
,
0001
0000
1000
0000
0100
0000
0010
0000
0001
0000
1000
0000
0010
0000
0001
1000
,
0001
0000
0010
0000
1000
0000
0100
0000
0010
0000
0001
0000
0100
0000
1000
0001
,
1000
0000
0100
0000
0001
0000
0010
0000
0100
0000
1000
0000
0100
0000
0001
1000
,
0001
0000
0100
0000
1000
0000
0010
0000
0100
0000
0001
0000
0010
0000
1000
0001
,
1000
0000
0010
0000
0001
0000
0100
0000
0010
0000
1000
0000
0010
0000
0001
1000
,
0001
0000
0010
0000
1000
0000
0100
0000
0010
0000
0001
0000
0100
0000
1000
0001
,
1000
0000
0100
0000
0001
0000
0010
0000
0100
0000
1000
0000
0100
0000
0001
1000
,
0001
0100
1000
1000
0010
0000
0220
0000
,
0330
0000
0000
0000
1001
0000
1000
0000
0001
0000
0010
0000
0100
0000
0001
1000
,
0001
0000
0100
0000
0010
0000
0001
0000
1000
0000
0010
0000
0100
0000
1000
0001
,
1000
0000
0100
0000
0010
0000
1000
0000
0001
0000
0100
0000
0010
0000
0001
1000
,
0001
0000
0010
0000
0100
0000
0001
0000
1000
0000
0100
0000
0010
0000
1000
0001
,
1000
0000
0010
0000
0100
0000
1000
0000
0010
0000
0001
0000
0010
0000
0100
0001
,
1000
0000
0100
0000
0010
0000
0001
0000
1000
0000
0010
0000
0100
0001
1000
0000
,
1010
0000
0000
0110
0000
0000
2002
0000
,
0000
0000
0000
0000
,
3003
0000
0000
0000
,
0000
0000
0000
0000
;
#NOTES:
     dance-double:
     :
     Easy:
     7:
     :
00000000
00000000
00000000
00000000
,
00000000
00000000
00000000
00000000
,
00000000
00000000
00000000
00000000
,
00000000
00000000
00000000
00000000
,
00000000
00000000
00000000
00000000
,
00010000
00001000
01000000
00010000
,
00100000
01000000
10000000
01000000
,
00010000
00001000
00000100
00000001
,
00000020
00000000
00000000
00000000
,
00000030
00000000
00000000
00000000
,
00000000
00000000
00000000
00000000
,
00000200
00000000
00000000
00000000
,
00000300
00000000
00000000
00000000
,
00000002
00000000
00000000
00000000
00000000
00000000
00000000
00000003
,
00000000
00000000
00000000
00000000
,
00002000
00000000
00000000
00000000
,
00003000
00000000
00000000
00000000
,
00000001
00000100
00000001
00000100
,
00001000
00010000
00001000
00010000
,
00100000
10000000
00100000
10000000
,
01000000
00010000
01000000
00010000
,
00001000
00001000
00010000
00010000
,
00000100
00000100
00001000
00001000
,
00000020
00000000
00000000
00000000
,
00000130
00000000
00000000
00000000
,
00001001
00001000
00000100
00000010
,
00000001
00000100
00001000
00010000
,
01000000
10000000
00100000
01000000
,
00010000
10000000
01000000
00000000
,
00100000
00110000
00001000
00011000
,
00000100
00000010
00000001
00001000
,
00000010
00000100
00000010
00001000
,
00000001
00000100
00000110
00000000
,
00010000
00100000
10000000
01000000
,
10000000
11000000
00100000
00110000
,
00001000
00010000
00000100
00000010
,
00000001
00000100
00000010
00000000
,
00010000
00001000
01000000
00010000
,
10000000
11000000
00010000
01010000
,
10000000
10000000
00100000
00100000
,
00000000
00000000
00000000
00000000
,
01000000
00010000
10000000
01000000
,
10000000
10000000
10000000
00000000
00100000
00000000
01000000
00000000
,
00010000
00100000
00001000
00010000
,
00001000
00001000
00001000
00000000
00011000
00000000
00010100
00000000
,
00000100
00001000
00000010
00000100
,
00000001
00000001
00000001
00000000
00001000
00000000
00000100
00000000
,
00010000
00001000
01000000
00010000
,
00000000
00000000
00000000
00000000
,
00100000
00100000
01000000
01000000
,
10000000
10000000
00100000
00100000
,
01000000
01000000
00010000
00010000
,
00100000
00100000
00001000
00001000
,
00010000
00010000
00001000
00001000
,
00010000
00010000
00001000
00001000
,
00022000
00000000
00000000
00000000
,
00033000
00000000
00000000
00000000
,
00001000
00010000
00100000
10000000
,
00010000
10000000
01000000
00010000
,
00001000
00000100
00000001
00001000
,
00000001
00000010
00001000
00010000
,
00100000
10000000
00010000
10000000
,
01000000
00010000
00001000
00000100
,
00000001
00000010
00000100
00001000
,
00000010
00010000
00001000
00011000
,
00000000
01100000
00010000
10000000
,
00100000
00000000
01000000
00000000
00010000
00000000
10000000
00010000
,
10000000
00010000
00100000
01000000
,
00010000
00000000
00001000
00000000
00000010
00000000
00000001
00001000
,
00000001
00000100
00001000
00010000
,
01000000
00100000
00001000
00010000
,
00011000
00000000
00000000
01000000
00000000
00000000
02200000
00000000
,
00000000
00000000
00000000
00000000
,
03300000
00000000
00000000
00000000
,
00000000
00000000
00000000
00000000
;
#NOTES:
     dance-double:
     :
     Medium:
     10:
     :
00000000
00000000
00000000
00000000
,
00000000
00000000
00000000
00000000
,
00000000
00000000
00000000
00000000
,
00000000
00000000
00000000
00000000
,
00000000
00000000
00000000
00000000
,
00001000
00010000
00000100
00001000
,
00000010
00000100
00000001
00000100
,
00001000
00000000
00010000
00000000
01000000
00000000
10000000
00200000
,
00000000
00000000
00000000
00000000
,
00300000
00000000
00000000
00000000
,
00000000
00000000
00000000
00000000
,
02000000
00000000
00000000
00000000
,
03000000
00000000
00000000
00000000
,
00020000
00000000
00000000
00000000
,
00030000
00000000
00000000
00000000
,
20000000
00000000
00000000
00000000
,
30000000
00000000
00000000
00000000
,
10000000
11000000
00100000
00110000
,
00001000
00000010
00000001
00001000
,
00000001
00000011
00000100
00001100
,
00010000
01000000
10000000
00100000
,
10000000
00000000
00000000
01000000
00000000
00000000
10000000
00000000
00010000
00000000
00000000
01000000
00000000
00000000
00010000
00000000
,
00100000
00001000
00010000
00000000
00001000
00010000
00000100
00000000
,
00010000
00001000
00010000
00001000
00010000
00000100
00001000
00000001
,
00000200
00000000
00000000
00000300
,
00000001
00000000
00001000
00000000
00000001
00000100
00000010
00000000
,
00001000
00000100
00010000
00000000
00001000
00000000
01000000
00000000
,
00010000
00000000
00100000
00000000
01000000
10000000
00100000
00000000
,
01000000
00010000
00100000
00000000
00001000
00000000
00000000
00000000
,
00010000
00000000
00000100
00000000
00000010
00000100
00001000
00000000
,
00000001
00000100
00000010
00000000
00001000
00000000
00000001
00000000
,
00000010
00000000
00000100
00000000
00001000
00000010
00010000
00000000
,
00001000
00000000
01000000
00000000
00010000
00000000
00000000
00000000
00010000
00000000
00000000
00010000
00000000
00000000
00010000
00000000
,
00100000
00000000
00000000
00010000
00000000
00000000
01000000
00000000
00000000
00100000
00000000
00000000
10000000
00000000
00010000
00000000
,
00000000
00000000
00010000
00000000
00000000
10000000
00000000
00000000
01000000
00000000
00000000
00010000
00000000
00000000
00001000
00000000
,
00010000
00000000
00000000
00000100
00000000
00000000
00001000
00000000
00000000
00000010
00000000
00000000
00000100
00000000
00000001
00000000
,
00000000
00000000
00000001
00000000
00000000
00000010
00000000
00000000
00000100
00000000
00000000
00000000
00000000
00000000
00000000
00000000
,
00010000
00000000
00000000
00001000
00000000
00000000
00010000
00000000
00000000
00100000
00000000
00000000
01000000
00000000
00010000
00000000
,
00000000
00000000
00010000
00000000
00000000
10000000
00000000
00000000
01000000
00000000
00000000
00100000
00000000
00000000
00010000
00000000
,
10000000
00010000
10000000
00010000
01000000
00100000
10000000
00010000
,
00000000
00000000
00000000
00000000
,
10000000
00000000
00000000
00000000
00010000
00000000
00000000
00000000
01000000
00000000
00000000
01000000
00000000
00000000
00100000
00000000
,
10000000
00000000
00010000
00000000
01000000
00000000
00100000
00100000
,
00100000
00000000
00000000
00000000
10000000
00000000
00000000
00000000
00010000
00000000
00000000
00010000
00000000
00000000
00100000
00000000
,
00001000
00010000
00011000
00010100
,
00010000
00000000
00000000
00000000
00001000
00000000
00000000
00000000
00000010
00000000
00000000
00000001
00000000
00000000
00000100
00000000
,
00000001
00000000
00001000
00000000
00000010
00000000
00001000
00001000
,
00001000
00000000
00000000
00000000
00000100
00000000
00000000
00000000
00010000
00000000
00000000
00001000
00000000
00000000
00001000
00000000
,
00000000
00000000
00000000
00000000
,
01000000
01000000
00010000
00010000
,
00100000
00100000
01000000
01000000
,
10000000
10000000
00010000
00010000
,
01000000
01000000
00010000
00010000
,
10000000
01000000
10000000
01000000
10000000
01000000
10000000
01000000
,
00100000
00010000
00100000
00010000
00100000
00010000
00100000
00001000
,
00020000
00000000
00000000
00000000
,
00030000
00000000
00000000
00000000
,
00001000
00000000
00010000
00000100
00000000
00000010
00000001
00000000
,
00001000
00000010
00000000
00000010
00000100
00000000
00000001
00000000
,
00000010
00000000
00000100
00001000
00000000
00000100
00010000
00000000
,
00001000
00100000
00000000
00100000
00010000
00000000
01000000
00000000
,
00010000
00000000
10000000
01000000
00000000
00100000
00010000
00000000
,
01000000
00001000
00000000
00001000
00010000
00000000
00001000
00000000
,
00010000
00000000
00000010
00000100
00000000
00000001
00001000
00000000
,
00000001
00000000
00000001
00000100
00000010
00000000
00010010
00000000
,
00000000
00000000
01001000
00000000
01000000
00010000
00100000
00000000
,
01000000
10000000
00010000
00000000
01000000
00000000
00100000
00000000
,
10000000
00000000
01000000
00000000
00100000
00001000
00010000
00000000
,
00001000
00000010
00000001
00000000
00000100
00000000
00000010
00000000
,
00010000
00000000
00001000
00000000
01000000
00010000
10000000
00000000
,
01000000
00100000
00010000
00000000
01000000
00000000
00001000
00000000
,
00011000
00000000
00000000
00000100
00000000
00000000
00000020
00000000
,
00000000
00000000
00000000
00000000
,
00000030
00000000
00000000
00000000
,
00000000
00000000
00000000
00000000
;
#NOTES:
     dance-double:
     :
     Hard:
     14:
     :
00000000
00000000
00000000
00000000
,
00000000
00000000
00000000
00000000
,
00000000
00000000
00000000
00000000
,
00000000
00000000
00000000
00000000
,
00000000
00000000
00000000
00000000
,
00001000
00010000
00001000
00010000
00000100
00001000
00000010
00010000
,
00001000
00010000
00001000
01000000
00010000
00100000
00010000
10000000
,
00100000
01000000
00010000
00100000
00001000
00010000
00000200
00000020
,
00000000
00000000
00000000
00000000
00000000
00000000
00000000
00000300
,
00000030
00000000
00000000
00000000
,
00000000
00000000
00000000
00000000
,
00002000
00000000
00000000
00000000
,
00003000
00000000
00000000
00000000
,
00020000
00000000
00000000
00000000
,
00030000
00000000
00000000
00000000
,
02000000
00000000
00000000
00000000
,
03000000
00000000
00000000
00000000
,
10000000
10100000
00010000
01010000
,
10000000
11000000
00100000
00110000
,
00001000
00001010
00000001
00000011
,
00000100
00001100
00010000
00011000
,
01000000
00000000
00000000
00100000
00000000
00000000
10000000
00010000
10000000
00000000
00000000
01000000
00000000
00000000
10000000
00010000
,
10000000
00000000
00100000
00000000
01000000
00000000
00010000
00100000
00010000
00000000
00100000
00000000
00001000
00000000
00010000
00001000
,
00010000
00000000
00000100
00001000
00000100
00000000
00000010
00000001
00000010
00000000
00000100
00001000
00000001
00000000
00000100
00000010
,
00002000
00000000
00000000
00003000
,
00000001
00000000
00000000
00000100
00000000
00000000
00001000
00000000
00000000
00010000
00000000
00000000
00001000
00000000
00100000
00000000
,
00000000
00000000
01000000
00000000
00000000
10000000
00000000
00000000
00100000
00000000
00000000
00010000
00000000
00000000
00001000
00000000
,
00010000
00000000
00000000
00000100
00000000
00000000
00000010
00000000
00000000
00001000
00000000
00000000
00010000
00000000
00001000
00000000
,
00000000
00000000
00000100
00000000
00000000
00000001
00000000
00000000
00000020
00000000
00000000
00000000
00000030
00000000
00000000
00000000
,
00000001
00000000
00000000
00000100
00000000
00000000
00001000
00000000
00000000
00010000
00000000
00000000
00100000
00000000
01000000
00000000
,
00000000
00000000
00001000
00000000
00000000
00010000
00000000
00000000
01000000
00000000
00000000
10000000
00000000
00000000
00100000
00000000
,
10000000
00000000
00000000
01000000
00000000
00000000
00010000
00000000
00000000
00001000
00000000
00000000
00000100
00000000
00000010
00000000
,
00000000
00000000
00010000
00000000
00000000
00001000
00000000
00000000
00000010
00000000
00000000
00000011
00000000
00000000
00001100
00000000
,
00001000
00000001
00000010
00000100
00001000
00000001
00000100
00001000
,
00010000
00001000
00100000
01000000
10000000
01000000
00010000
00001000
,
00000100
00000010
00010000
00001000
00000010
00000001
00000100
00001000
,
00010000
00100000
10000000
00010000
10000000
01000000
00100000
00000000
,
00001000
00000010
00000001
00000010
00000100
00010000
01000000
10000000
,
01000000
00100000
00010000
10000000
00100000
00010000
00001000
00010000
,
00001000
00000000
00000010
00000000
00000001
00000000
00001000
00000000
00000010
00000100
00000001
00000000
00001000
00000100
00000010
00000000
,
00000000
00000000
00000000
00000000
,
00000001
00000000
00000010
00000000
00000100
00000000
00000000
00000000
00001000
00000000
00000000
00000001
00000000
00000000
00000100
00000000
,
00000010
00000000
00000010
00000000
00000010
00000000
00000000
00000000
00001000
00000000
00000001
00000100
00000010
00000000
00010000
00000000
,
00001000
00000000
01000000
00000000
00010000
00000000
00000000
00000000
00100000
00000000
00000000
01000000
00000000
00000000
10000000
00000000
,
00100000
00100000
00100000
00000000
01100000
00000000
01010000
00000000
,
00001000
00000000
00000100
00000000
00000010
00000000
00000000
00000000
00010000
00000000
00000000
00001000
00000000
00000000
00000010
00000000
,
00000001
00000000
00000001
00000000
00000001
00000000
00000000
00000000
00001000
00000000
00000001
00000010
00000100
00000000
00010000
00000000
,
00001000
00000000
00000000
00000000
01000000
00000000
00000000
00000000
00010000
00000000
00000000
00100000
00000000
00000000
01000000
00000000
,
00000000
00000000
00000000
00000000
,
20000000
32000000
03020000
20030000
,
30200000
00302000
00023000
00030200
,
00000302
00002003
00003020
00000032
,
00000203
00000320
00002030
00003001
,
00000001
00000010
00000001
00000010
00000100
00001000
00000010
00010000
,
00001000
00000100
00000010
00010000
00001000
00010000
01000000
00100000
,
00001000
00010000
00001000
00000000
01000000
00010000
01000000
00000000
00100000
10000000
00100000
00000000
01000000
00010000
10000000
00000000
,
00000000
00000000
00000000
00000000
,
10000000
00100000
01000000
00010000
10000000
01000000
00010000
10000000
,
00100000
00001000
00010000
00000100
00000001
00001000
00000010
00000001
,
00000100
00001000
00000001
00000010
00010000
00001000
01000000
10000000
,
00010000
00100000
10000000
00010000
00100000
01000000
10000000
00010000
,
01000000
00100000
10000000
01000000
00010000
10000000
00100000
00001000
,
00010000
00000010
00000001
00001000
00000100
00000001
00000010
00001000
,
00000001
00000100
00010000
00001000
01000000
10000000
00010000
00100000
,
10000000
00010000
10000000
01000000
00010000
00000000
00011000
00000000
,
00000000
00000000
00000021
00000000
00000130
00010000
01000000
10000000
,
00100000
01000000
00010000
10000000
01000000
00100000
00010000
01000000
,
00001000
00010000
00100000
10000000
01000000
00010000
00001000
00000100
,
00000001
00000000
00000010
00000000
00001000
00000000
00000010
00000000
00000001
00000000
00000000
00000100
00001000
00000000
00010000
00000000
,
00100000
10000000
01000000
00010000
01000000
10000000
00100000
00010000
,
00001000
00000100
00000001
00000010
00000100
00001000
00000010
00010000
,
00011000
00000000
00000000
01100000
00000000
00000000
20020000
00000000
,
00000000
00000000
00000000
00000000
,
30030000
00000000
00000000
00000000
,
00000000
00000000
00000000
00000000
;
