
//----- song ID: chum -----//
#TITLE:チュッチュ♪マチュピチュ;
#ARTIST:ななひら,Nana Takahashi,猫体質 by BEMANI Sound Team "劇ダンサーレコード";
#TITLETRANSLIT:Chucchu Machu Picchu;
#ARTISTTRANSLIT:Nanahira, Nana Takahashi, neko_taisitu by BEMANI Sound Team "Gekidan Record";
#BANNER:Chucchu Machu Picchu.png;
#BACKGROUND:Chucchu Machu Picchu-bg.png;
#CDTITLE:./CDTitles/BEMANI 2021 manatsu no utagassen 5 ban shoubu.png;
#MUSIC:Chucchu Machu Picchu.ogg;
#SAMPLESTART:9.231;
#SAMPLELENGTH:15;
#BPMS:0=130;
#STAGE:16;
#NOTES:
     dance-single:
     :
     Beginner:
     3:
     :
0000
0000
0000
0000
,
0000
0000
0000
0000
,
0000
0000
0000
0000
,
1000
0000
0000
0000
,
0002
0000
0000
0003
,
1000
0000
0100
0000
,
1000
0000
0000
0000
,
0001
0000
0010
0000
,
0001
0000
0000
0000
,
0100
0000
0010
0000
,
0100
0000
0000
0000
,
0010
0000
1000
0000
,
0010
0000
0000
0000
,
1000
0000
1000
0000
,
0001
0000
0100
0000
,
0001
0000
1000
0000
,
1001
0000
0000
0000
,
0001
0000
0100
0000
,
0001
0000
0000
0000
,
1000
0000
0100
0000
,
1000
0000
0000
0000
,
0010
0000
0100
0000
,
0010
0000
0000
0000
,
1000
0000
0001
0000
,
1000
0000
0000
0000
,
0001
0000
0010
0000
,
0001
0000
0000
0000
,
0100
0000
0010
0000
,
1000
0000
0001
0000
,
0010
0000
0100
0000
,
0110
0000
0000
0000
,
0001
0000
1000
0000
,
1001
0000
0000
0000
,
0001
0000
0100
0000
,
0001
0000
0000
0000
,
1000
0000
0100
0000
,
1000
0000
0000
0000
,
0010
0000
0100
0000
,
0010
0000
0000
0000
,
0100
0000
0001
0000
,
0100
0000
0000
0000
,
0001
0000
0010
0000
,
0001
0000
1000
0000
,
0100
0000
0010
0000
,
0110
0000
0000
0000
,
1000
0000
0100
0000
,
1000
0000
0001
0000
,
0100
0000
0000
0000
,
0100
0000
0000
0000
,
0001
0000
0000
0000
,
0001
0000
0000
0000
,
1000
0000
0010
0000
,
1000
0000
0000
0000
,
0001
0000
0100
0000
,
0001
0000
0000
0000
,
0100
0000
0010
0000
,
1000
0000
0010
0000
,
1000
0000
0001
0000
,
0100
0000
0001
0000
,
0010
0000
0000
0000
,
0000
0000
0000
0000
;
#NOTES:
     dance-single:
     :
     Easy:
     7:
     :
0000
0000
0000
0000
,
0000
0000
0000
0000
,
0000
0000
0000
0000
,
0100
0010
1000
0002
,
2000
0000
0000
3003
,
0001
0100
0110
0000
,
0001
1000
1001
0110
,
1000
0100
0110
0000
,
1000
0100
0010
0001
,
1000
0010
0110
0000
,
1000
0001
1001
0110
,
0010
0100
1001
0000
,
0001
0010
0100
1000
,
0010
1000
0010
1000
,
0001
0010
0001
1000
,
0100
0010
0100
0010
,
0001
1000
1001
0000
,
0010
0010
0100
0100
,
0110
0000
1000
0100
,
1000
1000
0001
0001
,
1001
0000
1000
0010
,
0100
0100
0001
0001
,
1001
0000
1000
0100
,
0010
0010
0100
0100
,
0110
0000
0001
1000
,
0001
0010
0001
0100
,
0110
0000
1000
0001
,
0100
0001
0100
0001
,
1000
1000
0001
0001
,
0100
0010
0100
0010
,
0110
0000
0000
1001
0000
0000
0110
0000
,
0001
0001
0010
0010
,
0100
0000
1001
0000
,
1000
0100
0110
0000
,
1000
0001
1001
0110
,
0001
0100
0110
0000
,
0001
0100
0010
1000
,
0001
0010
0110
0000
,
0001
1000
1001
0110
,
0001
1000
1001
0000
,
1000
0010
0100
0010
,
1000
0100
1000
0100
,
0010
0001
1000
0001
,
0100
0010
1000
0001
,
1001
0000
0000
0110
0000
0000
1001
0000
,
0001
0010
0001
1000
,
1001
0000
0110
0000
,
0001
0000
0001
0000
,
0010
0000
0010
0000
,
0100
0000
0100
0000
,
1000
0000
1000
0000
,
0001
0100
0110
0000
,
1000
0100
0110
1001
,
1000
0010
0110
0000
,
0001
0100
0001
0010
,
0001
1000
0010
1000
,
0100
0010
0001
0010
,
0001
0100
0001
0100
,
0110
1000
1001
0000
,
0001
0000
0000
0000
,
0000
0000
0000
0000
;
#NOTES:
     dance-single:
     :
     Medium:
     11:
     :
0000
0000
0000
0000
,
0000
0000
0000
0000
,
0000
0000
0000
0000
,
1001
0000
0000
0001
0100
0001
0100
0000
0000
0020
0000
0000
,
0230
0000
0000
0000
0000
0310
1000
0000
,
0001
0000
0000
0000
0000
0000
0010
0000
0000
0000
0000
0000
0001
0000
0000
0001
0000
0010
0000
0000
0000
0000
0000
0000
,
0100
0000
0000
1000
0000
0000
0010
0000
0000
0010
0000
1000
0000
0000
0000
0000
0000
0000
1001
0000
0000
0000
0000
0000
,
0001
0000
0000
0000
0000
0000
0110
0000
0000
0000
0000
0000
1000
0000
0000
1000
0000
0010
0000
0000
0000
0000
0000
0000
,
0100
0000
0000
0010
0000
0000
1000
0000
0000
1000
0000
0001
0000
0000
0000
0000
0000
0010
0000
0000
0000
0100
0000
0000
,
1000
0000
0000
0000
0000
0000
1010
0000
0000
0000
0000
0000
0010
0000
0000
0010
0000
0100
0000
0000
0000
0000
0000
0000
,
0001
0000
0000
0100
0000
0000
0001
0000
0000
0001
0000
0010
0000
0000
0000
0000
0000
0000
0110
0000
0000
0000
0000
0000
,
0001
0000
0000
0000
0000
0000
1001
0000
0000
0000
0000
0000
1000
0000
0000
1000
0000
0010
0000
0000
0000
0000
0000
0000
,
0100
0000
0000
0001
0000
0000
0100
0000
0000
0100
0000
0010
0000
0000
0000
0000
0000
1000
0000
0000
0000
0001
0000
0000
,
0100
0000
0001
0000
1000
0010
1000
0000
,
0001
0100
1000
0000
1000
0100
0001
0000
,
0100
0010
0100
0010
0100
0010
0100
0001
,
0000
0000
0000
1000
0000
0000
0100
0000
0000
0000
0000
0110
0000
0000
0000
1000
0000
0000
0000
0000
0001
0000
0000
0000
,
0101
0000
0011
0000
1000
0100
0010
0001
,
1000
0000
0000
0001
0000
0000
0100
0000
0000
0000
0000
0000
0001
0000
0000
0010
0000
0000
0001
0000
0000
0000
0000
1000
,
0000
0000
1001
0000
0001
0100
0010
1000
,
0001
0010
0100
0000
1000
0000
0010
0000
,
1000
0000
0000
0000
0000
0001
0000
0000
0000
0010
0000
0000
0000
0000
0000
0001
0000
0000
0100
0000
0010
0000
0000
0000
,
1000
0000
0000
0010
0000
0000
1000
0000
0000
0000
0000
0000
0001
0000
0000
0010
0000
0000
0100
0000
0000
0000
0000
0010
,
0000
0000
0110
0000
1000
0100
0010
0001
,
1000
0010
0100
0000
0001
0000
0010
0000
,
0001
0000
0000
0000
0000
1000
0000
0000
0000
0010
0000
0000
0000
0000
0000
1000
0000
0000
0100
0000
0010
0000
0000
0000
,
0001
0010
0001
0000
0011
0000
1010
0000
,
1000
0010
1000
0010
0100
0001
0100
0000
,
0001
0010
0001
0000
1000
0100
1000
0000
,
0001
0100
0001
0100
0010
1000
0100
0010
,
0001
0000
0000
0000
0000
1000
0000
0000
0000
1001
0000
0000
0000
0000
0000
0001
0000
0000
0100
0000
0000
0000
0000
0000
,
0010
1000
0010
1000
0001
0010
0100
1000
,
0001
0000
0000
0000
0000
1000
0000
0000
0000
0010
0000
0000
0100
0000
0000
0001
0000
0000
0010
0000
0000
0000
0000
0000
,
0001
0000
0000
0100
0000
0000
0001
0000
0000
0000
0000
0000
1000
0000
0000
1000
0000
0010
0000
0000
0000
0000
0000
0000
,
0100
0000
0000
0001
0000
0000
0100
0000
0000
0100
0000
0010
0000
0000
0000
0000
0000
0000
1010
0000
0000
0000
0000
0000
,
1000
0000
0000
0100
0000
0000
1000
0000
0000
0000
0000
0000
0001
0000
0000
0001
0000
0010
0000
0000
0000
0000
0000
0000
,
0001
0000
0000
0100
0000
0000
0010
0000
0000
0010
0000
0100
0000
0000
0000
0000
0000
0010
0000
0000
0000
1000
0000
0000
,
0001
0000
0000
0010
0000
0000
0001
0000
0000
0000
0000
0000
1000
0000
0000
1000
0000
0010
0000
0000
0000
0000
0000
0000
,
0100
0000
0000
0001
0000
0000
0010
0000
0000
0010
0000
0001
0000
0000
0000
0000
0000
0000
0101
0000
0000
0000
0000
0000
,
1000
0000
0000
0010
0000
0000
1000
0000
0000
0000
0000
0000
0010
0000
0000
0010
0000
0100
0000
0000
0000
0000
0000
0000
,
0001
0000
0000
0010
0000
0000
0001
0000
0000
0001
0000
1000
0000
0000
0000
0000
0000
0010
0000
0000
0000
0100
0000
0000
,
0001
0100
0010
1000
0001
0000
0010
0000
,
0100
1000
0100
0000
1000
0010
1000
0000
,
0001
0100
0010
1000
0001
0100
0010
0000
,
1000
0000
0000
0000
0000
0001
0000
0000
0000
1001
0000
0000
0000
0000
0000
0010
0000
0000
1000
0000
0000
0000
0000
0000
,
0001
0100
0001
0100
0010
1000
0010
1000
,
0001
0010
0100
1000
,
0010
0110
1000
1001
,
0001
0101
1000
1010
,
0010
0110
1000
1100
,
0001
0000
0000
0000
0000
0000
0011
0000
0000
0000
0000
1000
0000
0000
0000
0000
0000
0001
0000
0000
0000
0101
0000
0000
,
0100
0000
0000
0010
0000
0000
1000
0000
0000
0000
0000
0000
0001
0000
0000
0100
0000
0001
0000
0000
0000
0000
0000
0000
,
1000
0000
0000
0100
0000
0000
0010
0000
0000
0100
0000
0010
0000
0000
0000
0000
0000
0000
0110
0000
0000
0000
0000
0000
,
1000
0000
0000
0010
0000
0000
0100
0000
0000
0000
0000
0000
0001
0000
0000
0100
0000
0001
0000
0000
0000
0000
0000
0000
,
0010
0000
0000
0001
0000
0000
0100
0000
0000
0001
0000
0100
0000
0000
0000
0000
0000
0010
0000
0000
0000
0100
0000
0000
,
0001
0000
0010
0000
0100
0010
0100
0000
,
1000
0100
0001
0000
0001
0100
1000
0000
,
0010
1000
0010
1000
0010
1000
0010
1000
,
0000
0000
0000
0001
0000
0000
1000
0000
0000
0000
0000
1001
0000
0000
0000
0010
0000
0000
0000
0000
0100
0000
0000
0000
,
0001
0000
0000
0000
,
0000
0000
0000
0000
;
#NOTES:
     dance-single:
     :
     Hard:
     14:
     :
0000
0000
0000
0000
,
0000
0000
0000
0000
,
0000
0000
0000
0000
,
1001
0000
0000
1000
0100
1000
0100
0000
0000
0020
0000
0000
,
0032
0000
0000
0000
0000
0000
0000
0000
0000
0000
0000
0000
0000
0000
0000
0103
0000
0000
0010
0000
0100
0000
0000
0000
,
0001
0000
0000
0010
0000
0000
0011
0000
0000
0000
0000
0000
1000
0000
0100
1000
0000
0001
0000
0000
0000
0100
0000
0000
,
0001
0000
0000
0100
0000
0000
0010
0000
1000
0010
0000
0100
0000
0000
0001
0010
0000
0000
0100
0000
0000
1000
0000
0000
,
0010
0000
0000
0100
0000
0000
0110
0000
0000
0000
0000
0000
0001
0000
0100
0001
0000
1000
0000
0000
0000
0010
0000
0000
,
1000
0000
0000
0100
0000
0000
1000
0000
0001
1000
0000
0010
0000
0000
0100
0010
0000
0100
0000
0000
0000
0001
0000
0000
,
1000
0000
0000
0010
0000
0000
1010
0000
0000
0000
0000
0000
0001
0000
0100
0001
0000
1000
0000
0000
0000
0100
0000
0000
,
1000
0000
0000
0100
0000
0000
0010
0000
0001
0010
0000
0100
0000
0000
1000
0010
0000
0000
0100
0000
0000
0001
0000
0000
,
0010
0000
0000
0100
0000
0000
0110
0000
0000
0000
0000
0000
1000
0000
0100
1000
0000
0001
0000
0000
0000
0010
0000
0000
,
0001
0000
0000
0100
0000
0000
0001
0000
1000
0001
0000
0010
0000
0000
0100
0010
0000
0100
0000
0000
0000
1000
0000
0000
,
0001
0100
0010
1000
0100
0010
0001
1000
,
0001
0100
1000
0100
0010
0001
0010
1000
,
0001
0000
0010
0100
0000
0010
0100
0000
0010
0100
0000
0010
0100
0000
0010
0100
0000
0010
0100
0000
0010
0001
0000
0000
,
0000
0000
0000
1000
0000
0000
1010
0000
0000
0000
0000
0101
0000
0000
0000
0001
0000
0010
0000
0000
0100
1000
0000
0000
,
1100
0000
0000
0000
0000
0000
1001
0000
0000
0000
0000
1000
0100
0000
0000
0001
0000
0000
0100
0000
1000
0010
0000
0000
,
0100
0000
0000
0001
0000
0000
0010
0000
0000
0000
0000
0001
0100
0000
0000
1000
0000
0000
0100
0000
0010
0000
0000
1000
,
0000
0000
0000
0000
0000
0000
1001
0000
0000
0000
0000
0100
0001
0000
0000
0010
0000
0000
0001
0000
0010
0100
0000
0000
,
1000
0000
0000
0010
0000
0000
0001
0000
0000
0000
0000
0010
0100
0000
0000
0001
0000
0000
1000
0000
0010
0000
0000
0000
,
1000
0000
0000
0100
0000
0010
0000
0000
0000
0001
0000
0000
0000
0000
0100
0010
0000
0000
1000
0000
0010
0000
0000
0000
,
1000
0000
0000
0100
0000
0000
0001
0000
0000
0000
0000
0100
0010
0000
0000
0001
0000
0000
0100
0000
0001
0000
0000
1000
,
0000
0000
0000
0000
0000
0000
0101
0000
0000
0000
0000
0001
1000
0000
0000
0010
0000
0000
0100
0000
1000
0100
0000
0000
,
0001
0000
0000
0010
0000
0000
0100
0000
0000
0000
0000
1000
0001
0000
0000
0100
0000
0000
0010
0000
1000
0000
0000
0000
,
0001
0000
0000
0100
0000
0010
0000
0000
0000
1000
0000
0000
0000
0000
0100
0010
0000
0000
0001
0000
0010
0000
0000
0000
,
0001
0000
0000
0100
0000
0000
1000
0000
0000
0000
0000
0100
0010
0000
0000
1000
0000
0000
0010
0000
0100
0000
0000
0000
,
0001
0000
0000
0010
0000
0000
0001
0000
0000
1000
0000
0001
0000
0000
0001
1000
0000
0000
0100
0000
0010
0100
0000
0000
,
1000
0000
0000
0010
0000
0000
1000
0000
0010
0100
0000
0000
0001
0000
0000
0010
0000
0000
0001
0000
0100
0010
0000
0000
,
1000
0000
0010
0100
0000
0000
0001
0000
0010
0100
0000
0000
1000
0000
0010
0100
0000
0000
0001
0000
0010
0100
0000
0000
,
1100
0000
0000
0000
0000
0011
0000
0000
0000
1001
0000
0000
0000
0000
0000
0001
0000
0000
0100
0000
0010
0100
0000
0000
,
0010
0000
1000
0001
0000
1000
0001
0000
1000
0001
0000
1000
0001
0000
0100
0010
0000
0100
0010
0000
0100
0010
0000
0100
,
0001
0000
0000
0000
0000
1000
0000
0000
0000
0001
0000
0000
1001
0000
0000
1000
0000
0000
0010
0000
0100
0000
0000
0000
,
0001
0000
0000
0100
0000
0000
0101
0000
0000
0000
0000
0000
1000
0000
0010
1000
0000
0100
0000
0000
0000
1000
0000
0000
,
0001
0000
0000
0100
0000
0000
0001
0000
0100
0001
0000
0010
0000
0000
0001
0010
0000
0000
0100
0000
0000
1000
0000
0000
,
0010
0000
0000
0100
0000
0000
0110
0000
0000
0000
0000
0000
0010
0000
1000
0100
0000
1000
0000
0000
0000
0001
0000
0000
,
1000
0000
0000
0010
0000
0000
0100
0000
0001
0010
0000
0001
0000
0000
1000
0010
0000
0100
0000
0000
0000
0001
0000
0000
,
1000
0000
0000
0100
0000
0000
1100
0000
0000
0000
0000
0000
0001
0000
0010
0001
0000
0100
0000
0000
0000
0001
0000
0000
,
1000
0000
0000
0100
0000
0000
1000
0000
0100
1000
0000
0010
0000
0000
1000
0010
0000
0000
0100
0000
0000
0001
0000
0000
,
0010
0000
0000
0100
0000
0000
0110
0000
0000
0000
0000
0000
0010
0000
0001
0100
0000
0001
0000
0000
0000
1000
0000
0000
,
0001
0000
0000
0010
0000
0000
0100
0000
1000
0010
0000
1000
0000
0000
0001
0100
0000
0010
0000
0000
0000
0100
0000
0000
,
0001
0000
0000
1000
0000
0100
0010
0000
0001
0000
0000
0010
0000
0000
0001
0000
0000
0000
0010
0000
0100
0010
0000
0001
,
1000
0000
0010
1000
0000
0010
0000
0000
0100
0010
0000
0100
0000
0000
0001
0000
0000
0010
0001
0000
0100
0000
0000
0000
,
0001
0100
1000
0100
0010
1000
0100
0001
,
0100
0000
0000
0000
0000
1100
0000
0000
0000
1010
0000
0000
0000
0000
0000
0001
0000
0000
0100
0000
0010
0100
0000
0000
,
0010
0000
0000
1000
0000
0010
1000
0000
0000
0001
0000
0000
0010
0000
0000
0001
0000
0100
0001
0000
0000
1000
0000
0000
,
1010
0000
0000
0000
0000
0000
0110
0000
0000
0000
0000
0000
0101
0000
0000
1000
0000
0000
0100
0000
0010
0000
0000
0000
,
0001
0000
0000
0000
0000
0000
0100
0000
0000
0000
0000
0000
0001
0000
0000
0000
0000
0001
0100
0000
0000
0000
0000
0000
,
0010
0000
0000
0000
0000
0000
1000
0000
0000
0000
0000
0010
0000
0000
0100
0010
0000
0000
1000
0000
0001
0000
0000
0000
,
1000
0000
0000
0000
0000
0000
0100
0000
0000
0000
0000
0000
1000
0000
0000
0000
0000
1000
0010
0000
0000
0000
0000
0000
,
0100
0000
0000
0000
0000
0000
0001
0000
0000
0000
0000
0010
0000
0000
0000
0001
0000
1000
0000
0000
0000
1001
0000
0000
,
1000
0000
0000
0010
0000
0000
0110
0000
0000
0000
0000
0000
1000
0000
0010
0100
0000
0001
0000
0000
0000
1000
0000
0000
,
0001
0000
0010
0001
0000
0000
0010
0000
0100
1000
0000
0100
0000
0000
1000
0010
0000
0000
0100
0000
0000
0010
0000
0000
,
1000
0000
0000
0100
0000
0000
0110
0000
0000
0000
0000
0000
0001
0000
0100
0010
0000
1000
0000
0000
0000
0001
0000
0000
,
0100
0000
0000
0001
0000
0000
1000
0000
0100
0010
0000
0001
0000
0000
0010
0001
0000
1000
0000
0000
0000
0010
0000
0000
,
1000
0100
0010
0001
0100
0010
1000
0001
,
1000
0100
0001
0100
0010
1000
0010
0001
,
1000
0000
0010
0100
0000
0010
0100
0000
0010
0100
0000
0010
0100
0000
0010
0100
0000
0010
0100
0000
0010
1000
0000
0000
,
0000
0000
0000
0001
0000
0000
0011
0000
0000
0000
0000
1100
0000
0000
0000
0001
0000
0100
0000
0000
0010
1000
0000
0000
,
0100
0000
0000
0000
,
0000
0000
0000
0000
;
#NOTES:
     dance-double:
     :
     Easy:
     6:
     :
00000000
00000000
00000000
00000000
,
00000000
00000000
00000000
00000000
,
00000000
00000000
00000000
00000000
,
00000001
00001000
00000100
00020000
,
00002000
00000000
00000000
00033000
,
00001000
00100000
00010000
00000000
,
10000000
01000000
00100000
01100000
,
00010000
00100000
00001000
00000000
,
00010000
00000100
00001000
00000001
,
00000100
00000010
00001000
00000000
,
00000010
00010000
00001000
00011000
,
00010000
00001000
01000000
00000000
,
00010000
10000000
00100000
01000000
,
00010000
00100000
00010000
00100000
,
00001000
00010000
00001000
00010000
,
00000100
00001000
00000010
00000100
,
00000001
00001000
00001001
00000000
,
00000001
00000001
00000100
00000100
,
00001000
00000000
00010000
00001000
,
00010000
00010000
00100000
00100000
,
10000000
00000000
00010000
10000000
,
01000000
01000000
00010000
00010000
,
00001000
00000000
00010000
00001000
,
00010000
00010000
00001000
00001000
,
00000100
00000000
00000001
00001000
,
00000010
00001000
00000100
00010000
,
00011000
00000000
00001000
00100000
,
00010000
01000000
00010000
01000000
,
00100000
00100000
10000000
10000000
,
00010000
01000000
00001000
00010000
,
00011000
00000000
00000000
00011000
00000000
00000000
00001000
00000000
,
00010000
00010000
00000010
00000010
,
00001000
00000000
00001001
00000000
,
00000001
00000100
00000110
00000000
,
00000010
00010000
00001000
00011000
,
00001000
00100000
00110000
00000000
,
00010000
10000000
00010000
01000000
,
00001000
00010000
00011000
00000000
,
00010000
00000010
00001000
00001010
,
00000001
00001000
00001001
00000000
,
00000001
00000100
00000010
00001000
,
00000100
00010000
00001000
00010000
,
00001000
00100000
00010000
01000000
,
00100000
10000000
00010000
00100000
,
00110000
00000000
00000000
00101000
00000000
00000000
00011000
00000000
,
00010000
00000100
00001000
00000100
,
00000110
00000000
00000011
00000000
,
00000001
00000000
00000001
00000000
,
00000010
00000000
00000010
00000000
,
00001000
00000000
00001000
00000000
,
00010000
00000000
00010000
00000000
,
01000000
00100000
01100000
00000000
,
10000000
00010000
01000000
01010000
,
00001000
00010000
00011000
00000000
,
00001000
00010000
00000010
00001000
,
00000001
00000010
00000001
00000100
,
00000001
00000010
00001000
00010000
,
01000000
10000000
01000000
10000000
,
00010000
00100000
00011000
00000000
,
00000010
00000000
00000000
00000000
,
00000000
00000000
00000000
00000000
;
#NOTES:
     dance-double:
     :
     Medium:
     11:
     :
00000000
00000000
00000000
00000000
,
00000000
00000000
00000000
00000000
,
00000000
00000000
00000000
00000000
,
00011000
00000000
00000000
00010000
00001000
00010000
00001000
00000000
00000000
00020000
00000000
00000000
,
00030200
00000000
00000000
00000000
00000000
00001300
00000001
00000000
,
00000010
00000000
00000000
00000000
00000000
00000000
00000001
00000000
00000000
00000000
00000000
00000000
00001000
00000000
00000000
00001000
00000000
00000100
00000000
00000000
00000000
00000000
00000000
00000000
,
00010000
00000000
00000000
00001000
00000000
00000000
01000000
00000000
00000000
01000000
00000000
00010000
00000000
00000000
00000000
00000000
00000000
00000000
10010000
00000000
00000000
00000000
00000000
00000000
,
10000000
00000000
00000000
00000000
00000000
00000000
10100000
00000000
00000000
00000000
00000000
00000000
00010000
00000000
00000000
00010000
00000000
00100000
00000000
00000000
00000000
00000000
00000000
00000000
,
00001000
00000000
00000000
00010000
00000000
00000000
00000010
00000000
00000000
00000010
00000000
00001000
00000000
00000000
00000000
00000000
00000000
00000001
00000000
00000000
00000000
00000010
00000000
00000000
,
00000100
00000000
00000000
00000000
00000000
00000000
00010100
00000000
00000000
00000000
00000000
00000000
00010000
00000000
00000000
00010000
00000000
00001000
00000000
00000000
00000000
00000000
00000000
00000000
,
00100000
00000000
00000000
00010000
00000000
00000000
01000000
00000000
00000000
01000000
00000000
00100000
00000000
00000000
00000000
00000000
00000000
00000000
10100000
00000000
00000000
00000000
00000000
00000000
,
10000000
00000000
00000000
00000000
00000000
00000000
10010000
00000000
00000000
00000000
00000000
00000000
00010000
00000000
00000000
00010000
00000000
01000000
00000000
00000000
00000000
00000000
00000000
00000000
,
00001000
00000000
00000000
00010000
00000000
00000000
00000100
00000000
00000000
00000100
00000000
00001000
00000000
00000000
00000000
00000000
00000000
00000100
00000000
00000000
00000000
00000010
00000000
00000000
,
00000001
00000000
00001000
00000000
00000100
00010000
00000100
00000000
,
00010000
00001000
00100000
00000000
00010000
10000000
00100000
00000000
,
01000000
00010000
01000000
00010000
00100000
00001000
00100000
00001000
,
00000000
00000000
00000000
00010000
00000000
00000000
00000100
00000000
00000000
00000000
00000000
00001100
00000000
00000000
00000000
00001000
00000000
00000000
00000000
00000000
00000001
00000000
00000000
00000000
,
00000011
00000000
00001100
00000000
00000001
00000100
00001000
00010000
,
00100000
00000000
00000000
10000000
00000000
00000000
00100000
00000000
00000000
00000000
00000000
00000000
10000000
00000000
00000000
01000000
00000000
00000000
10000000
00000000
00000000
00000000
00000000
00010000
,
00000000
00000000
10010000
00000000
10000000
01000000
00010000
00001000
,
00000010
00000001
00000010
00000000
00000001
00000000
00001000
00000000
,
00000100
00000000
00000000
00000000
00010000
00000000
00000000
00000000
00000000
00001000
00000000
00000000
00000000
00000000
00000000
01000000
00000000
00000000
00010000
00000000
01000000
00000000
00000000
00000000
,
00100000
00000000
00000000
10000000
00000000
00000000
00100000
00000000
00000000
00000000
00000000
00000000
10000000
00000000
00000000
01000000
00000000
00000000
00010000
00000000
00000000
00000000
00000000
00001000
,
00000000
00000000
00011000
00000000
00010000
00001000
00000100
00000010
,
00001000
00000100
00000010
00000000
00000001
00000000
00000100
00000000
,
00000001
00000000
00000000
00000000
00000000
00000010
00000000
00000000
00000000
00001000
00000000
00000000
00000000
00000000
00000000
00010000
00000000
00000000
00001000
00000000
00100000
00000000
00000000
00000000
,
00010000
10000000
01000000
00000000
01100000
00000000
00110000
00000000
,
00001000
00010000
00001000
00010000
00000010
00001000
00000010
00000000
,
00000100
00000001
00000100
00000000
00000001
00000010
00000001
00000000
,
00001000
00000100
00001000
00000000
00000100
00010000
00001000
00000000
,
00100000
00000000
00000000
00000000
00000000
00010000
00000000
00000000
00000000
10010000
00000000
00000000
00000000
00000000
00000000
10000000
00000000
00000000
00100000
00000000
00000000
00000000
00000000
00000000
,
01000000
00010000
01000000
00000000
00001000
00010000
00001000
00000000
,
00010000
00000000
00000000
00000000
00000000
00000100
00000000
00000000
00000000
00001000
00000000
00000000
00000001
00000000
00000000
00000000
00000000
00000000
00001001
00000000
00000000
00000000
00000000
00000000
,
00001000
00000000
00000000
00000010
00000000
00000000
00001000
00000000
00000000
00000000
00000000
00000000
00000100
00000000
00000000
00000100
00000000
00010000
00000000
00000000
00000000
00000000
00000000
00000000
,
00001000
00000000
00000000
00100000
00000000
00000000
00010000
00000000
00000000
00010000
00000000
00100000
00000000
00000000
00000000
00000000
00000000
00000000
01100000
00000000
00000000
00000000
00000000
00000000
,
10000000
00000000
00000000
01000000
00000000
00000000
10000000
00000000
00000000
00000000
00000000
00000000
00100000
00000000
00000000
00100000
00000000
01000000
00000000
00000000
00000000
00000000
00000000
00000000
,
00010000
00000000
00000000
00100000
00000000
00000000
00001000
00000000
00000000
00001000
00000000
00010000
00000000
00000000
00000000
00000000
00000000
00000010
00000000
00000000
00000000
00001000
00000000
00000000
,
00000001
00000000
00000000
00000010
00000000
00000000
00000001
00000000
00000000
00000000
00000000
00000000
00000010
00000000
00000000
00000010
00000000
00000100
00000000
00000000
00000000
00000000
00000000
00000000
,
00001000
00000000
00000000
00000100
00000000
00000000
00010000
00000000
00000000
00010000
00000000
00001000
00000000
00000000
00000000
00000000
00000000
00000000
01001000
00000000
00000000
00000000
00000000
00000000
,
01000000
00000000
00000000
00010000
00000000
00000000
01000000
00000000
00000000
00000000
00000000
00000000
00100000
00000000
00000000
00100000
00000000
10000000
00000000
00000000
00000000
00000000
00000000
00000000
,
01000000
00000000
00000000
00100000
00000000
00000000
00010000
00000000
00000000
00010000
00000000
00100000
00000000
00000000
00000000
00000000
00000000
00001000
00000000
00000000
00000000
00010000
00000000
00000000
,
00000010
00010000
00000010
00000000
00001000
00000000
00000001
00000000
,
00000010
00000100
00000010
00000000
00000100
00001000
00000100
00000000
,
00010000
00001000
01000000
00000000
00010000
10000000
01000000
00000000
,
00100000
00000000
00000000
00000000
00000000
00001000
00000000
00000000
00000000
00011000
00000000
00000000
00000000
00000000
00000000
00010000
00000000
00000000
00000010
00000000
00000000
00000000
00000000
00000000
,
00001000
00000100
00001000
00000100
00000010
00000001
00000010
00000001
,
00000100
00001000
00010000
00100000
,
10000000
10010000
00010000
00110000
,
00100000
00101000
00001000
00011000
,
00010000
00010100
00000100
00001100
,
00001000
00000000
00000000
00000000
00000000
00000000
00001001
00000000
00000000
00000000
00000000
00000001
00000000
00000000
00000000
00000000
00000000
00000100
00000000
00000000
00000000
00000010
00000000
00000000
,
00001000
00000000
00000000
00000100
00000000
00000000
00001000
00000000
00000000
00000000
00000000
00000000
00000100
00000000
00000000
00010000
00000000
00000100
00000000
00000000
00000000
00000000
00000000
00000000
,
00010000
00000000
00000000
00001000
00000000
00000000
00100000
00000000
00000000
00010000
00000000
00100000
00000000
00000000
00000000
00000000
00000000
00000000
10010000
00000000
00000000
00000000
00000000
00000000
,
10000000
00000000
00000000
00100000
00000000
00000000
10000000
00000000
00000000
00000000
00000000
00000000
00100000
00000000
00000000
01000000
00000000
00100000
00000000
00000000
00000000
00000000
00000000
00000000
,
01000000
00000000
00000000
00010000
00000000
00000000
00100000
00000000
00000000
00001000
00000000
00100000
00000000
00000000
00000000
00000000
00000000
00001000
00000000
00000000
00000000
00010000
00000000
00000000
,
00000100
00000000
00001000
00000000
00000001
00000010
00000001
00000000
,
00001000
00000100
00010000
00000000
00001000
00100000
00010000
00000000
,
10000000
00100000
01000000
00010000
00100000
00001000
00010000
00000100
,
00000000
00000000
00000000
00001000
00000000
00000000
00000001
00000000
00000000
00000000
00000000
00001001
00000000
00000000
00000000
00000010
00000000
00000000
00000000
00000000
00000100
00000000
00000000
00000000
,
00001000
00000000
00000000
00000000
,
00000000
00000000
00000000
00000000
;
#NOTES:
     dance-double:
     :
     Hard:
     14:
     :
00000000
00000000
00000000
00000000
,
00000000
00000000
00000000
00000000
,
00000000
00000000
00000000
00000000
,
00011000
00000000
00000000
00001000
00100000
00010000
00100000
00000000
00000000
00020000
00000000
00000000
,
20030000
00000000
00000000
00000000
00000000
00000000
00000000
00000000
00000000
00000000
00000000
00000000
00000000
00000000
00000000
31000000
00000000
00000000
00100000
00000000
00010000
00000000
00000000
00000000
,
01000000
00000000
00000000
00001000
00000000
00000000
00011000
00000000
00000000
00000000
00000000
00000000
00010000
00000000
00000100
00001000
00000000
00000100
00000000
00000000
00000000
00000010
00000000
00000000
,
00000001
00000000
00000000
00001000
00000000
00000000
00000100
00000000
00010000
00001000
00000000
00010000
00000000
00000000
00001000
00100000
00000000
00000000
00010000
00000000
00000000
10000000
00000000
00000000
,
00010000
00000000
00000000
00100000
00000000
00000000
00110000
00000000
00000000
00000000
00000000
00000000
00001000
00000000
00010000
00000100
00000000
00010000
00000000
00000000
00000000
00000010
00000000
00000000
,
00001000
00000000
00000000
00000100
00000000
00000000
00000010
00000000
00000001
00001000
00000000
00000001
00000000
00000000
00001000
00000100
00000000
00010000
00000000
00000000
00000000
00001000
00000000
00000000
,
01000000
00000000
00000000
00010000
00000000
00000000
01010000
00000000
00000000
00000000
00000000
00000000
10000000
00000000
01000000
10000000
00000000
00010000
00000000
00000000
00000000
00100000
00000000
00000000
,
00001000
00000000
00000000
00000100
00000000
00000000
00000010
00000000
00001000
00000001
00000000
00001000
00000000
00000000
00000100
00000010
00000000
00000000
00000100
00000000
00000000
00010000
00000000
00000000
,
00000100
00000000
00000000
00010000
00000000
00000000
00011000
00000000
00000000
00000000
00000000
00000000
00001000
00000000
01000000
00010000
00000000
01000000
00000000
00000000
00000000
00100000
00000000
00000000
,
10000000
00000000
00000000
00010000
00000000
00000000
00100000
00000000
00001000
00010000
00000000
00001000
00000000
00000000
00010000
00000100
00000000
00001000
00000000
00000000
00000000
00000001
00000000
00000000
,
00001000
00000010
00000100
00001000
00010000
00100000
10000000
00010000
,
01000000
00001000
00000100
00000010
00001000
00000100
00000010
00000001
,
00001000
00000000
00000100
00001000
00000000
00000100
00001000
00000000
00000100
00001000
00000000
00000100
00010000
00000000
00001000
00010000
00000000
00001000
00010000
00000000
00001000
01000000
00000000
00000000
,
00000000
00000000
00000000
00010000
00000000
00000000
01010000
00000000
00000000
00000000
00000000
10100000
00000000
00000000
00000000
10000000
00000000
01000000
00000000
00000000
00100000
00010000
00000000
00000000
,
00101000
00000000
00000000
00000000
00000000
00000000
00011000
00000000
00000000
00000000
00000000
00010000
00000010
00000000
00000000
00001000
00000000
00000000
00000100
00000000
00000010
00000001
00000000
00000000
,
00000100
00000000
00000000
00001000
00000000
00000000
00010000
00000000
00000000
00000000
00000000
00001000
00010000
00000000
00000000
01000000
00000000
00000000
10000000
00000000
00010000
00000000
00000000
01000000
,
00000000
00000000
00000000
00000000
00000000
00000000
01100000
00000000
00000000
00000000
00000000
10000000
00010000
00000000
00000000
01000000
00000000
00000000
00010000
00000000
00100000
00001000
00000000
00000000
,
00010000
00000000
00000000
00001000
00000000
00000000
00000100
00000000
00000000
00000000
00000000
00000001
00001000
00000000
00000000
00000010
00000000
00000000
00000100
00000000
00000001
00000000
00000000
00000000
,
00000010
00000000
00000000
00000100
00000000
00001000
00000000
00000000
00000000
00000100
00000000
00000000
00000000
00000000
00010000
00001000
00000000
00000000
00100000
00000000
00010000
00000000
00000000
00000000
,
10000000
00000000
00000000
00100000
00000000
00000000
00010000
00000000
00000000
00000000
00000000
00001000
00010000
00000000
00000000
00001000
00000000
00000000
00000100
00000000
00000010
00000000
00000000
00001000
,
00000000
00000000
00000000
00000000
00000000
00000000
00000101
00000000
00000000
00000000
00000000
00000001
00001000
00000000
00000000
00000010
00000000
00000000
00010000
00000000
00001000
00100000
00000000
00000000
,
00001000
00000000
00000000
00010000
00000000
00000000
01000000
00000000
00000000
00000000
00000000
10000000
00010000
00000000
00000000
01000000
00000000
00000000
00100000
00000000
10000000
00000000
00000000
00000000
,
00010000
00000000
00000000
00100000
00000000
00001000
00000000
00000000
00000000
00000010
00000000
00000000
00000000
00000000
00000001
00000010
00000000
00000000
00000001
00000000
00001000
00000000
00000000
00000000
,
00000100
00000000
00000000
00010000
00000000
00000000
01000000
00000000
00000000
00000000
00000000
10000000
00010000
00000000
00000000
01000000
00000000
00000000
00100000
00000000
01000000
00000000
00000000
00000000
,
00001000
00000000
00000000
00010000
00000000
00000000
00000010
00000000
00000000
00001000
00000000
00000001
00000000
00000000
00000001
00001000
00000000
00000000
00000100
00000000
00000010
00000100
00000000
00000000
,
00001000
00000000
00000000
00000100
00000000
00000000
00010000
00000000
00001000
01000000
00000000
00000000
00010000
00000000
00000000
00100000
00000000
00000000
01000000
00000000
10000000
00100000
00000000
00000000
,
01000000
00000000
00001000
00010000
00000000
00000000
00000010
00000000
00001000
00000001
00000000
00000000
00000010
00000000
00000001
00000100
00000000
00000000
00000010
00000000
00001000
00000100
00000000
00000000
,
00010100
00000000
00000000
00000000
00000000
00110000
00000000
00000000
00000000
10010000
00000000
00000000
00000000
00000000
00000000
10000000
00000000
00000000
00100000
00000000
01000000
00100000
00000000
00000000
,
01000000
00000000
00010000
00100000
00000000
00010000
00100000
00000000
00010000
00100000
00000000
00001000
00010000
00000000
00001000
00010000
00000000
00001000
00010000
00000000
00001000
00010000
00000000
00000010
,
00001000
00000000
00000000
00000000
00000000
00000001
00000000
00000000
00000000
00001000
00000000
00000000
00001001
00000000
00000000
00000001
00000000
00000000
00000100
00000000
00000010
00000000
00000000
00000000
,
00010000
00000000
00000000
00001000
00000000
00000000
00011000
00000000
00000000
00000000
00000000
00000000
00010000
00000000
00001000
00100000
00000000
00001000
00000000
00000000
00000000
00100000
00000000
00000000
,
00010000
00000000
00000000
10000000
00000000
00000000
00100000
00000000
01000000
00010000
00000000
01000000
00000000
00000000
00001000
00010000
00000000
00000000
00001000
00000000
00000000
00000100
00000000
00000000
,
00000001
00000000
00000000
00000010
00000000
00000000
00000011
00000000
00000000
00000000
00000000
00000000
00001000
00000000
00000100
00010000
00000000
00000100
00000000
00000000
00000000
00010000
00000000
00000000
,
00001000
00000000
00000000
00010000
00000000
00000000
00100000
00000000
01000000
00100000
00000000
10000000
00000000
00000000
00010000
01000000
00000000
00001000
00000000
00000000
00000000
00010000
00000000
00000000
,
00000010
00000000
00000000
00001000
00000000
00000000
00001010
00000000
00000000
00000000
00000000
00000000
00000001
00000000
00001000
00000100
00000000
00001000
00000000
00000000
00000000
00000010
00000000
00000000
,
00001000
00000000
00000000
00100000
00000000
00000000
00010000
00000000
00100000
01000000
00000000
00100000
00000000
00000000
10000000
00010000
00000000
00000000
10000000
00000000
00000000
00100000
00000000
00000000
,
00010000
00000000
00000000
00001000
00000000
00000000
00011000
00000000
00000000
00000000
00000000
00000000
00010000
00000000
00000010
00001000
00000000
00000010
00000000
00000000
00000000
00000100
00000000
00000000
,
00000001
00000000
00000000
00000010
00000000
00000000
00000100
00000000
00001000
00000100
00000000
00010000
00000000
00000000
00001000
01000000
00000000
00010000
00000000
00000000
00000000
00100000
00000000
00000000
,
00010000
00000000
00000000
10000000
00000000
01000000
00100000
00000000
00010000
00000000
00000000
00100000
00000000
00000000
00001000
00000000
00000000
00000000
00010000
00000000
00001000
00010000
00000000
00000100
,
00001000
00000000
00000001
00001000
00000000
00000001
00000000
00000000
00000100
00000010
00000000
00000100
00000000
00000000
00000010
00000000
00000000
00001000
00000100
00000000
00010000
00000000
00000000
00000000
,
00001000
00010000
00100000
10000000
00010000
00100000
01000000
00010000
,
00000100
00000000
00000000
00000000
00000000
00000110
00000000
00000000
00000000
00000011
00000000
00000000
00000000
00000000
00000000
00001000
00000000
00000000
00000100
00000000
00010000
00000100
00000000
00000000
,
00010000
00000000
00000000
00001000
00000000
00100000
00010000
00000000
00000000
00100000
00000000
00000000
01000000
00000000
00000000
10000000
00000000
00100000
10000000
00000000
00000000
00010000
00000000
00000000
,
00110000
00000000
00000000
00000000
00000000
00000000
00101000
00000000
00000000
00000000
00000000
00000000
00010010
00000000
00000000
00010000
00000000
00000000
00001000
00000000
00010000
00000000
00000000
00000000
,
00000100
00000000
00000000
00000000
00000000
00000000
00001000
00000000
00000000
00000000
00000000
00000000
00000001
00000000
00000000
00000000
00000000
00000001
00000100
00000000
00000000
00000000
00000000
00000000
,
00001000
00000000
00000000
00000000
00000000
00000000
00010000
00000000
00000000
00000000
00000000
01000000
00000000
00000000
00100000
01000000
00000000
00000000
10000000
00000000
00100000
00000000
00000000
00000000
,
10000000
00000000
00000000
00000000
00000000
00000000
01000000
00000000
00000000
00000000
00000000
00000000
10000000
00000000
00000000
00000000
00000000
10000000
00100000
00000000
00000000
00000000
00000000
00000000
,
00010000
00000000
00000000
00000000
00000000
00000000
00001000
00000000
00000000
00000000
00000000
00000010
00000000
00000000
00000000
00000001
00000000
00001000
00000000
00000000
00000000
00001001
00000000
00000000
,
00000001
00000000
00000000
00000100
00000000
00000000
00000110
00000000
00000000
00000000
00000000
00000000
00001000
00000000
00000100
00010000
00000000
00001000
00000000
00000000
00000000
01000000
00000000
00000000
,
00010000
00000000
10000000
00010000
00000000
00000000
10000000
00000000
01000000
00100000
00000000
01000000
00000000
00000000
00100000
00010000
00000000
00000000
00100000
00000000
00000000
00001000
00000000
00000000
,
00010000
00000000
00000000
00000010
00000000
00000000
00010010
00000000
00000000
00000000
00000000
00000000
00010000
00000000
00000100
00001000
00000000
00000001
00000000
00000000
00000000
00000010
00000000
00000000
,
00000100
00000000
00000000
00000010
00000000
00000000
00000001
00000000
00000100
00000010
00000000
00001000
00000000
00000000
00000100
00010000
00000000
00001000
00000000
00000000
00000000
00010000
00000000
00000000
,
00001000
00100000
00010000
10000000
00100000
10000000
01000000
00010000
,
00001000
00000100
00000001
00000010
00000100
00001000
00000100
00010000
,
00001000
00000000
00100000
00001000
00000000
00100000
00001000
00000000
00100000
00001000
00000000
00100000
00010000
00000000
10000000
00010000
00000000
10000000
00010000
00000000
10000000
01000000
00000000
00000000
,
00000000
00000000
00000000
00100000
00000000
00000000
00110000
00000000
00000000
00000000
00000000
00011000
00000000
00000000
00000000
00010000
00000000
00001000
00000000
00000000
00000010
00000001
00000000
00000000
,
00001000
00000000
00000000
00000000
,
00000000
00000000
00000000
00000000
;
