
//----- song ID: chbu -----//
#TITLE:Chromatic Burst;
#ARTIST:JAKAZiD;
#BANNER:Chromatic Burst.png;
#BACKGROUND:Chromatic Burst-bg.png;
#CDTITLE:./CDTitles/DDR A3.png;
#MUSIC:Chromatic Burst.ogg;
#SAMPLESTART:2.471;
#SAMPLELENGTH:15;
#BPMS:0=170;
#STAGE:15;
#NOTES:
     dance-single:
     :
     Beginner:
     2:
     :
0000
0000
0000
0000
,
0000
0000
0000
0000
,
0000
0000
0000
0000
,
0000
0000
0000
0000
,
0000
0000
0000
0000
,
0000
0000
0000
0000
,
0001
0000
0000
0000
,
0000
0000
0000
0000
,
0010
0000
0000
0000
,
0000
0000
0000
0000
,
0000
0000
0000
0000
,
0010
0000
0000
0000
,
0010
0000
0000
0000
,
0100
0000
0000
0000
,
0000
0000
0000
0000
,
0100
0000
0000
0000
,
0100
0000
0000
0000
,
1000
0000
0000
0000
,
0000
0000
0000
0000
,
1000
0000
0000
0000
,
0010
0000
0000
0000
,
1000
0000
0000
0000
,
0000
0000
0000
0000
,
0100
0000
0000
0000
,
0100
0000
0000
0000
,
0001
0000
0000
0000
,
0000
0000
0000
0000
,
0010
0000
0000
0000
,
0000
0000
0000
0000
,
0100
0000
0000
0000
,
0000
0000
0000
0000
,
0001
0000
0000
0000
,
0000
0000
0000
0000
,
0100
0000
0000
0000
,
0000
0000
0000
0000
,
1000
0000
0000
0000
,
0000
0000
0000
0000
,
0010
0000
0000
0000
,
0000
0000
0000
0000
,
0100
0000
0000
0000
,
0000
0000
0000
0000
,
0010
0000
0000
0000
,
0000
0000
0000
0000
,
0001
0000
0000
0000
,
0000
0000
0000
0000
,
0001
0000
0000
0000
,
0000
0000
0000
0000
,
1000
0000
0000
0000
,
0000
0000
0000
0000
,
1000
0000
0000
0000
,
0000
0000
0000
0000
,
0010
0000
0000
0000
,
0000
0000
0000
0000
,
0010
0000
0000
0000
,
0000
0000
0000
0000
,
0100
0000
0000
0000
,
0000
0000
0000
0000
,
0000
0000
0000
0000
,
0000
0000
0000
0000
,
0001
0000
0000
0000
,
0000
0000
0000
0000
,
0010
0000
0000
0000
,
0000
0000
0000
0000
,
1000
0000
0000
0000
,
0000
0000
0000
0000
,
1000
0000
0000
0000
,
0000
0000
0000
0000
,
1000
0000
0000
0000
,
1000
0000
0000
0000
,
0100
0000
0000
0000
,
0000
0000
0000
0000
,
0010
0000
0000
0000
,
0100
0000
0000
0000
,
0010
0000
0000
0000
,
0000
0000
0000
0000
,
0010
0000
0000
0000
,
0010
0000
0000
0000
,
0001
0000
0000
0000
,
0000
0000
0000
0000
,
0001
0000
0000
0000
,
0100
0000
0000
0000
,
0100
0000
0000
0000
,
0100
0000
0000
0000
,
0000
0000
0000
0000
;
#NOTES:
     dance-single:
     :
     Easy:
     7:
     :
0000
0000
0000
0000
,
0000
0000
0000
0000
,
0000
0000
0000
0000
,
0000
0000
0000
0000
,
0000
0000
0000
0000
,
0000
0000
0000
0000
,
0001
0000
0000
0000
1000
0000
0000
2002
,
0000
0000
0000
3003
,
0110
0000
1001
0000
,
1000
0100
0010
0001
,
2000
0000
0000
3000
,
0001
0000
0100
0000
,
0010
1000
0010
0000
,
1001
0000
0110
0000
,
1000
0001
1000
0000
,
0001
0000
0010
0000
,
0100
0010
0100
0000
,
0110
0000
1001
0000
,
1000
0001
1000
0000
,
0001
0100
0001
0100
,
0010
1000
0010
0000
,
1000
0100
0010
0001
,
1000
0100
0110
0000
,
1000
0100
1000
0010
,
0100
0001
1000
0000
,
1001
0000
0110
0000
,
2002
0000
0000
3003
,
0001
1000
0100
1000
,
0001
1000
0100
1000
,
0001
0001
0001
0000
,
1000
1000
1000
0000
,
0001
0000
0010
0000
,
1000
0000
0010
0000
,
0001
1000
0001
1000
,
0010
0010
0010
0000
,
1000
0001
0010
0001
,
1000
0001
0010
0001
,
1000
1000
1000
0000
,
0001
0001
0001
0000
,
1000
0000
0100
0000
,
0001
0000
0100
0000
,
1000
0001
1000
0001
,
0100
0100
0100
0000
,
0002
0000
0000
0003
,
0010
0000
0110
0000
,
2000
0000
0000
3000
,
0010
0000
0110
0000
,
0200
0000
0000
0300
,
0100
0000
1001
0000
,
0020
0000
0000
0000
,
0030
0000
0010
0010
,
0010
0000
1001
0000
,
1000
0001
0010
0000
,
0100
0000
1001
0000
,
0001
1000
0010
0000
,
0220
0000
0000
0000
,
0330
0000
0000
0000
,
1000
0000
0001
0000
,
1000
0001
1000
0000
,
0002
0000
0000
0003
,
2000
0000
0000
3000
,
0020
0000
0000
0030
,
0200
0000
0000
0300
,
0001
0100
0001
0100
,
0010
1000
0010
0000
,
1000
0100
1000
0100
,
0020
0000
0000
0030
,
0001
1000
0010
0100
,
0001
0000
1000
0001
1000
0000
0000
0000
,
1001
0000
0110
0000
,
1001
0000
0000
0000
,
1000
0001
0100
0010
,
1000
0000
0001
1000
0001
0000
0000
0000
,
1001
0000
0110
0000
,
1001
0000
0000
0000
,
1000
0000
0001
0000
0010
0100
0010
0000
,
0001
1000
0010
0000
,
1000
0100
0010
0100
,
1000
0001
1001
0000
,
0001
0000
1000
0000
0100
0010
0100
0000
,
1000
0001
0100
0000
,
0001
0000
0010
0000
0100
0000
0010
0001
,
0000
0000
0000
0000
0000
1000
0000
0000
,
0000
0000
0000
0000
;
#NOTES:
     dance-single:
     :
     Medium:
     12:
     :
0000
0000
0000
0000
,
0000
0000
0000
0000
,
0000
0000
0000
0000
,
0000
0000
0000
0000
,
0000
0000
0000
0000
,
0000
0000
0000
0000
,
0002
0000
0000
0000
0003
0000
0000
0000
1000
0000
0000
0001
0000
0000
2000
0000
,
0000
0000
0000
3000
,
1001
0000
0110
0000
,
0001
0010
0001
0010
0100
1000
0100
0000
,
2002
0000
0000
3003
,
1000
0000
0100
0000
0001
0100
1000
0000
,
0001
0100
1000
0100
0001
0000
0000
0000
,
0011
0100
1010
0100
,
0011
0100
1010
0000
,
0000
1000
0001
0000
1000
0010
1000
0000
,
0001
0010
1000
0010
0001
0000
0000
0000
,
0001
0000
0000
0001
0000
0000
0000
0000
0100
0000
0000
0100
0000
0000
0000
0000
,
0000
0010
0000
0000
0010
0000
0000
1000
0000
0000
1000
0000
0000
0000
0000
0000
,
1001
0000
1001
0000
0001
0100
0010
0000
,
1000
0100
0001
0100
1000
0000
0000
0000
,
1100
0010
0101
0010
,
1100
0010
0101
0000
,
0000
0001
1000
0000
0010
0100
0010
0000
,
1000
0100
0001
0100
1000
0000
0000
0000
,
0000
0001
0000
0000
0100
0000
0000
0001
0000
0000
1000
0000
0000
0100
0000
0000
,
1000
0000
0000
0001
0000
0000
0020
0000
0000
0000
0000
0000
0030
0000
0000
0000
,
0001
0100
0010
0100
0001
0010
0100
1000
,
0001
0000
1000
0100
0001
0100
1000
0000
,
0010
1000
0100
0000
0010
0001
0100
0000
,
1010
1100
0011
0101
,
1000
0010
0100
0001
1000
0100
0010
0001
,
1000
0000
0001
0100
1000
0100
0001
0000
,
1001
0000
1000
1000
0010
0000
0001
0001
,
0010
0110
1001
0110
,
1000
0010
0100
0010
1000
0100
0010
0001
,
1000
0000
0001
0010
1000
0010
0001
0000
,
0100
0001
0010
0000
0100
1000
0010
0000
,
0101
0011
1100
1010
,
0001
0100
0010
1000
0001
0010
0100
1000
,
0001
0000
1000
0010
0001
0010
1000
0000
,
1001
0000
0001
0001
0100
0000
1000
1000
,
0100
0000
0010
0000
0000
0001
0000
0000
1000
0000
0000
1000
0000
0000
0000
0000
,
0002
0203
0320
2030
,
3001
0100
1000
0000
0100
0001
0000
0001
,
2000
3200
0320
0032
,
1003
0100
0001
0000
0100
1000
0000
1000
,
0002
0023
0230
2300
,
3001
0010
1000
0000
0010
0001
0000
0001
,
1000
0000
0000
0110
0000
0000
0001
0000
,
0000
0110
0000
0000
1000
0001
1000
0000
,
0001
0000
1001
0000
1000
0001
0100
0000
,
0010
1000
0100
1000
0010
0000
0000
0000
,
1000
0000
1001
0000
0001
1000
0010
0000
,
0100
0001
0010
0000
0100
1000
0010
0000
,
0220
0000
0000
0330
,
2002
0000
0000
3003
,
0001
0000
1000
0000
,
0010
0010
0010
0000
,
2000
0000
3200
0000
,
0320
0000
0000
0030
,
0002
0000
0203
0000
,
0320
0000
0000
0030
,
1000
0010
1000
0000
0001
0100
0001
0000
,
0010
0001
0010
0000
0100
1000
0100
0000
,
1000
0000
0001
0000
0010
0000
0100
0000
1000
0000
0000
0001
0000
0000
2000
0000
,
0000
0000
0000
3000
,
1000
0010
0100
0010
1000
0100
0010
0001
,
1000
0100
0001
0100
1000
0001
0010
0000
,
0001
0100
0010
1000
0001
0010
0100
1000
,
0001
0100
0001
1000
0010
0000
1001
0000
,
0001
0100
0010
0100
0001
0010
0100
1000
,
0001
0010
1000
0010
0001
1000
0100
0000
,
1000
0000
0010
0000
0100
0000
0001
0000
1000
0000
0000
0100
0000
0000
0010
0000
,
0000
0001
0100
0010
0000
1000
0001
0000
,
1000
0010
1000
0010
0001
0010
1000
0001
,
0100
0010
1000
0100
0001
0100
1000
0000
,
0001
0010
0100
1000
0001
0010
1000
0010
,
0001
1000
0100
0010
0011
0000
1001
0000
,
0001
0100
0001
0100
1000
0100
0001
1000
,
0010
0100
0001
0010
1000
0010
0001
0000
,
1000
0000
0100
0000
0010
0000
0001
0000
1000
0000
0000
0100
0000
0000
0220
0000
,
0000
0000
0000
0000
0330
2002
0000
0000
,
0000
0000
0000
3003
0000
0000
0000
0000
,
0000
0000
0000
0000
;
#NOTES:
     dance-single:
     :
     Hard:
     17:
     :
0000
0000
0000
0000
,
0000
0000
0000
0000
,
0000
0000
0000
0000
,
0000
0000
0000
0000
,
0000
0000
0000
0000
,
0000
0000
0000
0000
,
2020
0000
0000
0000
3030
0000
0000
0000
2100
0000
0000
3100
0000
0000
2002
0000
,
0000
0000
0000
3003
,
1100
0000
0101
0000
,
1000
0000
0001
0000
1000
0000
0001
0000
1000
0001
1000
0001
1000
0001
1000
0001
,
2000
0000
0000
3000
,
1001
0000
0000
0000
1000
0000
0010
0000
0001
0010
0000
1000
0100
0001
0100
0000
,
1000
0000
0010
0000
0100
0000
1000
0000
0001
0010
0000
0010
1000
0100
0001
0000
,
0100
0000
1000
0010
0000
0010
0001
1000
0100
0000
0001
0010
0000
0010
1000
0001
,
0100
0000
1000
0010
0000
0010
0001
1000
0200
0000
0000
0000
0300
0000
0000
0000
,
0000
0000
0110
0000
0110
0000
0000
0000
0001
0100
0000
1000
0100
0001
0010
0000
,
1000
0001
0100
0000
1000
0001
0100
0000
1000
0100
0000
0100
0001
0010
0100
0010
,
1000
0000
0001
0100
0000
0100
1000
0000
0001
0000
1000
0010
0000
0010
0001
0000
,
0000
1000
0100
0000
0001
0010
0100
1000
0000
0000
1010
0000
1001
0000
0002
0000
,
0203
0000
0300
0000
0200
0000
0300
0000
1000
0100
0000
0001
0010
1000
0010
0000
,
0001
0000
0100
0000
0010
0000
0001
0000
1000
0100
0000
0100
0001
0010
1000
0000
,
0010
0000
0001
0100
0000
0100
1000
0001
0010
0000
1000
0100
0000
0100
0001
1000
,
0010
0000
0001
0100
0000
0100
1000
0001
0020
0000
0000
0000
0030
0000
0000
0000
,
0000
0000
0110
0000
0110
0000
0000
0000
1000
0010
0000
0001
0010
1000
0100
0000
,
0001
1000
0010
0000
0001
1000
0010
0000
0001
0010
0000
0010
1000
0100
0010
0000
,
0001
0100
0000
1000
0001
0000
0010
1000
0000
0100
0001
0000
1000
0010
0000
0001
,
0100
0000
1000
0100
0000
0001
0020
0000
0000
0000
0000
0000
0130
1000
0100
1000
,
0100
0000
0010
0000
1000
0000
0010
0000
0100
0000
1000
0000
0001
0100
0000
0010
,
0001
0000
1000
0000
0001
0010
0000
0100
0001
0000
0010
0000
0100
1000
0001
0010
,
0001
0000
0100
0000
1000
0000
0001
0000
0010
1000
0100
0000
0010
0001
0100
1000
,
0000
0000
1000
0000
0100
0000
0001
0000
0010
0000
0001
0000
1000
0001
0000
0001
,
0010
0000
0100
0000
0001
0000
0100
0000
0010
0000
0001
0000
0100
0010
0000
1000
,
0010
0000
0100
0000
1000
0000
0100
0000
0010
0000
1000
0000
0100
0001
0000
0001
,
0200
0000
1300
0010
0002
0000
1003
0100
,
0001
0000
0010
0100
1000
0000
0010
0100
0001
0000
1000
0000
1001
0000
0000
0000
,
1000
0000
0100
0000
0010
0000
1000
0000
0010
0000
0100
0000
1000
0010
0000
0100
,
1000
0000
0001
0000
1000
0100
0000
0010
1000
0000
0100
0000
0010
0001
1000
0100
,
1000
0000
0010
0000
0001
0000
1000
0000
0100
0001
0010
0000
0100
1000
0010
0001
,
0000
0000
0001
0000
0010
0000
1000
0000
0100
0000
1000
0000
0001
1000
0000
1000
,
0100
0000
0010
0000
1000
0000
0010
0000
0100
0000
1000
0000
0010
0100
0000
0001
,
0100
0000
0010
0000
0001
0000
0010
0000
0100
0000
0001
0000
0010
0100
0010
0000
,
0001
0010
0100
1000
0000
0010
0100
0000
0001
0010
0100
1000
0000
0010
0100
0000
,
0001
0100
0010
0001
0010
0100
1000
0100
0010
1000
0100
0010
0000
0000
0000
0000
,
0002
0023
2030
0000
,
3001
0100
0001
0100
0010
0000
0000
0000
0001
0000
1000
0000
0000
0000
0001
0000
,
2000
3020
0032
0000
,
1003
0100
1000
0100
0010
0000
0000
0000
1000
0000
0010
0000
0000
0000
1000
0000
,
0002
0203
2300
0000
,
3001
0010
0001
0010
0100
0000
0000
0000
0010
0100
0010
0000
0000
0000
0000
0000
,
1000
0000
0000
0010
0001
0000
1000
0000
0000
0100
0001
0000
0001
0000
0000
0010
,
1000
0000
0001
0000
0000
0100
1000
0000
0010
0100
0010
0000
1000
0001
0000
0001
,
1000
0000
0000
0000
0001
0100
0010
0100
1000
0000
0001
0010
0100
0010
1000
0000
,
0001
0000
0001
0000
0100
0000
1000
0100
0001
0000
1000
0100
0001
0100
1000
0000
,
0001
0000
0000
0000
1000
0010
0100
0010
0001
0000
1000
0100
0010
0100
0001
0000
,
1000
0000
1000
0000
0010
0000
0001
0010
1000
0000
0001
0010
1000
0010
0001
0000
,
2002
0000
0000
3003
,
0220
0000
0000
0330
,
0022
0033
2200
3300
,
0001
1000
1001
0000
,
0002
0010
0000
1000
,
0000
0100
0000
0103
,
2000
0010
0000
0001
,
0000
0100
0000
3100
,
1000
0100
1000
0100
0001
0100
0001
0100
,
1000
0010
1000
0010
0001
0010
0001
0010
,
1000
0100
0010
0001
0010
1000
0010
0001
1000
0000
0000
1000
0000
0000
2000
0000
,
0000
0000
0000
3000
,
0001
0000
0100
0000
1000
0000
0001
0010
1000
0000
0010
0001
0000
1000
0100
0010
,
0001
0000
1000
0001
0000
0000
1001
0000
0001
0010
1000
0000
0001
0010
0100
1000
,
0001
0000
0010
0000
1000
0000
1001
0000
0001
0000
0100
1000
0000
0100
0010
0001
,
0100
0000
1000
0100
0000
0001
0010
1000
0010
0000
0001
1000
0010
0000
0000
0000
,
1000
0000
0010
0000
0001
0000
1000
0100
0001
0000
0100
1000
0000
0001
0010
0100
,
1000
0000
0001
1000
0000
0000
1001
0000
1000
0100
0001
0000
1000
0100
0010
0001
,
1000
0000
0100
0000
0001
0000
1001
0000
1000
0000
0010
0001
0000
0010
0100
1000
,
0010
0000
0001
0010
0000
1000
0100
0001
0000
0100
1000
0001
0100
0000
0000
0000
,
0001
0010
0100
0000
0001
0100
0000
1000
0010
0000
0001
1000
0000
0100
1000
0100
,
0010
0011
1001
0011
,
0010
0000
1000
0000
0100
0001
1000
0010
0001
0000
0100
1000
0000
1000
0100
0000
,
1000
0001
0000
0001
0010
0000
1000
0000
0100
0000
0101
0000
0110
0000
0000
0000
,
0001
0010
0100
0000
0010
1000
0010
0100
1000
0000
0010
0001
0000
1000
0100
0000
,
0001
0010
0000
0010
1000
0000
0001
0100
0000
0100
1000
0000
0010
0100
0010
0000
,
1000
0100
0001
0000
1001
0000
1000
0010
0001
0000
0100
1000
0000
0000
2002
0000
,
0000
0000
0000
0000
3003
0220
0000
0000
,
0000
0000
0000
0330
0000
0000
0000
0000
,
0000
0000
0000
0000
;
#NOTES:
     dance-double:
     :
     Easy:
     7:
     :
00000000
00000000
00000000
00000000
,
00000000
00000000
00000000
00000000
,
00000000
00000000
00000000
00000000
,
00000000
00000000
00000000
00000000
,
00000000
00000000
00000000
00000000
,
00000000
00000000
00000000
00000000
,
10000000
00000000
01000000
00000000
,
01100000
00000000
00000000
00000000
,
10000000
01000000
00100000
00000000
,
00001000
00010000
00001000
00000000
,
00011000
00000000
00000000
00000000
,
00001000
00010000
00000100
00000000
,
00010000
00000100
00001000
00000000
,
00001001
00000000
00000110
00000000
,
00000001
00001000
00001001
00000000
,
00000001
00000010
00000100
00000000
,
00000010
00000100
00001000
00000000
,
00000100
00000100
00010000
00010000
,
00001000
00010000
00011000
00000000
,
00001000
00010000
00100000
00000000
,
00010000
00100000
10000000
00000000
,
10010000
00000000
01100000
00000000
,
00010000
10000000
10010000
00000000
,
10000000
00010000
01000000
00000000
,
00010000
10000000
00100000
00000000
,
01100000
00000000
00010000
00000000
,
00022000
00000000
00000000
00033000
,
00001000
00001000
00010000
00000000
,
00000100
00000100
00001000
00000000
,
00000110
00000000
00001001
00000000
,
00000110
00000000
00000000
00000000
,
00000001
00000100
00001000
00000000
,
00001000
00000100
00000001
00000000
,
00000001
00000010
00000100
00010000
,
00001000
00001000
00011000
00000000
,
00010000
00010000
00001000
00000000
,
00100000
00100000
00010000
00000000
,
01100000
00000000
10010000
00000000
,
01100000
00000000
00000000
00000000
,
10000000
00100000
00010000
00000000
,
00010000
00100000
10000000
00000000
,
10000000
01000000
00100000
00001000
,
00010000
00010000
00011000
00000000
,
00002000
00000000
00000000
00003000
,
00000100
00000000
00000110
00000000
,
00000002
00000000
00000000
00000003
,
00000010
00000000
00000110
00000000
,
00020000
00000000
00000000
00030000
,
00010000
00000000
00011000
00000000
,
00200000
00000000
00000000
00000000
,
00300000
00000000
00100000
00100000
,
00100000
00000000
10010000
00000000
,
10000000
01000000
00010000
00000000
,
00001000
00000000
00011000
00000000
,
00001000
00000010
00000001
00000000
,
00002002
00000000
00000000
00000000
,
00003003
00000000
00000000
00000000
,
00000001
00000000
00001000
00000000
,
00000010
00010000
00001000
00000000
,
00002000
00000000
00000000
00003000
,
02000000
00000000
00000000
03000000
,
00020000
00000000
00000000
00030000
,
00200000
00000000
00000000
00300000
,
01000000
10000000
01000000
00000000
,
00100000
00001000
00010000
00000000
,
00001000
00010000
00000010
00000000
,
00000220
00000000
00000000
00000330
,
00000001
00000100
00000010
00001000
,
00000001
00000000
00001001
00000000
,
00001000
00000100
00010000
00001000
,
00010000
00000000
00011000
00000000
,
00001000
01000000
00010000
00100000
,
01000000
00000000
01100000
00000000
,
00010000
00100000
10000000
00000000
,
10000000
00100000
00010000
00000000
,
10000000
00000000
00100000
00000000
01000000
00010000
01000000
00000000
,
00010000
10000000
01000000
00010000
,
00001000
00000000
00000110
00000000
,
00000001
00001000
00001001
00000000
,
00000001
00000000
00000010
00000000
00000100
00001000
00000100
00000000
,
00001000
00000001
00000100
00001000
,
00010000
00000000
00000000
00000000
01100000
00000000
00000000
10000000
,
00000000
00000000
00000000
00000000
00000000
00010000
00000000
00000000
,
00000000
00000000
00000000
00000000
;
#NOTES:
     dance-double:
     :
     Medium:
     12:
     :
00000000
00000000
00000000
00000000
,
00000000
00000000
00000000
00000000
,
00000000
00000000
00000000
00000000
,
00000000
00000000
00000000
00000000
,
00000000
00000000
00000000
00000000
,
00000000
00000000
00000000
00000000
,
00000002
00000000
00000000
00000000
00000003
00000000
00000000
00000000
00000010
00000000
00000000
00000100
00000000
00000000
00002000
00000000
,
00000000
00000000
00000000
00003000
,
00000001
00000100
00001000
00010000
,
00100000
01000000
00100000
00000000
10000000
00010000
10000000
00000000
,
20020000
00000000
00000000
30030000
,
10000000
00000000
01000000
00000000
00100000
00010000
00100000
00000000
,
00001000
00010000
00001000
00000000
00010000
00000100
00001000
00000100
,
00000010
00000011
00000010
00000010
,
00001010
00000010
00000011
00000000
,
00000000
00000001
00001000
00000000
00000010
00000100
00000010
00000000
,
00001000
00000100
00001000
00000010
00001000
00000000
00000000
00000000
,
00000100
00000000
00000000
00000100
00000000
00000000
00000000
00000000
00010000
00000000
00000000
00010000
00000000
00000000
00000000
00000000
,
00000000
00001000
00000000
00000000
00001000
00000000
00000000
00010000
00000000
00000000
00011000
00000000
00000000
00000000
00000000
00000000
,
00011000
00000000
00010000
00001000
01000000
00010000
00100000
00000000
,
00010000
00100000
10000000
00100000
00010000
00000000
00000000
00000000
,
00110000
00100000
10100000
00100000
,
00110000
00100000
01100000
00000000
,
00000000
10000000
00010000
00000000
10000000
00100000
01000000
00000000
,
00100000
00010000
00100000
00010000
00001000
00000000
00000000
00000000
,
00000000
00010000
00000000
00000000
00010000
00000000
00000000
00001000
00000000
00000000
00001000
00000000
00000000
00000010
00000000
00000000
,
00000010
00000000
00000000
00000001
00000000
00000000
00000002
00000000
00000000
00000000
00000000
00000000
00000003
00000000
00000000
00000000
,
00000001
00000100
00000010
00001000
00000001
00000100
00001000
00000100
,
00000001
00000000
00000010
00000100
00001000
00000100
00010000
00000000
,
00001000
00000000
01010000
00000000
00010000
00100000
01000000
10000000
,
00010000
00000000
10100000
00000000
10000000
01000000
00010000
00000000
,
00001000
00100000
00001000
00100000
00001000
00010000
00001000
00000000
,
00010000
00000010
00010000
00000010
00010000
00001000
00010000
00000000
,
00011000
00000100
00000110
00000001
,
00001001
00000000
00000110
00000000
00001000
00000001
00001000
00000000
,
00000001
00000010
00000100
00001000
00000001
00000010
00001000
00000010
,
00000001
00000000
00000100
00000010
00001000
00000010
00010000
00000000
,
00001000
00000000
00110000
00000000
00010000
01000000
00100000
10000000
,
00010000
00000000
11000000
00000000
10000000
00100000
00010000
00000000
,
00001000
01000000
00001000
00100000
00001000
00010000
00001000
00000000
,
00010000
00000100
00010000
00000010
00010000
00001000
00010000
00000000
,
00011000
00000000
00000110
00000000
,
00001000
00000000
00000100
00000000
00000000
00000010
00000000
00000000
00000001
00000000
00000000
00000100
00000000
00000000
00000000
00000000
,
00000110
00000000
00001001
00000000
,
00000001
00000100
00001000
00010000
00100000
00000000
00000000
00000000
,
01100000
00000000
10010000
00000000
,
10000000
01000000
00010000
00001000
00000010
00000000
00000000
00000000
,
00000110
00000000
00001001
00000000
,
00000001
00000010
00001000
00010000
01000000
00000000
00000000
00000000
,
10000000
00000000
00000000
01100000
00000000
00000000
00001000
00000000
,
00000000
00011000
00000000
00000000
00010000
00001000
00010000
00000000
,
00001000
00000000
00000010
00000000
00000001
00001000
00000001
00000000
,
00000010
00000100
00010000
00000000
00001000
00000010
00000000
00000010
,
00000001
00000000
00000100
00000000
00001000
00010000
00001000
00000000
,
00010000
00100000
01000000
00000000
00010000
10000000
00000000
10000000
,
00200000
00000000
00000000
00300000
,
02000000
00000000
00000000
03000000
,
10010000
00000000
01100000
00000000
,
10010000
01100000
10010000
00000000
,
20000000
30000000
02000000
03000000
,
00200000
00000000
00000000
00300000
,
00020000
00030000
00002000
00003000
,
00000200
00000000
00000000
00000300
,
00001000
00000001
00001000
00000000
00000001
00000100
00000001
00000000
,
00001000
00000010
00001000
00000000
00000100
00010000
00000100
00000000
,
00010000
00000000
00001000
00000000
01000000
00000000
00010000
00000000
10000000
00000000
00000000
00010000
00000000
00000000
20020000
00000000
,
00000000
00000000
00000000
30030000
,
10000000
00100000
10000000
00100000
01000000
00010000
00100000
00010000
,
10000000
01000000
00010000
00000000
01000000
00010000
00001000
00000000
,
00010000
00000100
00010000
00000100
00001000
00000010
00000100
00000010
,
00001000
00000001
00000100
00000000
00001000
00000100
00000001
00000000
,
00000001
00000100
00000001
00000100
00000010
00001000
00000100
00001000
,
00000001
00000010
00001000
00000000
00000010
00001000
00010000
00000000
,
00001000
00000000
00100000
00000000
00001000
00000000
00100000
00000000
00010000
00000000
00000000
01000000
00000000
00000000
01100000
00000000
,
00000000
10000000
00100000
00000000
00010000
00100000
10000000
00000000
,
10000000
01000000
00010000
01000000
00010000
01000000
10000000
00100000
,
00010000
00011000
00010100
00001100
,
00000001
00000010
00001000
00000010
00001000
00000010
00000001
00000100
,
00001000
00011000
00101000
00110000
,
00010000
01000000
10000000
00000000
00010000
00100000
10000000
00100000
,
00010000
00000000
00001000
00010000
00001000
00000000
00011000
00000000
,
00010000
00000000
00001000
00000000
00000010
00000000
00000001
00000000
00001000
00000000
00000000
00000100
00000000
00000000
00000220
00000000
,
00000000
00000000
00000000
00000000
00000330
00002002
00000000
00000000
,
00000000
00000000
00000000
00003003
00000000
00000000
00000000
00000000
,
00000000
00000000
00000000
00000000
;
#NOTES:
     dance-double:
     :
     Hard:
     17:
     :
00000000
00000000
00000000
00000000
,
00000000
00000000
00000000
00000000
,
00000000
00000000
00000000
00000000
,
00000000
00000000
00000000
00000000
,
00000000
00000000
00000000
00000000
,
00000000
00000000
00000000
00000000
,
00022000
00000000
00000000
00000000
00033000
00000000
00000000
00000000
01200000
00000000
00000000
01300000
00000000
00000000
20020000
00000000
,
00000000
00000000
00000000
30030000
,
10000000
01000000
00010000
00000000
00001000
00000010
00000001
00000000
,
00001000
00000000
00000001
00000000
00001000
00000000
00000001
00000000
00001000
00000001
00001000
00000001
00001000
00000001
00001000
00000001
,
00002000
00000000
00000000
00003000
,
00001001
00000000
00000000
00000000
00000001
00000000
00000100
00000000
00001000
00010000
00000000
00000100
00001000
00000010
00000100
00000000
,
00000001
00000000
00000010
00000000
00001000
00000000
00010000
00000000
01000000
00000000
10000000
00100000
00010000
00100000
10000000
00000000
,
10010000
00000000
00010000
00100000
00000000
01000000
00010000
00000000
00001000
00000010
00000000
00000100
00001000
00000010
00000000
00000001
,
00000010
00000000
00010000
00001000
00000000
00001000
00010000
01000000
20000000
00000000
00000000
00000000
30000000
00000000
00000000
00000000
,
00000000
00000000
00010000
00000000
10000000
00000000
00100000
00000000
00010000
00001000
00000000
01000000
00010000
00100000
01000000
00000000
,
10000000
00000000
00100000
00000000
00010000
00000000
00001000
00000000
00000100
00000000
00000001
00000010
00001000
00000010
00000001
00000000
,
00001001
00000000
00001000
00000010
00000000
00000100
00001000
00000000
00010000
00000000
00100000
01000000
00000000
00010000
00100000
00000000
,
00000000
10000000
00100000
00000000
00100000
00001000
00000000
00001000
00010000
00000000
00010000
00001000
00000000
00000000
00000000
00000000
,
00011000
00000000
00000000
00000000
00000110
00000000
00000000
00000000
00000001
00000010
00000000
00001000
00000010
00000001
00000010
00000000
,
00000001
00000000
00000100
00000000
00010000
00000000
01000000
00000000
10000000
01000000
00000000
01000000
00010000
00100000
01000000
00000000
,
10000000
00000000
00100000
00010000
00000000
00010000
00001000
00000000
00000010
00000000
00001000
00010000
00000000
00010000
01000000
00000000
,
00010000
00000000
00001000
00000010
00000000
00000001
00001000
00000100
00000020
00000000
00000000
00000000
00000030
00000000
00000000
00000000
,
00000000
00000000
00000001
00000000
00001001
00000000
00000000
00000000
00000001
00001000
00000000
00000100
00010000
00001000
00000010
00000000
,
00000001
00001000
00000100
00000000
00000001
00001000
00000010
00000000
00000001
00000100
00000000
00000100
00001000
00010000
00001000
00000000
,
00010000
00100000
00000000
10000000
01000000
00000000
00010000
00001000
00000000
00000010
00000001
00000000
00000100
00001000
00000000
00010000
,
00100000
00000000
10000000
01000000
00000000
00010000
00002000
00000000
00000000
00000000
00000000
00000000
00003000
00000000
00000000
00000000
,
00010000
00000000
00000010
00000100
00001000
00000000
00000100
00000001
00001000
00000000
00000100
00000000
00000010
00000001
00000100
00000010
,
00001000
00000000
00000100
00000000
00010000
00001000
00000000
00001000
00010000
00000000
00100000
00000000
01000000
10000000
01000000
00100000
,
01000000
00000000
00010000
00000000
10000000
00000000
01000000
00000000
00010000
00001000
00010000
00000000
00100000
01000000
00100000
01000000
,
00000000
00000000
01100000
00000000
00000000
00000000
10010000
00000000
00000000
00000000
00010000
00000000
01000000
10000000
01000000
10000000
,
01000000
00000000
00010000
00000000
00100000
00000000
00010000
00000000
01000000
00000000
10000000
00000000
00010000
00100000
00000000
00100000
,
10000000
00000000
01000000
00000000
00010000
00000000
00001000
00000000
00100000
00000000
01000000
00000000
00010000
00000100
00000000
00000100
,
00000010
00001100
00000010
00000101
,
00000001
00000000
00000010
00001000
00010000
00000000
00001000
00010000
01000000
00000000
00010000
01000000
10000000
00000000
00000000
00000000
,
00010000
00000000
00100000
00000000
01000000
00000000
00010000
00000000
00001000
00000000
00000010
00000000
00000100
00001000
00000000
00000010
,
00001000
00000000
00000100
00000000
00000010
00001000
00000000
00010000
01000000
00000000
00100000
00000000
00010000
01000000
00010000
01000000
,
00100000
00000000
00010000
00000000
00001000
00000000
00010000
00000000
00100000
00000000
01000000
00000000
00010000
00100000
00001000
00010000
,
00000100
00000000
00000010
00000000
00001000
00000000
00000010
00000000
00000100
00000000
00010000
00000000
00001000
00010000
00001000
00010000
,
00001000
00000000
00010000
00000000
01000000
00000000
00100000
00000000
00001000
00000000
00010000
00000000
00100000
01000000
00010000
00100000
,
01000000
00000000
10000000
00000000
00100000
00000000
00010000
00000000
00001000
00000000
00000010
00000000
00000001
00001000
00000001
00000000
,
00001000
00000100
00000010
00000001
00000000
00000100
00000010
00000000
00001000
00000100
00010000
00001000
00000000
00100000
00010000
00000000
,
01000000
00010000
00100000
01000000
10000000
00100000
01000000
00010000
00100000
01000000
00010000
00001000
00000000
00000000
00000000
00000000
,
00020000
00230000
20300000
00000000
,
30100000
01000000
00100000
00000000
00010000
00001000
00010000
00000000
00001000
00000000
00000010
00000000
00000000
00000000
00000010
00000000
,
00000002
00000203
00002300
00000000
,
00013000
00000000
00100000
01000000
00100000
00000000
00010000
00001000
00010000
00000000
01000000
00000000
00000000
00000000
01000000
00000000
,
20000000
30020000
02030000
00000000
,
03001000
00000000
00010000
00000100
00010000
00000000
00000100
00000010
00000100
00000000
00000001
00000000
00001000
00000000
00000010
00000000
,
00000001
00000000
00000000
00000001
00000100
00000000
00001000
00000000
00000000
00001000
00010000
00000000
00100000
00000000
00000000
00100000
,
10000000
00000000
01000000
00000000
00000000
01000000
00010000
00000000
00001000
00000010
00000001
00000000
00001000
00000001
00000000
00000001
,
00001000
00000000
00000010
00000000
00000100
00000001
00000010
00000000
00000100
00000000
00010000
00000000
00001000
01000000
00010000
00000000
,
00100000
00000000
01000000
00000000
00010000
00001000
00100000
00000000
00010000
00100000
10000000
00000000
00100000
00001000
00000000
00001000
,
00010000
00000000
00000010
00000000
00000100
00001000
00010000
00000000
00001000
00000000
00000100
00000000
00000001
00000010
00001000
00000000
,
00010000
00000000
01000000
00000000
00100000
00010000
01000000
00000000
10000000
01000000
00010000
00000000
01000000
00001000
00000000
00001000
,
00020000
00000000
00000000
00000000
,
00002000
00000000
00000000
00033000
,
00002020
00003030
00000022
00000033
,
00000001
00001000
00001001
00000000
,
00000000
00000000
00000001
00000000
00000000
00000001
00000000
00000000
00000100
00000000
00000000
00000100
00000000
00000000
00000110
00000000
,
00000000
00000000
00000010
00000000
00000000
00000010
00000000
00000000
00010000
00000000
00000000
00010000
00000000
00000000
00011000
00000000
,
00000000
00000000
00001000
00000000
00000000
00001000
00000000
00000000
00100000
00000000
00000000
00100000
00000000
00000000
00110000
00000000
,
00000000
00000000
00010000
00000000
00000000
00010000
00000000
00000000
10000000
00000000
00000000
10000000
00000000
00000000
10010000
00000000
,
10000000
01000000
10000000
01000000
00100000
00010000
00100000
00010000
,
00001000
00000100
00001000
00000100
00000010
00000001
00000010
00000001
,
00000100
00000010
00000100
00000000
00000010
00000100
00001000
00010000
00001000
00000000
00000000
00010000
00000000
00000000
00022000
00000000
,
00000000
00000000
00000000
00033000
,
00001000
00000000
00010000
00000000
00100000
10000000
00010000
01000000
10000000
00000000
01000000
00001000
00000000
00001000
00010000
00000000
,
00000100
00000010
00000000
00000011
00000000
00000000
00001001
00000000
00001000
00000001
00000010
00000000
00000001
00001000
00000010
00000100
,
00000001
00000000
00000100
00000010
00000001
00000000
00000010
00000100
00000001
00000000
00000010
00001000
00000000
00010000
01000000
10000000
,
00010000
00000000
00100000
00010000
00000000
00010000
01000000
00000000
01100000
00000000
00100000
10000000
01000000
00000000
00000000
00000000
,
00100000
00000000
00001000
00000000
00000010
00000001
00001000
00000100
00000001
00000000
00000100
00010000
00000000
00010000
00001000
00000000
,
01000000
00100000
00000000
10100000
00000000
00000000
10010000
00000000
00010000
10000000
00100000
00000000
10000000
00010000
00100000
01000000
,
10000000
00000000
01000000
00100000
10000000
00000000
00100000
01000000
10000000
00000000
00100000
00010000
00000000
00001000
00000100
00000001
,
00001000
00000000
00000010
00001000
00000000
00001000
00000100
00000000
00000110
00000000
00000010
00000001
00000100
00000000
00000000
00000000
,
00000001
00000010
00001000
00000000
00010000
00001000
00100000
00001000
00010000
00000000
00100000
10000000
00000000
01000000
00010000
00000000
,
00011000
00101000
01001000
00011000
,
00010000
00000000
00001000
00000000
00000010
00000001
00001000
00000100
00000001
00000000
00000100
00000010
00000000
00000100
00001000
00000000
,
00000001
00000100
00000000
00000100
00001000
00000000
00001000
00010000
00000000
00010000
00100000
00000000
00100000
10000000
01000000
00100000
,
00010000
00000000
10000000
00000000
01000000
00100000
00001000
00010000
00001000
00000000
01000000
00100000
00000000
00010000
00001000
00000000
,
00000010
00000100
00000000
00000100
00000001
00000000
00000001
00000100
00000000
00000100
00010000
00000000
00001000
00010000
00001000
00000000
,
00010000
00100000
10000000
01000000
00010000
00000000
00001000
00000010
00000001
00000000
00000100
00001000
00000000
00000000
00020000
00000000
,
00000000
00000000
00000000
00000000
00000000
00002000
00000000
00000000
,
00000000
00000000
00000000
00033000
00000000
00000000
00000000
00000000
,
00000000
00000000
00000000
00000000
;
