
//----- song ID: cufo -----//
#TITLE:CANDY (UFO mix);
#ARTIST:The Sweetest;
#BANNER:CANDY (UFO mix).png;
#BACKGROUND:CANDY (UFO mix)-bg.png;
#CDTITLE:./CDTitles/DDR HOTTEST PARTY.png;
#MUSIC:CANDY (UFO mix).ogg;
#SAMPLESTART:37.334;
#SAMPLELENGTH:15;
#BPMS:0=180;
#STAGE:5;
#NOTES:
     dance-single:
     :
     Beginner:
     2:
     :
0000
0000
0000
0000
,
0000
0000
0000
0000
,
0000
0000
0000
0000
,
0000
0000
0000
0000
,
0000
0000
0000
0000
,
0000
0000
0000
0000
,
0001
0000
0100
0000
,
0001
0000
0010
0000
,
0100
0000
0000
0000
,
1000
0000
0000
0000
,
1001
0000
0000
0000
,
0000
0000
0000
0000
,
2000
0000
0000
0000
,
3000
0000
0000
0000
,
0200
0000
0000
0000
,
0300
0000
0000
0000
,
0020
0000
0000
0000
,
0030
0000
0000
0000
,
0002
0000
0000
0000
,
0003
0000
0000
0000
,
0001
0000
0100
0000
,
0010
0000
0100
0000
,
0001
0000
0001
0000
,
0010
0000
0000
0000
,
0100
0000
0010
0000
,
0100
0000
0010
0000
,
1000
0000
0000
0000
,
0000
0000
0000
0000
,
1000
0000
0100
0000
,
0010
0000
0100
0000
,
1000
0000
0010
0000
,
0100
0000
0000
0000
,
1001
0000
0000
0000
,
0000
0000
0000
0000
,
1001
0000
0000
0000
,
0000
0000
0000
0000
,
0001
0000
0010
0000
,
0100
0000
0010
0000
,
0001
0000
0100
0000
,
0010
0000
0000
0000
,
1001
0000
0000
0000
,
0000
0000
0000
0000
,
1001
0000
0000
0000
,
0000
0000
0000
0000
,
0020
0000
0000
0000
,
0030
0000
0000
0000
,
0200
0000
0000
0000
,
0300
0000
0000
0000
,
1000
0000
1000
0000
,
0100
0000
0000
0000
,
1000
0000
1000
0000
,
0010
0000
0000
0000
,
1000
0000
0100
0000
,
1000
0000
0100
0000
,
0010
0000
0010
0000
,
0010
0000
0000
0000
,
1001
0000
0000
0000
,
0000
0000
0000
0000
,
1001
0000
0000
0000
,
0000
0000
0000
0000
,
0001
0000
0010
0000
,
0001
0000
0010
0000
,
0100
0000
0100
0000
,
0100
0000
0000
0000
,
1001
0000
0000
0000
,
0000
0000
0000
0000
,
1001
0000
0000
0000
,
0000
0000
0000
0000
,
0002
0000
0000
0000
,
0003
0000
0000
0000
,
0200
0000
0000
0000
,
0300
0000
0000
0000
,
2000
0000
0000
0000
,
3000
0000
0000
0000
,
0020
0000
0000
0000
,
0030
0000
0000
0000
,
1001
0000
0000
0000
,
0000
0000
0000
0000
;
#NOTES:
     dance-single:
     :
     Easy:
     6:
     :
0000
0000
0000
0000
,
0000
0000
0000
0000
,
0000
0000
0000
0000
,
0000
0000
0000
0000
,
0000
0000
0000
0000
,
0000
0000
0000
0000
,
1000
1000
1000
0000
,
0001
0001
0001
0000
,
0010
0000
0000
0010
0000
0000
0100
0000
,
0000
0100
0000
0000
1001
0000
0000
0000
,
2000
0000
0000
3000
,
0002
0000
0000
0003
,
1001
0000
0001
0100
,
0010
0100
0010
0000
,
1001
0000
1000
0100
,
0010
0100
0010
0000
,
1001
0000
0001
0010
,
1000
0010
0001
0000
,
1001
0000
1000
0010
,
0001
0010
1000
0000
,
0001
0100
0001
0100
,
0010
1000
0010
1010
,
1000
0100
1000
0100
,
0010
0001
0010
0011
,
0001
0100
0001
0010
,
0001
0100
0010
0010
,
1000
0100
0010
0001
,
2002
0000
0000
3003
,
1000
0100
1100
0000
,
0001
0100
0101
0000
,
1000
0100
1000
0001
,
0100
0001
1001
0000
,
0020
0030
0020
0000
,
0030
0010
0010
0010
,
0100
0010
0100
0110
,
1000
0001
1001
0000
,
0001
0010
0011
0000
,
1000
0010
1010
0000
,
0001
0010
0001
1000
,
0010
1000
1001
0000
,
0200
0300
0200
0000
,
0300
0100
0100
0100
,
0010
0100
0010
0110
,
0001
1000
1001
0000
,
1000
0000
1000
0000
,
0001
0000
0001
0000
,
0010
0000
0010
0000
,
0100
0000
0100
0000
,
1000
0010
1000
0010
,
0100
0001
0100
0000
,
0001
0010
0001
0010
,
0100
1000
0100
0000
,
1000
0100
0010
0001
,
0100
0001
0110
0000
,
0001
0010
0100
1000
,
0010
1000
0110
0000
,
2000
3000
2000
0000
,
3000
1000
0001
1000
,
0001
0001
0110
0000
,
0100
0100
1001
0000
,
0001
0100
0010
1000
,
0100
1000
0110
0000
,
1000
0010
0100
0001
,
0010
0001
0110
0000
,
0002
0003
0002
0000
,
0003
0001
1000
0001
,
1000
1000
0110
0000
,
0100
0100
1001
0000
,
0002
0000
0000
0003
,
0020
0000
0000
0030
,
0200
0000
0000
0300
,
2000
0000
0000
3000
,
0002
0000
2000
0000
,
3003
1000
0001
1000
,
0001
0010
0100
0000
,
1000
0010
0100
0000
,
2002
0000
0000
0000
,
3003
0000
0000
0000
,
0000
0000
0000
0000
;
#NOTES:
     dance-single:
     :
     Medium:
     10:
     :
0000
0000
0000
0000
,
0000
0000
0000
0000
,
0000
0000
0000
0000
,
0000
0000
0000
0000
,
0000
0000
0000
0000
,
0000
0000
0000
0000
,
1000
0100
0010
0000
0001
1000
0001
1000
,
0000
1000
0010
0100
0010
1000
0001
0000
,
0011
0000
0000
1010
0000
0000
0101
0000
,
0000
1100
0000
1000
0100
0010
0001
0000
,
2000
0000
0000
0010
0000
0000
3010
0000
,
0002
0000
0000
0010
0000
0000
0013
0000
,
1001
0000
0000
0000
1000
0100
0000
1000
,
0100
0000
0010
0001
0000
0010
0001
0000
,
1001
0000
0000
0000
0001
0100
0000
0001
,
0100
0000
0010
1000
0000
0010
1000
0000
,
1001
0000
0000
0000
1000
0001
0000
1000
,
0001
0000
0100
0010
0000
0100
0010
0000
,
0110
0000
0000
0000
0001
1000
0000
0001
,
1000
0000
0010
0100
0000
0010
0100
0000
,
0110
1000
0010
1000
,
0100
0000
0010
0001
0000
0001
0010
0000
,
0011
1000
0001
1000
,
0010
0000
0100
0001
0000
0001
1000
0000
,
0002
0100
1000
0100
,
0023
0100
0001
0130
,
0001
0000
0100
0010
0000
1000
0010
0000
,
2002
0000
0000
3003
,
1100
0000
0101
0000
1100
0000
1000
0100
,
0000
0010
0001
0000
1001
0000
0000
0000
,
0101
0000
1100
0000
0101
0000
0001
0100
,
0000
0010
1000
0000
1001
0000
0000
0000
,
2000
0000
0000
0001
0002
0000
0000
0000
,
3003
1000
0100
0010
,
0001
0100
0001
0000
0010
0100
0010
0001
,
0000
1000
0100
0000
0110
0000
1001
0000
,
0011
0000
1010
0000
0011
0000
0001
0010
,
0000
0100
1000
0000
1001
0000
0000
0000
,
1010
0000
0011
0000
1010
0000
1000
0010
,
0000
0100
0001
0000
1001
0000
0000
0000
,
0002
0000
0000
1000
2000
0000
0000
0000
,
3003
0001
0010
0100
,
1000
0010
1000
0000
0100
0010
0100
1000
,
0000
0001
0010
0000
0100
0000
1000
0000
,
0001
0000
1000
0010
0000
0000
0100
0001
,
0000
0000
1000
0100
0000
0000
0010
0001
,
0000
0000
1000
0001
0000
0000
0100
0010
,
0000
0000
0001
1000
0000
1000
0001
0000
,
1000
0010
0100
0001
,
0010
0100
1000
0010
,
1000
0100
0000
1000
0100
0000
0001
0100
,
0000
0001
0000
0100
1000
0001
1000
0000
,
0001
0000
0010
0000
0100
0000
1000
0010
,
0000
1000
0100
0000
1001
0000
0000
0000
,
0001
0000
0100
0000
0010
0000
1000
0100
,
0000
0010
0100
0000
1001
0000
0000
0000
,
2000
0000
0000
0001
0002
0000
0000
0000
,
0003
0010
0010
3010
,
1000
0010
0100
0000
0001
0010
0001
0100
,
0000
0001
0010
0100
1000
0000
1001
0000
,
1000
0000
0100
0000
0010
0000
0001
0100
,
0000
0001
0010
0000
1001
0000
0000
0000
,
1000
0000
0010
0000
0100
0000
0001
0010
,
0000
0100
0010
0000
1001
0000
0000
0000
,
0002
0000
0000
1000
2000
0000
0000
0000
,
3000
0100
0100
0103
,
0001
0100
0010
0000
1000
0100
1000
0010
,
0000
1000
0100
0010
0001
0000
1001
0000
,
1000
0000
0100
0000
0001
0000
0100
1000
,
0000
1000
0100
0000
1001
0000
0000
0000
,
0001
0000
0100
0000
1000
0000
0100
0001
,
0000
0001
0100
0000
1001
0000
0000
0000
,
0020
0000
0000
0100
0200
0000
0000
0000
,
0330
0100
0010
0110
,
0001
0100
0010
0000
1000
0100
0010
0001
,
0000
1000
0010
0100
0001
0000
1000
0000
,
2002
0000
0000
0000
,
3003
0000
0000
0000
,
0000
0000
0000
0000
;
#NOTES:
     dance-single:
     :
     Hard:
     15:
     :
0000
0000
0000
0000
,
0000
0000
0000
0000
,
0000
0000
0000
0000
,
0000
0000
0000
0000
,
0000
0000
0000
0000
,
0000
0000
0000
0000
,
1001
1000
0010
0100
0001
0010
0001
1001
,
0000
1001
0001
0010
1000
0010
0001
0000
,
1000
0100
0100
0010
0100
0100
0001
0100
,
0100
0010
0001
1000
0100
0010
0001
0000
,
1000
0010
0010
1000
0010
0010
1010
0000
,
0001
0100
0100
0001
0100
0100
0101
0000
,
2000
0000
3010
0100
0001
0100
0000
0010
,
1000
0000
0100
0001
0000
1000
0010
0000
,
0002
0000
0013
0100
1000
0100
0000
0010
,
0001
0000
0100
1000
0000
0001
0010
0000
,
2000
0000
3100
0001
0100
1000
0000
0001
,
0010
0000
1000
0010
0000
0001
1000
0000
,
0002
0000
0103
1000
0100
0001
0000
1000
,
0010
0000
0001
0010
0000
1000
0001
0000
,
1000
0000
0100
0000
0010
0000
0001
0000
0100
0000
0010
0100
0010
0000
0100
0000
,
0001
0010
0100
0010
0100
1000
0001
1000
,
0001
0000
0010
0000
0100
0000
1000
0000
0010
0000
0100
0010
0100
0000
0010
0000
,
1000
0100
0010
0100
0010
0001
1000
0001
,
1000
0010
0001
0001
0010
1000
1000
0001
,
0100
0010
1000
0100
0010
0100
1000
0010
,
0100
0001
0010
0001
0000
1000
0000
0010
,
2002
0000
0000
3003
,
1010
0100
0001
0100
0101
0000
0001
0011
,
0000
0000
0010
0000
0001
0000
0100
0000
0010
0000
1000
0001
1000
0000
0000
0000
,
0101
0001
0101
0000
1100
0000
1000
1010
,
0000
0000
0010
0000
1000
0000
0100
0000
0010
0000
0001
1000
0001
0000
0000
0000
,
1000
0100
0010
0001
1000
0001
0010
0100
,
1000
0000
0010
0100
0010
0000
0100
0010
0100
0000
0001
1000
0001
0000
0000
0000
,
0101
0100
1100
0000
0011
0000
0010
1010
,
0000
0000
1000
0000
0100
0000
0010
0000
0001
1000
0001
1000
0001
0000
0000
0000
,
0101
0010
1000
0010
1010
0000
1000
1100
,
0000
0000
0100
0000
1000
0000
0010
0000
0100
0000
0001
1000
0001
0000
0000
0000
,
1010
1000
1010
0000
0011
0000
0001
0101
,
0000
0000
0100
0000
0001
0000
0010
0000
0100
0000
1000
0001
1000
0000
0000
0000
,
0001
0010
0100
1000
0001
1000
0100
0010
,
0001
0000
0100
0010
0100
0000
0010
0100
0010
0000
1000
0001
1000
0000
0000
0000
,
1010
0010
0011
0000
1100
0000
0100
0101
,
0000
0000
0001
0000
0010
0000
0100
0000
1000
0001
1000
0001
1000
0000
0000
0000
,
0002
0000
0103
1000
0002
0000
0013
1000
,
0002
0000
0103
1000
0001
0010
1000
0000
,
2000
0000
3100
0001
2000
0000
3010
0001
,
2000
0000
3100
0001
1000
0010
0001
0000
,
1000
0010
0100
0001
1000
1000
0010
0010
,
1000
0100
0010
0001
0100
0010
0110
0000
,
1010
0001
0010
0011
1000
0010
1100
0001
,
0100
0101
1000
0100
0010
0110
0110
0000
,
0011
1000
1010
0001
0011
1000
0100
0010
,
0002
0000
0100
0000
0203
0000
0010
0000
0310
0000
1000
0001
1000
0000
0000
0000
,
1010
0100
1100
0010
0011
0100
0101
1001
,
0000
0000
1000
0000
0010
0000
0001
0000
0010
1000
0010
1000
0010
0000
0000
0000
,
1000
0200
0001
0301
0100
2000
0001
3001
,
0100
2000
0100
3100
0001
0020
1000
1030
,
0010
0001
0100
0010
1000
0100
0010
0011
,
0000
0000
0001
1000
0100
0000
1000
0100
0010
0000
0100
0000
1001
0000
0000
0000
,
1100
0001
0101
1000
1100
0001
0010
0100
,
2000
0000
0010
0000
3020
0000
0100
0000
0130
0000
0001
1000
0001
0000
0000
0000
,
0101
0010
0011
0100
1100
0010
1010
1001
,
0000
0000
0001
0000
0100
0000
1000
0000
0100
0001
0100
0001
0100
0000
0000
0000
,
0001
0020
1000
1030
0010
0002
1000
1003
,
0010
0002
0010
0013
1000
0200
0001
0301
,
0100
1000
0010
0100
0001
0010
0100
1100
,
0000
0000
1000
0001
0010
0000
0001
0010
0100
0000
0010
0000
0100
0000
0100
0000
,
2000
0000
0000
3000
,
0002
0000
0000
0003
,
1000
0100
0010
0000
0001
0100
0001
1000
,
0000
0010
0100
0001
1000
0000
1001
0000
,
0002
0000
0000
1000
2000
0000
0000
0000
,
3003
0001
0100
0010
,
1000
0100
0010
0000
0001
0100
0001
0010
,
0000
0010
0100
1000
0001
0100
0010
0000
,
2002
0000
0000
0000
,
3003
0000
0000
0000
,
0000
0000
0000
0000
;
#NOTES:
     dance-double:
     :
     Easy:
     6:
     :
00000000
00000000
00000000
00000000
,
00000000
00000000
00000000
00000000
,
00000000
00000000
00000000
00000000
,
00000000
00000000
00000000
00000000
,
00000000
00000000
00000000
00000000
,
00000000
00000000
00000000
00000000
,
10000000
10000000
10000000
00000000
,
00010000
00010000
00010000
00000000
,
00100000
00000000
00000000
00001000
00000000
00000000
00010000
00000000
,
00000000
00001000
00000000
00000000
00011000
00000000
00000000
00000000
,
00020000
00000000
00000000
00030000
,
00002000
00000000
00000000
00003000
,
00011000
00000000
00001000
00010000
,
00000100
00001000
00000100
00000000
,
00000110
00000000
00000001
00001000
,
00000001
00000100
00000001
00000000
,
00000110
00000000
00000001
00001000
,
00000100
00010000
00001000
00000000
,
00011000
00000000
00010000
00001000
,
00100000
00010000
01000000
00000000
,
00010000
10000000
00010000
10000000
,
01000000
00100000
00010000
00100000
,
00001000
00010000
00001000
00010000
,
00001000
00000010
00000100
00000010
,
00000001
00000001
00000101
00000000
,
00001000
00001000
00001100
00000000
,
00000100
00010000
00001000
00010000
,
00022000
00000000
00000000
00033000
,
00001000
01000000
01100000
00100000
,
10000000
00010000
10010000
00000000
,
10000000
01000000
00010000
00001000
,
00010000
00010000
00011000
00000000
,
00002000
00003000
00002000
00000000
,
00003000
00010000
00010000
00010000
,
00001000
00000010
00000100
00010000
,
00001000
00001000
00011000
00000000
,
00010000
00000100
00000110
00000010
,
00000001
00001000
00001001
00000000
,
00000001
00000100
00001000
00010000
,
00001000
00001000
00011000
00000000
,
00020000
00030000
00020000
00000000
,
00030000
00001000
00001000
00001000
,
00010000
00100000
01000000
00001000
,
00010000
00010000
00011000
00000000
,
00001000
00000010
00000001
00000000
,
00000001
00001000
00000001
00000000
,
00000001
00000100
00001000
00000000
,
00010000
00001000
00010000
00000000
,
00001000
01000000
00001000
01000000
,
00010000
00100000
00010000
00000000
,
10000000
01000000
10000000
01000000
,
00100000
00010000
00100000
00000000
,
00010000
01000000
00001000
00010000
,
00001000
00001000
00001000
00000000
,
00010000
00001000
00000010
00000001
,
00001000
00001000
00001000
00000000
,
00000002
00000003
00000002
00000000
,
00000003
00000001
00000100
00000001
,
00000010
00000100
00001000
00000010
,
00010000
00001000
00011000
00000000
,
00010000
00001000
00100000
00010000
,
01000000
01000000
01000000
00000000
,
00010000
00100000
01000000
10000000
,
00010000
00010000
00010000
00000000
,
00200000
00300000
00200000
00000000
,
00300000
00100000
00001000
00010000
,
00001000
00010000
00000010
00001000
,
00000001
00000100
00000010
00001000
,
00000002
00000000
00000000
00000003
,
00000200
00000000
00000000
00000300
,
00000020
00000000
00000000
00000030
,
00020000
00000000
00000000
00030000
,
00002000
00003000
00002000
00000000
,
00003000
00001000
00010000
00001000
,
01000000
00010000
00100000
00010000
,
10000000
01000000
00100000
00000000
,
02200000
00000000
00000000
00000000
,
03300000
00000000
00000000
00000000
,
00000000
00000000
00000000
00000000
;
#NOTES:
     dance-double:
     :
     Medium:
     11:
     :
00000000
00000000
00000000
00000000
,
00000000
00000000
00000000
00000000
,
00000000
00000000
00000000
00000000
,
00000000
00000000
00000000
00000000
,
00000000
00000000
00000000
00000000
,
00000000
00000000
00000000
00000000
,
10000000
01000000
00100000
00000000
00001000
00010000
00001000
00010000
,
00000000
00011000
00000000
00010000
00001000
00000010
00000001
00000000
,
00000011
00000000
00000000
00001100
00000000
00000000
00010100
00000000
,
00000000
00011000
00000000
00010000
00001000
00010000
00001000
00000000
,
00200000
00000000
00000000
00010000
00000000
00000000
00310000
00000000
,
00020000
00000000
00000000
01000000
00000000
00000000
01030000
00000000
,
10010000
00000000
00000000
00000000
10000000
00100000
00000000
10000000
,
00100000
00000000
01000000
00010000
00000000
01000000
00001000
00000000
,
00011000
00000000
00000000
00000000
00010000
00000100
00000000
00010000
,
00000100
00000000
00001000
00000100
00000000
00000010
00000001
00000000
,
00001001
00000000
00000000
00000000
00000001
00000100
00000000
00000001
,
00000100
00000000
00000010
00001000
00000000
00000010
00010000
00000000
,
00011000
00000000
00000000
00000000
00001000
01000000
00000000
00010000
,
01000000
00000000
00100000
10000000
00000000
00100000
10000000
00000000
,
00010000
01000000
00100000
00000000
10000000
01000000
00100000
00000000
,
00001000
00000000
00010000
00000010
00000000
00000010
00001000
00000000
,
00000001
00000100
00000010
00000000
00001000
00000100
00000010
00000000
,
00000001
00000000
00001000
00000100
00000000
00000100
00010000
00000000
,
00002000
00100000
01000000
00100000
,
00023000
00000010
00000100
00000010
,
00031000
00000000
00000000
00010000
00000000
00000000
00001000
00000000
,
00022000
00000000
00000000
00033000
,
00011000
00000000
00110000
00000000
10100000
00000000
10000000
01000000
,
00000000
00100000
00010000
00000000
10010000
00000000
00000000
00000000
,
10000000
01000000
00010000
00000000
00001000
00010000
00001000
00000010
,
00000000
00000001
00001000
00000000
00001001
00000000
00000000
00000000
,
00000002
00000010
00002003
00000010
,
00013000
00000000
01000000
00100000
10000000
00000000
00010000
00000000
,
10000000
01000000
10000000
00000000
01000000
00100000
00010000
00100000
,
00000000
00100000
00001000
00000000
00010000
00000000
00001000
00000000
,
00011000
00000000
00001010
00000000
00000011
00000000
00000001
00000100
,
00000000
00000010
00001000
00000000
00001001
00000000
00000000
00000000
,
00000001
00000100
00001000
00000000
00010000
00001000
00010000
00100000
,
00000000
10000000
00010000
00000000
10010000
00000000
00000000
00000000
,
20000000
00100000
30020000
00100000
,
00031000
00000000
00000100
00000010
00000001
00000000
00001000
00000000
,
00000001
00000100
00000001
00000000
00000100
00000010
00001000
00000010
,
00000000
00000010
00010000
00000000
00001000
00000000
00010000
00000000
,
00011000
00000000
00001000
01000000
00000000
00000000
00100000
10000000
,
00000000
00000000
01000000
00010000
00000000
00000000
00001000
00000010
,
00000000
00000000
00000001
00001000
00000000
00000000
00000100
00010000
,
00000000
00000000
00001000
01000000
00000000
01000000
00100000
00000000
,
10000000
01000000
00100000
00010000
,
00001000
00000100
00000010
00000001
,
00001000
00000100
00000000
00001000
00000010
00000000
00000100
00001000
,
00000000
00010000
00000000
00001000
00010000
00001000
00010000
00000000
,
00011000
00000000
01010000
00000000
11000000
00000000
10000000
00100000
,
00000000
01000000
00010000
00000000
10010000
00000000
00000000
00000000
,
10000000
00100000
00010000
00000000
00001000
00010000
00001000
00000100
,
00000000
00000001
00001000
00000000
00001001
00000000
00000000
00000000
,
00000001
00000100
00000010
00000000
00001000
00000100
00000010
00001000
,
00010000
00000000
01000000
00100000
00010000
10000000
00010000
00000000
,
10000000
00100000
10000000
00000000
00100000
01000000
00010000
01000000
,
00000000
01000000
00001000
00000000
00010000
00000000
00001000
00000000
,
00011000
00000000
00001100
00000000
00000101
00000000
00000001
00000010
,
00000000
00000100
00001000
00000000
00001001
00000000
00000000
00000000
,
00000001
00000010
00001000
00000000
00010000
00001000
00010000
01000000
,
00000000
10000000
00010000
00000000
10010000
00000000
00000000
00000000
,
10000000
01000000
00100000
00000000
00010000
01000000
00100000
00010000
,
00001000
00000000
00000100
00000010
00001000
00000001
00001000
00000000
,
00000001
00000010
00000001
00000000
00000010
00000100
00001000
00000100
,
00000000
00000100
00010000
00000000
00001000
00000000
00010000
00000000
,
00001000
00000000
00000010
00000000
00001000
00000000
00010000
00100000
,
00000000
00100000
00010000
00000000
00011000
00000000
00000000
00000000
,
00010000
01000000
00010000
00000000
00001000
00010000
00001000
00000100
,
00000000
00000100
00001000
00000000
00011000
00000000
00000000
00000000
,
00002000
00000010
00023000
00100000
,
00031000
00010000
00001000
00000010
,
00000001
00000100
00000010
00000000
00010000
00001000
00010000
00001000
,
00000000
01000000
00010000
00100000
01000000
00000000
10000000
00000000
,
20020000
00000000
00000000
00000000
,
30030000
00000000
00000000
00000000
,
00000000
00000000
00000000
00000000
;
#NOTES:
     dance-double:
     :
     Hard:
     15:
     :
00000000
00000000
00000000
00000000
,
00000000
00000000
00000000
00000000
,
00000000
00000000
00000000
00000000
,
00000000
00000000
00000000
00000000
,
00000000
00000000
00000000
00000000
,
00000000
00000000
00000000
00000000
,
00011000
00001000
00010000
00000010
00001000
00000100
00000010
00000001
,
00000000
00001001
00000001
00000100
00001000
00000100
00001000
00000000
,
00010000
00001000
00001000
01000000
00010000
00010000
00100000
01000000
,
01000000
10000000
00100000
00100000
10000000
01000000
00100000
00000000
,
00010000
10000000
10000000
01000000
00100000
00100000
00001000
00010000
,
00000100
00001000
00001000
00000010
00000100
00000100
00000001
00000001
,
00002000
00000000
00003001
00000010
00000001
00000100
00000000
00000010
,
00001000
00000000
00000010
00010000
00000000
00001000
00010000
00001000
,
00020000
00000000
00130000
01000000
00010000
01000000
00000000
00100000
,
10000000
00000000
01000000
10000000
00000000
01000000
00100000
00010000
,
00200000
00000000
00301000
00010000
00001000
00000010
00000000
00000001
,
00000010
00000000
00000001
00001000
00000000
00000001
00000100
00000010
,
00002000
00000000
00003100
00010000
00001000
00010000
00000000
00001000
,
01000000
00000000
00010000
00100000
00000000
00010000
10000000
00000000
,
10010000
00000000
00000000
00000000
10000000
00000000
01000000
00000000
00100000
00000000
00001000
00010000
00001000
00000000
00010000
00000000
,
00000010
00001000
00000100
00000010
00000001
00000100
00000010
00000000
,
00001001
00000000
00000000
00000000
00000001
00000000
00000100
00000000
00000010
00000000
00010000
00001000
00010000
00000000
00001000
00000000
,
00100000
00010000
01000000
00100000
10000000
01000000
00100000
00000000
,
00010000
01000000
00100000
00100000
10000000
01000000
00100000
00100000
,
00001000
00010000
00000100
00000100
00001000
00000010
00000100
00000100
,
00000001
00000010
00001000
00000010
00000000
00000001
00000000
00001000
,
00002002
00000000
00000000
00003003
,
00001001
00000001
00000100
00001000
00011000
00000000
00010000
00011000
,
00000000
00000000
00001000
00000000
00010000
00000000
01000000
00000000
10000000
00000000
00010000
10000000
00010000
00000000
00000000
00000000
,
11000000
01000000
01100000
00000000
00101000
00001000
00010000
00001000
,
00000000
00000000
00001000
00000000
00010000
00000000
00000100
00000000
00001000
00000000
00000010
00000100
00000010
00000000
00000000
00000000
,
00001000
00000100
00000001
00000100
00001000
00000010
00000001
00000010
,
00001000
00000001
00000010
00001000
00010000
01000000
10000000
00000000
,
00110000
00010000
01010000
00000000
10100000
10000000
01000000
00100000
,
00000000
00000000
00001000
00000000
00010000
00000000
00100000
00000000
01000000
00000000
00010000
10000000
00010000
00000000
00000000
00000000
,
10010000
10000000
01000000
00010000
00011000
00000000
00001000
00011000
,
00000000
00000000
00010000
00000000
00001000
00000000
00000100
00000000
00000001
00000000
00001000
00000001
00001000
00000000
00000000
00000000
,
00000101
00000100
00000110
00000000
00010010
00010000
00001000
00010000
,
00000000
00000000
00010000
00000000
00001000
00000000
01000000
00000000
00010000
00000000
00100000
01000000
00100000
00000000
00000000
00000000
,
00010000
01000000
10000000
01000000
00010000
00100000
10000000
00100000
,
00010000
10000000
00100000
00010000
00001000
00000100
00000001
00000000
,
00001010
00001000
00001100
00000000
00000011
00000001
00000100
00000010
,
00000000
00000000
00010000
00000000
00001000
00000000
00000010
00000000
00000100
00000000
00001000
00000001
00001000
00000000
00000000
00000000
,
00000002
00000000
00000103
00001000
00020000
00000000
00031000
00000010
,
00002000
00000000
00013000
00100000
10000000
00010000
10010000
00000000
,
20000000
00000000
31000000
00010000
00002000
00000000
00013000
00100000
,
00020000
00000000
00031000
00000010
00000001
00001000
00001001
00000000
,
00000001
00000100
00000001
00000010
00000100
00000100
00010000
00010000
,
00001000
00100000
00010000
00100000
01000000
01000000
10000000
00000000
,
10100000
00100000
01000000
01010000
00010000
00100000
00101000
00001000
,
00010000
00000100
00000010
00000100
00010000
00001000
00011000
00000000
,
00010000
00001000
00000010
00000100
00001000
00000010
00000100
00001000
,
00010000
00000000
00100000
00000000
00010000
00000000
00001000
00000000
00010000
00000000
00001000
00010000
00001000
00000000
00000000
00000000
,
00001000
00010000
00100000
01000000
00010000
00100000
01000000
00010000
,
00001000
00000000
00000010
00000000
00001000
00000000
00010000
00000000
00001000
00000000
00010000
00001000
00010000
00000000
00000000
00000000
,
00001000
00000010
00000001
00000001
00000100
00001000
00010000
00010000
,
00100000
10000000
01000000
00100000
00001000
00010000
00000100
00000010
,
00000001
00000001
00001000
00001000
00000100
00000100
00010000
00011000
,
00000000
00000000
00001000
01000000
00001000
00000000
00100000
00010000
00100000
00000000
01000000
00000000
10000000
00000000
00000000
00000000
,
10000000
01000000
00010000
00001000
00100000
01000000
00010000
00001000
,
00000010
00000000
00000100
00000000
00010000
00000000
00001000
00000000
00000100
00000000
00000010
00000100
00000010
00000000
00000000
00000000
,
00001000
00000001
00000100
00001000
00010000
00000010
00000100
00001000
,
00010000
00000000
00100000
00000000
01000000
00000000
00001000
00000000
00010000
00000000
01000000
00100000
01000000
00000000
00000000
00000000
,
10000000
01000000
00010000
00010000
00001000
00010000
00100000
00100000
,
00010000
00001000
00000100
00000010
00010000
00001000
00000010
00000100
,
00001000
00000010
00000001
00000010
00010000
00001000
00010000
00100000
,
00000000
00000000
10000000
00100000
10000000
00000000
00010000
01000000
00010000
00000000
00100000
00001000
00100000
00000000
00001000
00000000
,
00020000
00000000
00000000
00030000
,
00002000
00000000
00000000
00003000
,
00010000
00001000
00000010
00000000
00000001
00001000
00000001
00001000
,
00000000
00000001
00000100
00001000
00010000
00000000
00011000
00000000
,
00002000
00000000
00000000
00010000
00020000
00000000
00000000
00000000
,
00033000
00001000
00010000
00011000
,
00001000
00010000
00100000
00000000
01000000
00100000
10000000
00100000
,
00000000
10000000
01000000
00100000
00001000
00000000
00010000
00000000
,
00022000
00000000
00000000
00000000
,
00033000
00000000
00000000
00000000
,
00000000
00000000
00000000
00000000
;
