
//----- song ID: ccnn -----//
#TITLE:C-C-C-N-N-N;
#ARTIST:RoughSkreamZ feat. Aikapin;
#BANNER:C-C-C-N-N-N.png;
#BACKGROUND:C-C-C-N-N-N-bg.png;
#CDTITLE:./CDTitles/bm IIDX 30 RESIDENT.png;
#MUSIC:C-C-C-N-N-N.ogg;
#SAMPLESTART:58.49;
#SAMPLELENGTH:15;
#BPMS:0=162,220=170,252=180;
#NOTES:
     dance-single:
     :
     Beginner:
     2:
     :
0000
0000
0000
0000
,
0000
0000
0000
0000
,
0000
0000
0000
0000
,
0000
0000
0000
0000
,
0000
0000
0000
0000
,
0000
0000
0000
0000
,
0001
0000
0000
0000
,
0000
0000
0000
0000
,
1000
0000
0000
0000
,
0000
0000
0020
0000
,
0000
0030
0000
0000
,
0000
0000
0200
0000
,
0000
0300
0000
0000
,
0000
0000
0002
0000
,
0000
0003
0000
0000
,
0000
0000
2000
0000
,
0000
3000
0000
0000
,
0000
0000
0010
0000
,
0000
0000
0100
0000
,
0000
0000
0010
0000
,
0000
0000
0000
0000
,
0000
0000
0001
0000
,
0000
0000
1000
0000
,
0000
0000
0001
0000
,
0000
0000
0000
0000
,
0000
0000
0100
0000
,
0000
0000
0000
0000
,
0000
0000
0100
0000
,
0000
0000
0000
0000
,
0000
0000
0010
0000
,
0000
0000
0000
0000
,
0000
0000
0010
0000
,
0000
0000
0000
0000
,
0000
0000
0001
0000
,
0000
0000
1000
0000
,
0000
0000
0001
0000
,
0000
0000
1000
0000
,
0000
0000
0000
0000
,
0000
0000
0000
0000
,
0000
0000
1000
0000
,
1000
0000
1000
0000
,
0000
0000
0001
0000
,
0001
0000
0001
0000
,
0000
0000
0100
0000
,
0100
0000
0100
0000
,
0000
0000
0010
0000
,
0010
0000
0010
0000
,
0000
0000
0020
0000
,
0000
0000
0000
0000
,
0000
0030
0000
0000
,
0000
0000
0000
0000
,
0000
0000
0200
0000
,
0000
0000
0000
0000
,
0000
0300
0000
0000
,
0000
0000
0000
0000
,
1000
0000
0000
0000
,
0000
0000
0000
0000
,
1000
0000
0000
0000
,
0000
0000
0000
0000
,
0001
0000
0000
0000
,
0000
0000
0000
0000
,
0001
0000
0000
0000
,
0000
0000
0000
0000
,
0010
0000
0000
0000
,
0010
0000
0000
0000
,
0100
0000
0000
0000
,
0100
0000
0000
0000
,
1000
0000
0000
0000
,
1000
0000
0000
0000
,
0001
0000
0000
0000
,
0001
0000
0000
0000
,
0010
0000
0000
0000
,
0010
0000
0000
0000
,
0100
0000
0000
0000
,
0000
0000
0000
0000
,
1000
0000
0000
0000
,
0000
0000
0000
0000
,
0001
0000
0000
0000
,
0000
0000
0000
0000
,
1001
0000
0000
0000
,
1001
0000
0000
0000
,
0010
0010
0000
0000
,
0000
0000
0000
0000
;
#NOTES:
     dance-single:
     :
     Easy:
     5:
     :
0000
0000
0000
0000
,
0000
0000
0000
0000
,
0000
0000
0000
0000
,
0000
0000
0000
0000
,
0000
0000
0000
0000
,
0000
0000
0000
0000
,
0010
0000
0010
0000
,
1000
0001
1000
0000
,
0100
0000
0100
0000
,
0000
0000
2002
0000
,
0000
0000
0000
0000
,
0000
3003
0220
0000
,
0000
0000
0000
0000
,
0000
0330
0022
0000
,
0000
0000
0000
0000
,
0000
0033
2200
0000
,
0000
0000
0000
0000
,
0000
3300
1000
0001
,
1000
0000
0010
0010
,
0001
0000
0001
1000
,
0001
0000
0100
0100
,
1000
0000
0100
0010
,
0100
0000
0001
0001
,
0100
0000
0010
0100
,
0010
0000
1000
1000
,
0001
0000
0011
0001
,
0010
0000
1100
1000
,
0100
0000
1001
1000
,
0001
0000
0110
0110
,
0110
0000
1000
0100
,
0010
0000
0010
0001
,
0010
0000
0001
0010
,
0100
0000
0100
1000
,
0100
0000
0020
0000
,
0000
0030
0200
0000
,
0000
0300
1001
0000
,
1001
0000
1000
0001
,
1000
0000
0010
0000
,
0010
0000
0100
0010
,
1001
0000
1001
1001
,
1001
0000
0110
0110
,
0110
0000
0001
1000
,
0100
0000
1000
0001
,
0010
0000
1001
1001
,
1001
0000
0110
0110
,
0110
0000
0001
1000
,
0001
0000
0010
0100
,
0010
0000
1001
1001
,
1001
0000
0110
0110
,
0110
0000
0002
0000
,
0000
0003
2000
0000
,
0000
3000
1001
1001
,
1001
0000
0110
0110
,
0110
0000
1000
0001
,
0100
0010
0100
0010
,
2002
0000
0000
0000
,
0000
0000
0000
3003
,
0220
0000
0000
0000
,
0000
0000
0000
0330
,
2200
0000
0000
3300
,
0022
0000
0000
0033
,
2000
3000
0002
0003
,
0010
0010
0100
0000
,
2002
0000
0000
3003
,
0220
0000
0000
0330
,
1001
1001
1001
0000
,
0110
0110
0110
0000
,
1000
0001
0010
0000
,
0001
1000
0100
0000
,
1001
1001
1001
0000
,
0110
0110
0110
0000
,
0001
1000
0100
0000
,
1000
0001
0010
0000
,
1001
0000
0001
0000
,
0110
0000
0100
0000
,
0100
0001
0100
0000
,
1000
0100
1000
0000
,
1001
1001
1001
0000
,
0110
0110
0110
0000
,
1000
0010
1000
0001
,
1000
0100
1100
0000
,
1001
0000
0010
0010
0000
0000
0000
0000
,
0000
0000
0000
0000
;
#NOTES:
     dance-single:
     :
     Medium:
     10:
     :
0000
0000
0000
0000
,
0000
0000
0000
0000
,
0000
0000
0000
0000
,
0000
0000
0000
0000
,
0000
0000
0000
0000
,
0000
0000
0000
0000
,
1000
0000
1000
0000
1000
0000
0001
1000
,
0100
0100
0100
0000
,
0011
0000
0010
0001
0010
0000
1100
0000
,
0100
0000
0000
0000
0100
0000
0000
0000
0010
0000
0000
0001
0000
0000
0100
0000
,
0010
0000
0000
1000
0000
0000
0100
0000
0010
0000
0000
0001
0000
0000
0100
0000
,
0010
0000
1000
0000
1000
0000
0000
0000
0100
0000
0000
1000
0000
0000
0010
0000
,
0100
0000
0000
0001
0000
0000
0010
0000
0100
0000
0000
1000
0000
0000
0010
0000
,
0100
0000
0001
0000
0001
0000
0000
0000
0001
0000
0000
0100
0000
0000
0001
0000
,
0010
0000
0000
0001
0000
0000
0010
0000
0100
0000
0000
1000
0000
0000
0100
0000
,
0010
0000
0001
0000
0001
0000
0000
0000
1000
0000
0000
0010
0000
0000
1000
0000
,
0100
0000
0000
1000
0000
0000
0100
0000
0010
0000
0000
0001
0000
0000
0010
0000
,
0100
1000
1000
0000
0010
0001
0010
0000
,
0100
1000
0100
0000
0001
0100
1000
0000
,
1001
0000
0000
0000
0100
1000
0100
0010
,
0001
0010
0100
0000
0110
0000
0001
0010
,
1000
0000
1001
0000
0100
1000
0100
0000
,
0010
0001
0010
0000
1000
0010
0001
0000
,
1001
0000
0000
0000
0010
0001
0010
0100
,
1000
0100
0010
0000
0110
0000
1000
0100
,
0001
0000
1001
0000
0100
1000
0000
1000
,
0000
1000
0100
0010
0001
0010
0001
0010
,
0000
0100
0100
0000
1001
0000
1000
0200
,
0000
0300
1100
0101
,
1100
0000
0000
0000
0100
1000
0010
0001
,
0010
1000
0000
0001
0010
0100
0000
1000
,
0001
1000
0001
0000
0110
0000
1000
0001
,
0100
0001
1000
0000
1010
0000
0011
0000
,
0010
0001
0010
0200
0000
0000
0000
0000
,
0300
1000
0100
2000
0000
0000
0000
0000
,
0000
0000
3000
0100
0010
0000
0010
0000
,
0010
0000
0001
0010
0000
0010
0000
0020
,
0000
0030
1001
1001
,
1001
0000
0110
0110
,
0110
0000
0011
1001
,
0101
0000
1010
1001
,
1100
0000
0000
0000
1001
0000
0001
1000
,
0010
1000
0001
0000
0110
0000
1000
0010
,
0001
0010
1000
0000
0011
0000
1001
0000
,
0101
0000
1010
1001
,
1100
0000
0000
0000
0110
0000
0010
0001
,
0010
0000
0010
1000
0010
0000
0010
0100
,
0020
0030
0011
1001
,
0101
0000
1010
1001
,
1100
0000
0000
0000
1000
0001
1000
0000
,
0010
0100
0010
0000
0100
0010
0100
0000
,
0001
1000
0001
0000
0011
0000
1001
0000
,
0101
0000
1010
1001
,
1100
0000
0000
0000
0011
0000
1000
0100
,
0001
0000
1100
0000
1001
0000
0010
0100
,
0020
0000
0000
0000
,
0000
0000
0000
0000
0000
0000
0030
0100
,
0020
0000
0000
0000
,
0000
0000
0000
0000
0030
0000
0000
0000
1000
0000
0000
1000
0000
0000
1000
0000
,
0020
0000
0000
0000
0000
0000
0030
0100
,
0020
0000
0000
0000
0030
0000
0000
0000
0001
0000
0000
0001
0000
0000
0001
0000
,
0010
0000
0000
0010
0000
0000
0010
0000
,
1000
1100
0001
0011
,
0022
0000
0000
0033
,
2200
0000
0000
3300
,
0011
1001
0101
0110
,
1010
1001
1100
0000
,
1010
0011
0101
1100
,
1001
0000
0010
0001
1000
0001
0010
0000
,
0011
1001
0101
1001
,
1010
1001
1100
0000
,
1100
0101
1100
0101
,
1000
0100
0001
0100
1000
0000
0000
0000
,
0011
0001
1001
0001
,
1010
1000
1001
0000
,
0110
0001
1000
1000
,
0001
0000
0100
0001
0010
0001
0100
0000
,
0011
1001
0101
1001
,
1010
1001
1100
0000
,
1001
0110
1001
1100
,
0011
0011
1001
0000
,
1000
0001
1000
1000
0000
0000
0000
0000
,
0000
0000
0000
0000
;
#NOTES:
     dance-single:
     :
     Hard:
     15:
     :
0000
0000
0000
0000
,
0000
0000
0000
0000
,
0000
0000
0000
0000
,
0000
0000
0000
0000
,
0000
0000
0000
0000
,
0000
0000
0000
0000
,
0010
0000
0101
0000
1100
0000
0001
0100
,
1000
0000
0010
1000
0100
0000
0000
0000
,
0101
0000
0001
1000
0010
1000
0001
0000
,
0000
0000
0000
0000
0000
0000
0000
0000
2010
0000
0000
0001
0000
0000
3100
0000
,
0102
0000
0000
1000
0000
0000
0013
0000
2010
0000
0000
0001
0000
0000
3100
0000
,
0010
0000
0100
0000
0100
0000
0100
0000
0012
0000
0000
1000
0000
0000
0103
0000
,
2100
0000
0000
0001
0000
0000
3010
0000
0012
0000
0000
1000
0000
0000
0103
0000
,
0010
0000
0100
0000
0100
0000
0000
0000
0201
0000
0000
0010
0000
0000
1300
0000
,
0021
0000
0000
0100
0000
0000
1030
0000
0201
0000
0000
0010
0000
0000
1300
0000
,
0100
0000
0010
0000
0010
0000
0010
0000
0021
0000
0000
0100
0000
0000
1030
0000
,
0201
0000
0000
0010
0000
0000
1300
0000
0021
0000
0000
0100
0000
0000
1030
0000
,
0010
0000
0100
0000
0100
0000
0000
0000
1000
0001
0000
0001
1000
0000
0010
0000
,
0100
0000
0010
0000
0100
0000
0010
0000
1000
0001
0000
0001
1000
0000
0100
0000
,
0010
0001
0010
0001
0010
0000
0010
0000
0001
1000
0000
1000
0001
0000
0100
0000
,
0010
0000
0100
0000
0010
0000
0100
0000
0001
1000
0000
1000
0001
0000
0010
0000
,
0100
1000
0100
1000
0100
0000
0000
0000
0010
0100
0000
0100
0010
0000
0001
0000
,
1000
0000
0001
0000
1000
0000
0001
0000
0010
0100
0000
0100
0010
0000
0010
0000
,
0001
0000
0000
0000
0100
0000
0000
0000
1000
0000
0000
0000
0001
0000
0000
0000
0010
0000
0000
0000
1000
0000
0000
0000
0010
0000
0000
0100
0000
0000
0000
0000
0000
0100
0000
0000
0010
0000
0000
0000
0000
0000
1000
0000
0000
0000
0000
0000
,
0001
0000
0010
0000
0010
0000
0001
0000
0000
1000
0000
0000
1100
0000
0000
0000
0000
0000
1001
0000
0000
0000
0000
0000
,
1000
0100
0001
0000
0100
0001
0000
0001
,
0000
0001
0100
1000
0010
0001
0010
0001
,
0000
0010
1000
0100
0001
0000
0100
0110
,
0000
1000
1001
0000
0110
0000
1001
0000
,
0011
0000
1100
0000
0001
0100
1000
0001
,
0010
1000
0010
0000
0100
0010
0000
0010
,
0100
0100
0100
0000
1001
0000
1000
0010
,
0001
0010
1000
0000
1001
0000
0001
0100
,
0000
0001
1000
0001
0000
0010
0010
0000
,
1100
0000
0000
1001
0000
0000
1100
0000
0000
0000
0100
0000
0100
0000
0000
0000
,
0011
0000
0000
1001
0000
0000
0011
0000
0010
0000
0100
0000
0001
0000
0100
0000
,
1000
0000
0100
0000
0010
0000
0100
0000
1000
0001
1000
0001
1000
0001
1000
0001
,
1000
0001
1000
0001
1000
0001
1000
0000
1001
0000
0000
0000
1001
0000
0000
0000
,
1001
0000
0010
0100
0110
0000
0110
0000
,
0110
0000
0011
1100
,
0011
0000
0001
0100
0101
0000
1010
0000
,
0101
0000
0000
0000
1001
0000
0001
0010
,
0100
1000
0100
0010
0001
0000
0010
0100
,
0010
0010
0010
0000
0101
0000
1010
0000
,
0101
0000
0001
0010
0011
0000
1100
0000
,
0011
0000
0000
0000
1001
0000
0001
0100
,
1000
0100
0010
0100
0001
0000
1000
0001
,
2000
3000
0011
1100
,
0011
0000
0001
0100
0101
0000
1010
0000
,
0101
0000
0000
0000
0002
1000
0000
0013
,
0200
0010
0000
0301
2000
0001
0000
3100
,
0020
0100
0130
0000
0101
0000
1010
0000
,
0101
0000
0001
0010
0011
0000
1100
0000
,
0011
0000
0000
0000
2000
0000
3100
0100
,
0020
0000
0031
0001
0200
0000
1300
1000
,
1000
0000
0100
0000
0001
0010
0001
0000
,
1001
0000
0010
0000
1000
0100
0000
1000
,
0100
0000
0001
0000
0100
1000
0100
0000
,
0110
0000
0000
0000
0000
0000
0000
0000
0010
0001
0000
0010
0001
0000
0010
0001
,
0020
0100
0100
0000
0001
0000
1030
0010
,
0020
0000
0100
0000
0130
0000
0000
0000
0110
0000
0000
0110
0000
0000
0110
0000
,
1001
0000
0000
0110
0000
0000
1001
0000
,
0010
0100
0010
0000
0110
0000
0001
1000
0001
0000
1001
0000
,
1100
0000
1100
0000
1100
0000
0100
0010
,
0011
0011
0022
0033
,
0101
0000
1010
0000
0101
0000
0001
0010
,
0011
0000
0000
0000
1100
0000
0000
0000
0011
0000
0010
0000
0001
1000
0001
0000
,
1001
0000
0000
0000
0001
0000
0100
0000
1000
0000
1000
0000
0100
0001
0010
0000
,
0001
0000
0000
0000
0001
1000
0010
0000
1000
0001
0010
0000
0001
0000
0001
0000
,
0011
0000
1100
0000
0011
0001
0001
0100
,
0101
0000
0000
0000
1010
0000
0000
0000
0101
0000
0100
0000
0001
1000
0001
0000
,
1001
1000
0001
0001
0110
0000
1001
0000
,
1000
0100
0010
0100
1000
1000
0001
0001
,
0101
0000
1010
0000
0101
0000
0001
0010
,
0011
0000
1100
0000
0011
0001
0001
0000
,
1001
0000
0001
1000
0001
0000
0010
0100
,
0010
0000
0000
0010
0000
0000
0001
0010
0001
0000
0000
0000
1000
0100
1000
0000
,
0011
0000
1100
0000
0011
0000
0001
0100
,
0101
0000
1010
0000
0101
0100
0100
0000
,
0011
0010
1010
1000
1100
0100
0101
0001
,
1001
0000
0110
0000
1001
1001
1001
1001
,
0110
0110
0110
0110
0000
0000
0000
0000
,
0000
0000
0000
0000
;
#NOTES:
     dance-double:
     :
     Easy:
     5:
     :
00000000
00000000
00000000
00000000
,
00000000
00000000
00000000
00000000
,
00000000
00000000
00000000
00000000
,
00000000
00000000
00000000
00000000
,
00000000
00000000
00000000
00000000
,
00000000
00000000
00000000
00000000
,
00000010
00000000
00000010
00000000
,
00000001
00001000
00000001
00000000
,
00001000
00000000
00001000
00000000
,
00000000
00000000
00022000
00000000
,
00000000
00000000
00000000
00000000
,
00000000
00033000
02200000
00000000
,
00000000
00000000
00000000
00000000
,
00000000
03300000
22000000
00000000
,
00000000
00000000
00000000
00000000
,
00000000
33000000
00220000
00000000
,
00000000
00000000
00000000
00000000
,
00000000
00330000
00010000
00100000
,
00010000
00000000
00001000
00001000
,
00010000
00000000
00001000
00000100
,
00001000
00000000
00010000
00010000
,
00001000
00000000
00001000
00010000
,
00001000
00000000
00010000
00010000
,
00100000
00000000
00010000
00001000
,
00010000
00000000
00001000
00001000
,
00010000
00000000
00011000
00001000
,
00010000
00000000
01010000
00010000
,
01000000
00000000
00011000
00010000
,
00001000
00000000
00011000
00011000
,
00011000
00000000
00010000
00001000
,
00100000
00010000
00110000
00000000
,
00011000
00000000
00001000
00010000
,
00000100
00001000
00001100
00000000
,
00011000
00000000
00002000
00000000
,
00000000
00003000
00020000
00000000
,
00000000
00030000
01100000
00000000
,
01100000
00000000
00100000
01000000
,
00100000
00000000
00010000
00000000
,
00010000
00000000
00001000
00010000
,
00011000
00000000
00011000
00011000
,
00011000
00000000
00000110
00000110
,
00000110
00000000
00000001
00001000
,
00000100
00000000
00010000
00001000
,
00010000
00000000
00011000
00011000
,
00011000
00000000
01100000
01100000
,
01100000
00000000
10000000
00010000
,
01000000
00000000
00001000
00010000
,
00001000
00000000
00011000
00011000
,
00011000
00000000
01100000
01100000
,
01100000
00000000
00020000
00000000
,
00000000
00030000
00002000
00000000
,
00000000
00003000
00011000
00011000
,
00011000
00000000
00000110
00000110
,
00000110
00000000
00000001
00001000
,
00000010
00010000
00001000
00010000
,
00022000
00000000
00000000
00000000
,
00000000
00000000
00000000
00033000
,
00220000
00000000
00000000
00000000
,
00000000
00000000
00000000
00330000
,
20020000
00000000
00000000
30030000
,
02200000
00000000
00000000
03300000
,
20000000
30000000
00020000
00030000
,
00100000
00100000
00001000
00000000
,
00022000
00000000
00033000
00000000
,
00000220
00000000
00000330
00000000
,
00011000
00011000
00011000
00000000
,
01100000
01100000
01100000
00000000
,
10000000
00010000
01000000
00000000
,
00001000
00010000
00001000
00000000
,
00011000
00011000
00011000
00000000
,
00000110
00000110
00000110
00000000
,
00000001
00001000
00000010
00010000
,
00000100
00010000
00001000
00000000
,
00011000
00010000
00001000
00000000
,
00011000
00001000
00010000
00000000
,
00001000
00100000
00010000
00000000
,
00010000
01000000
00001000
00000000
,
00011000
00011000
00011000
00000000
,
01100000
01100000
01100000
00000000
,
10000000
00010000
01000000
00001000
,
00100000
00010000
00110000
00000000
,
00011000
00000000
00010000
00010000
00000000
00000000
00000000
00000000
,
00000000
00000000
00000000
00000000
;
#NOTES:
     dance-double:
     :
     Medium:
     10:
     :
00000000
00000000
00000000
00000000
,
00000000
00000000
00000000
00000000
,
00000000
00000000
00000000
00000000
,
00000000
00000000
00000000
00000000
,
00000000
00000000
00000000
00000000
,
00000000
00000000
00000000
00000000
,
00000100
00000000
00000100
00000000
00000100
00000000
00001000
00010000
,
00100000
00100000
00100000
00000000
,
11000000
00000000
10000000
01000000
10000000
00000000
00110000
00000000
,
00100000
00000000
00000000
00000000
00100000
00000000
00000000
00000000
00001000
00000000
00000000
00010000
00000000
00000000
00100000
00000000
,
00010000
00000000
00000000
00001000
00000000
00000000
00000010
00000000
00001000
00000000
00000000
00010000
00000000
00000000
00100000
00000000
,
00010000
00000000
00001000
00000000
00001000
00000000
00000000
00000000
00010000
00000000
00000000
00001000
00000000
00000000
00000100
00000000
,
00001000
00000000
00000000
00010000
00000000
00000000
01000000
00000000
00010000
00000000
00000000
00001000
00000000
00000000
00000100
00000000
,
00001000
00000000
00010000
00000000
00010000
00000000
00000000
00000000
00100000
00000000
00000000
10000000
00000000
00000000
01000000
00000000
,
00100000
00000000
00000000
00010000
00000000
00000000
01000000
00000000
00001000
00000000
00000000
00010000
00000000
00000000
00001000
00000000
,
00000010
00000000
00000001
00000000
00000001
00000000
00000000
00000000
00000010
00000000
00000000
00000001
00000000
00000000
00000100
00000000
,
00000010
00000000
00000000
00001000
00000000
00000000
00000100
00000000
00010000
00000000
00000000
00001000
00000000
00000000
00010000
00000000
,
01000000
10000000
10000000
00000000
00010000
00100000
00010000
00000000
,
10000000
01000000
00010000
00000000
00001000
00000010
00000001
00000000
,
00001001
00000000
00000000
00000000
00000001
00000100
00001000
00010000
,
00001000
00100000
00010000
00000000
00011000
00000000
00010000
00001000
,
00000100
00000000
00001001
00000000
00001000
00000100
00001000
00000000
,
00000001
00000100
00001000
00000000
00010000
00100000
10000000
00000000
,
10010000
00000000
00000000
00000000
10000000
00100000
00010000
00001000
,
00010000
00000100
00001000
00000000
00011000
00000000
00001000
00010000
,
00001000
00000000
00011000
00000000
00010000
01000000
00000000
01000000
,
00000000
01000000
00010000
00001000
00000100
00001000
00000100
00001000
,
00000000
00000100
00000100
00000000
00011000
00000000
00001000
00020000
,
00000000
00030000
00011000
00001100
,
00001001
00000000
00000000
00000000
00000001
00000100
00001000
00010000
,
00100000
10000000
00000000
01000000
10000000
00100000
00000000
10000000
,
00010000
10000000
00010000
00000000
00110000
00000000
00100000
00001000
,
00010000
00001000
00100000
00000000
00101000
00000000
00011000
00000000
,
00001000
00010000
00001000
00200000
00000000
00000000
00000000
00000000
,
00300000
00001000
00010000
00000020
00000000
00000000
00000000
00000000
,
00000000
00000000
00000030
00000100
00001000
00000000
00001000
00000000
,
00001000
00000000
00010000
00001000
00000000
00001000
00000000
00002000
,
00000000
00003000
00011000
00011000
,
00011000
00000000
01100000
01100000
,
01100000
00000000
00110000
10010000
,
01010000
00000000
10100000
10010000
,
11000000
00000000
00000000
00000000
10010000
00000000
10000000
00100000
,
00010000
00001000
00000010
00000000
00000110
00000000
00000001
00000010
,
00001000
00000010
00000001
00000000
00001010
00000000
00001001
00000000
,
00001100
00000000
00000011
00001001
,
00000101
00000000
00000000
00000000
00001001
00000000
00000001
00000100
,
00001000
00000000
00000100
00001000
00010000
00000000
00001000
00010000
,
00002000
00003000
01010000
10010000
,
00110000
00000000
11000000
10010000
,
10100000
00000000
00000000
00000000
10000000
00100000
10000000
00000000
,
01000000
00010000
00001000
00000000
00010000
00001000
00000100
00000000
,
00000001
00000010
00000001
00000000
00001100
00000000
00001001
00000000
,
00001010
00000000
00000101
00001001
,
00000011
00000000
00000000
00000000
00000011
00000000
00000001
00000100
,
00001000
00000000
00001100
00000000
00011000
00000000
00010000
00001000
,
00020000
00000000
00000000
00000000
,
00000000
00000000
00000000
00000000
00000000
00000000
00030000
00001000
,
00020000
00000000
00000000
00000000
,
00000000
00000000
00000000
00000000
00030000
00000000
00000000
00000000
01000000
00000000
00000000
01000000
00000000
00000000
01000000
00000000
,
00020000
00000000
00000000
00000000
00000000
00000000
00030000
00000010
,
00020000
00000000
00000000
00000000
00030000
00000000
00000000
00000000
00001000
00000000
00000000
00001000
00000000
00000000
00001000
00000000
,
00010000
00000000
00000000
00010000
00000000
00000000
00010000
00000000
,
00000100
00001100
00000010
00000011
,
00000022
00000000
00000000
00000033
,
00002200
00000000
00000000
00003300
,
00001010
00001001
00001100
00000000
,
00000011
00001001
00000101
00000000
,
00001001
00001010
00011000
01010000
,
10010000
00000000
00100000
00010000
10000000
00010000
00100000
00000000
,
00110000
10010000
01010000
00000000
,
10100000
10010000
11000000
00000000
,
00110000
00101000
00110000
00101000
,
00001000
00010000
00000100
00010000
00001000
00000000
00000000
00000000
,
00001100
00001000
00011000
00001000
,
00110000
00100000
01100000
00000000
,
10010000
10000000
00010000
00100000
,
01000000
00000000
00010000
00001000
00100000
00001000
00010000
00000000
,
00001010
00001001
00001100
00011000
,
00110000
10010000
01010000
00000000
,
00110000
01010000
00011000
00001010
,
00001100
00001100
00011000
00000000
,
00100000
01000000
00100000
00100000
00000000
00000000
00000000
00000000
,
00000000
00000000
00000000
00000000
;
#NOTES:
     dance-double:
     :
     Hard:
     15:
     :
00000000
00000000
00000000
00000000
,
00000000
00000000
00000000
00000000
,
00000000
00000000
00000000
00000000
,
00000000
00000000
00000000
00000000
,
00000000
00000000
00000000
00000000
,
00000000
00000000
00000000
00000000
,
00100000
00000000
10100000
00000000
01010000
00000000
00001000
00010000
,
00100000
00000000
00010000
00001000
00000100
00000000
00000000
00000000
,
00001001
00000000
00001000
00000100
00000010
00000100
00001000
00000000
,
00000010
00000000
00000000
00000000
00000010
00000000
00000000
00000000
00002010
00000000
00000000
00000001
00000000
00000000
00003100
00000000
,
00000012
00000000
00000000
00001000
00000000
00000000
00000103
00000000
00002010
00000000
00000000
00000001
00000000
00000000
00003100
00000000
,
00010000
00000000
00001000
00000000
00001000
00000000
00000000
00000000
01020000
00000000
00000000
10000000
00000000
00000000
00130000
00000000
,
21000000
00000000
00000000
00010000
00000000
00000000
30100000
00000000
01020000
00000000
00000000
10000000
00000000
00000000
00130000
00000000
,
00011000
00000000
00000100
00000000
00000100
00000000
00000000
00000000
00000201
00000000
00000000
00000010
00000000
00000000
00001300
00000000
,
00000021
00000000
00000000
00000100
00000000
00000000
00001030
00000000
00000201
00000000
00000000
00000010
00000000
00000000
00001300
00000000
,
00010000
00000000
00001000
00000000
00001000
00000000
00000000
00000000
00210000
00000000
00000000
01000000
00000000
00000000
10300000
00000000
,
02010000
00000000
00000000
00100000
00000000
00000000
13000000
00000000
00210000
00000000
00000000
01000000
00000000
00000000
10300000
00000000
,
00100000
00000000
01000000
00000000
01000000
00000000
00000000
00000000
10000000
00010000
00000000
00010000
10000000
00000000
00100000
00000000
,
01000000
00000000
00100000
00000000
01000000
00000000
00100000
00000000
00010000
00001000
00000000
00001000
00010000
00000000
00000100
00000000
,
00000010
00000000
00000010
00000000
00000010
00000000
00000000
00000000
00000001
00001000
00000000
00001000
00000001
00000000
00000100
00000000
,
00000010
00000000
00000100
00000000
00000010
00000000
00000100
00000000
00001000
00010000
00000000
00010000
00001000
00000000
00100000
00000000
,
01000000
10000000
00000000
10000000
01000000
00000000
00000000
00000000
01000000
00100000
00000000
00100000
01000000
00000000
00010000
00000000
,
01000000
00000000
00010000
00000000
01000000
00000000
00010000
00000000
00001000
00010000
00000000
00010000
00001000
00000000
00000010
00000000
,
00000001
00000000
00000000
00000000
00000100
00000000
00000000
00000000
00001000
00000000
00000000
00000000
00000001
00000000
00000000
00000000
00000010
00000000
00000000
00000000
00001000
00000000
00000000
00000000
00000010
00000000
00000000
00000100
00000000
00000000
00000000
00000000
00000000
00000100
00000000
00000000
00000010
00000000
00000000
00000000
00000000
00000000
00001000
00000000
00000000
00000000
00000000
00000000
,
00000001
00000000
00001000
00000000
00000001
00000000
00001000
00000000
00000000
00000100
00000000
00000000
00001100
00000000
00000000
00000000
00000000
00000000
00011000
00000000
00000000
00000000
00000000
00000000
,
00001000
00010000
01000000
00000000
00100000
01000000
00000000
01000000
,
00000000
01000000
00010000
00001000
00000010
00001000
00000010
00000001
,
00000000
00000100
00000001
00000010
00001000
00000000
00010000
00010000
,
00000000
01000000
01000000
00000000
11000000
00000000
10100000
00000000
,
00110000
00000000
10010000
00000000
10000000
01000000
00010000
00001000
,
00000100
00000001
00000010
00000000
00000100
00000010
00000000
00001000
,
00010000
00001000
00010000
00000000
00011000
00000000
00010000
01000000
,
10000000
00100000
00010000
00000000
00001000
00000000
00000100
00000100
,
00000000
00000100
00000010
00000100
00000000
00001000
00010000
00000000
,
00100000
00000000
00000000
00100000
00000000
00000000
00100000
00000000
00000000
00000000
00010000
00000000
00001000
00000000
00000000
00000000
,
00000100
00000000
00000000
00000100
00000000
00000000
00000100
00000000
00001000
00000000
00010000
00000000
00000100
00000000
00010000
00000000
,
00001000
00000000
01000000
00000000
00001000
00000000
00010000
00000000
00001000
00010000
00001000
00010000
00001000
00010000
00001000
00010000
,
00001000
00010000
00001000
00010000
00001000
00010000
00001000
00000000
00011000
00000000
00000000
00000000
00011000
00000000
00000000
00000000
,
00011000
00000000
00001000
00010000
01100000
00000000
01100000
00000000
,
01100000
00000000
01100000
10010000
,
01100000
00000000
00010000
00001000
00000110
00000000
00001001
00000000
,
00000110
00000000
00000000
00000000
00001001
00000000
00000001
00000100
,
00001000
00010000
00100000
00010000
00001000
00000000
00000010
00000100
,
00000010
00000010
00000010
00000000
00000110
00000000
00001001
00000000
,
00000110
00000000
00001000
00010000
01100000
00000000
10010000
00000000
,
01100000
00000000
00000000
00000000
10010000
00000000
00010000
00100000
,
01000000
00010000
00001000
00000100
00001000
00000000
00010000
00001000
,
00000200
00000300
00000110
00001001
,
00000110
00000000
00001000
00010000
01100000
00000000
10010000
00000000
,
01100000
00000000
10010000
00000000
00020000
01000000
00000000
10000000
,
00000000
00100000
00000000
00031000
00020000
00100000
00000000
10000000
,
00000000
01030000
00001000
00000000
01100000
00000000
10010000
00000000
,
01100000
00000000
00010000
00001000
00000110
00000000
00001001
00000000
,
00000110
00000000
00000000
00000000
00000200
00000000
00001300
00001000
,
00020000
00000000
00130000
00100000
02000000
00000000
13000000
10000000
,
10000000
00000000
01000000
00000000
00100000
00010000
00100000
00000000
,
00011000
00000000
00000100
00000000
00000010
00000001
00000000
00000010
,
00000001
00000000
00000010
00000000
00000100
00001000
00000100
00000000
,
00011000
00000000
00000000
00000000
00110000
00000000
00000000
00000000
10000000
01000000
00000000
10000000
01000000
00000000
00010000
00000000
,
00002000
00010000
00010000
00000000
00000100
00000000
00013000
00001000
,
00002000
00000000
00020000
00000000
00033000
00000000
00000000
00000000
00010000
00000000
00000000
00010000
00000000
00000000
00010000
00000000
,
00100000
00000000
00000000
01100000
00000000
00000000
10010000
00000000
,
00100000
01000000
00100000
00000000
01100000
00000000
00010000
10000000
00010000
00000000
10010000
00000000
,
00011000
00000000
00011000
00000000
00011000
00000000
00001000
00010000
,
01100000
01100000
02200000
03300000
,
01100000
00000000
10010000
00000000
01100000
00000000
00010000
00001000
,
00000110
00001001
00000110
00000000
,
00001001
00000000
00000000
00000000
00000001
00000000
00000010
00000000
00001000
00000000
00001000
00000000
00010000
00001000
00010000
00000000
,
00001000
00000000
00000000
00000000
00100000
00001000
00010000
00000000
00010000
00000100
00001000
00000000
00000100
00000000
00000000
00000000
,
00000110
00000000
00001001
00000000
00000110
00000100
00000100
00000010
,
00000110
00000000
00001001
00000000
00000110
00000010
00000010
00000000
,
00001001
00000000
00000001
00001000
00000010
00001000
00000001
00000100
,
00001000
00001000
00010000
00010000
00100000
00100000
01000000
01000000
,
01100000
00000000
10010000
00000000
01100000
00000000
10000000
00010000
,
01100000
10010000
01100000
10010000
,
10000000
00100000
00010000
00001000
00000100
00000000
00001000
00000100
,
00000010
00000100
00000010
00001000
00000100
00000001
00000100
00000000
,
00000110
00000000
00001001
00000000
00000110
00000000
00001000
00010000
,
01100000
00000000
10010000
00000000
01100000
10000000
00010000
10000000
,
10010000
00010000
00100000
00001000
00011000
00010000
00000100
00001000
,
00001100
00000100
00010000
00001000
00011000
00010000
00001000
00010000
,
00011000
00011000
00011000
00011000
00000000
00000000
00000000
00000000
,
00000000
00000000
00000000
00000000
;
