
//----- song ID: brkn -----//
#TITLE:Broken;
#ARTIST:dj TAKA feat.AiMEE;
#BANNER:Broken.png;
#BACKGROUND:Broken-bg.png;
#CDTITLE:./CDTitles/REFLEC BEAT.png;
#MUSIC:Broken.ogg;
#SAMPLESTART:61.622;
#SAMPLELENGTH:15;
#BPMS:0=148;
#STAGE:2;
#NOTES:
     dance-single:
     :
     Beginner:
     2:
     :
0000
0000
0000
0000
,
0000
0000
0000
0000
,
0000
0000
0000
0000
,
0000
0000
0000
0000
,
0000
0000
0000
0000
,
0000
0000
0000
0000
,
1000
0000
0000
0000
,
0100
0000
0000
0000
,
1000
0000
0000
0000
,
0000
0000
0000
0000
,
0001
0000
0000
0000
,
0010
0000
0000
0000
,
0001
0000
0000
0000
,
0000
0000
0000
0000
,
0001
0000
0000
0000
,
0001
0000
0000
0000
,
0100
0000
0000
0000
,
0000
0000
0000
0000
,
1001
0000
0000
0000
,
0000
0000
0000
0000
,
1001
0000
0000
0000
,
0000
0000
0000
0000
,
2000
0000
0000
0000
,
3000
0000
0000
0000
,
0010
0000
0000
0000
,
0100
0000
0000
0000
,
0002
0000
0000
0000
,
0003
0000
0000
0000
,
0010
0000
0000
0000
,
0100
0000
0000
0000
,
0001
0000
0001
0000
,
0010
0000
0000
0000
,
0001
0000
0000
0000
,
0000
0000
0000
0000
,
0100
0000
0100
0000
,
0010
0000
0000
0000
,
1000
0000
0000
0000
,
0000
0000
0000
0000
,
1000
0000
0000
0000
,
0100
0000
0000
0000
,
0001
0000
0001
0000
,
0100
0000
0000
0000
,
0001
0000
0000
0000
,
0010
0000
0000
0000
,
1000
0000
1000
0000
,
0010
0000
0000
0000
,
2000
0000
0000
0000
,
3000
0000
0000
0000
,
0002
0000
0000
0000
,
0003
0000
0000
0000
,
1001
0000
0000
0000
,
0000
0000
0000
0000
,
0200
0000
0000
0000
,
0300
0000
0000
0000
,
0001
0000
0000
0000
,
0010
0000
0000
0000
,
0001
0000
0000
0000
,
0100
0000
0000
0000
,
1000
0000
0000
0000
,
0100
0000
0000
0000
,
1000
0000
0000
0000
,
0010
0000
0000
0000
,
1001
0000
0000
0000
,
0000
0000
0000
0000
;
#NOTES:
     dance-single:
     :
     Easy:
     5:
     :
0000
0000
0000
0000
,
0000
0000
0000
0000
,
0000
0000
0000
0000
,
0000
0000
0000
0000
,
0000
0000
0000
0000
,
0000
0000
0000
0000
,
0001
0100
0001
0000
,
1000
0010
1000
0000
,
0001
0010
0001
0000
,
1000
0000
0000
0000
,
0001
0010
0001
0100
,
0001
0000
0000
0000
,
1000
0010
1000
0100
,
1000
0000
0000
0000
,
1000
0100
0010
0000
,
0001
0100
0010
0000
,
0100
0000
0100
0000
,
1001
0000
0000
0000
,
2000
0000
0000
3000
,
0002
0000
0000
0003
,
0200
0000
0000
0300
,
0020
0000
0000
0030
,
0110
0000
0000
0000
,
1000
0000
0000
0000
,
1001
0000
0000
0000
,
0001
0001
0100
0000
,
0002
0000
0000
0003
,
0200
0000
0000
0300
,
0020
0000
0000
0000
,
0030
0000
0000
0000
,
1000
0010
1000
0000
,
0010
0100
0010
0000
,
0100
0001
0100
0001
,
1000
0000
0000
0000
,
0001
0010
0001
0000
,
0010
0100
0010
0000
,
0100
1000
0100
1000
,
0001
0000
0000
0000
,
1000
0010
0100
0000
,
0110
0000
0000
0000
,
1000
0100
0010
0000
,
0110
0000
0000
0000
,
0001
0010
0100
0000
,
0110
0000
0000
0000
,
0001
0000
0100
0000
,
0020
0000
0000
0030
,
1000
1000
0010
0000
,
1000
1000
0001
0000
,
1000
0100
1000
0100
,
0010
0000
0000
0000
,
0002
0000
0000
0000
,
0003
0000
0000
0000
,
2000
0000
0000
0000
,
3000
0000
0000
0000
,
0001
0000
0100
0000
,
0010
1000
0010
0000
,
1000
0000
0100
0000
,
0010
0001
0010
0000
,
0001
0001
0100
0000
,
1000
1000
0100
0000
,
1001
0000
0110
0000
,
1001
0000
0000
0000
,
1001
0000
0000
0000
,
0000
0000
0000
0000
;
#NOTES:
     dance-single:
     :
     Medium:
     9:
     :
0000
0000
0000
0000
,
0000
0000
0000
0000
,
0000
0000
0000
0000
,
0000
0000
0000
0000
,
0000
0000
0000
0000
,
0000
0000
0000
0000
,
0001
0100
0001
0000
1000
0010
1000
0000
,
0100
0010
0100
0000
1000
0001
1000
0000
,
0001
0000
0010
0000
0100
1000
0001
0000
,
1000
0000
0000
0100
0000
0000
0110
0000
0000
0000
0001
0000
0001
0000
0000
0000
,
1000
0100
1000
0000
0100
0001
0100
0000
,
1000
0100
1000
0000
0010
0100
0001
0000
,
0001
0100
0001
0000
0100
1000
0100
0000
,
0001
0100
0001
0000
0010
0100
1000
0000
,
0001
0000
0010
0000
1000
0010
0001
0000
,
1000
0000
0100
0000
0001
0100
1000
0000
,
0001
0100
0010
0000
1000
0100
0010
0000
,
0110
0000
0000
0000
1000
0001
1000
0000
,
0002
0000
0203
0000
,
0320
0030
0110
0000
,
2000
0000
3200
0000
,
0310
0000
0110
0000
,
0002
0000
0000
0000
0003
0000
0001
0200
,
0000
0000
0000
0000
0300
0000
0100
0020
,
0000
0000
0000
0000
0030
0000
0010
1000
,
0000
0010
0100
0100
,
0001
0000
0000
0001
2000
0000
0000
0000
,
3000
1000
0010
0001
,
0020
0000
0000
0000
0030
0000
0010
0100
,
0000
0000
0110
0000
1001
0000
1000
0100
,
0010
0000
0010
0000
0010
0001
1000
0000
,
0010
0000
0010
0000
0010
1000
0001
0000
,
0100
0001
1000
0000
0100
1000
0001
0000
,
0011
1000
1100
0100
,
0220
0000
0000
0000
,
0330
0000
0000
0000
1000
0000
0000
1000
,
0002
0000
0000
0000
,
1003
0000
1000
0000
0100
0010
0100
0000
,
1000
0000
0001
0100
0000
0010
1000
0020
,
0000
0000
0000
0000
0030
1000
0010
2000
,
0000
0000
0000
3001
0000
0000
0000
0001
,
0100
0000
1000
0000
0100
0001
0000
1000
,
0000
0000
0000
1100
0000
0000
0100
0010
,
0001
0000
1001
0000
1000
0001
1000
0000
,
0001
0100
0000
0001
0010
0000
0001
0100
,
0000
0000
0000
0001
0000
0001
1000
0000
,
0110
0000
0000
1001
0000
0000
0100
0010
,
0100
0000
0000
1001
0000
0000
1000
0010
,
0100
0000
0001
0100
0000
1000
0000
0100
,
0000
0000
0000
0000
0001
0010
0001
0010
,
0100
0000
1000
2000
0000
0000
0000
0000
,
3000
0000
0000
0000
0010
0000
0000
0010
,
0200
0000
0000
0300
,
0110
0000
0110
0000
0001
1000
0001
0000
,
1000
0000
0000
0010
0000
0000
0010
0000
0100
0000
0000
0001
0000
0000
0001
0000
,
2000
0000
3000
0000
1000
0001
1000
0000
,
0001
0000
0000
0010
0000
0000
0010
0000
0100
0000
0000
1000
0000
0000
1000
0000
,
0002
0000
0003
0000
0001
1000
0001
0000
,
1000
0000
0100
0000
0010
0001
0100
0000
,
0110
0000
1001
0000
0001
1000
0001
0000
,
0011
0000
1100
0000
,
1001
0000
0110
0000
1000
0001
1000
0000
,
1001
0000
0000
0000
,
0000
0000
0000
0000
;
#NOTES:
     dance-single:
     :
     Hard:
     13:
     :
0000
0000
0000
0000
,
0000
0000
0000
0000
,
0000
0000
0000
0000
,
0000
0000
0000
0000
,
0000
0000
0000
0000
,
0000
0000
0000
0000
,
0001
0010
0001
0010
0001
0100
0001
0100
,
0010
1000
0010
1000
0100
1000
0100
1000
,
0001
0100
0001
0100
0001
0010
0001
0010
,
0001
0000
0000
0001
1000
0000
0010
0000
0000
0000
0010
0100
0010
0100
0010
0000
,
1000
0000
0010
0000
0100
0000
0001
0010
0000
0000
0001
0000
0100
0000
0010
1000
,
0000
0000
0100
0000
0010
0000
0001
1000
0000
0000
0100
0010
0000
0000
0001
0000
,
0100
0000
0001
0000
0010
0000
0100
1000
0000
0000
0010
0000
0100
0000
0001
0010
,
0000
0000
0001
0000
0100
0000
0010
1000
0010
0000
0010
0000
0100
0000
0100
0000
,
0001
0000
0100
0000
0010
0000
1000
0100
0000
0000
1000
0000
0010
0000
0100
0001
,
0000
0000
0010
0000
0100
0000
1000
0001
0000
0000
0010
0100
0000
0000
1000
0000
,
0010
0000
1000
0000
0100
0000
0010
0001
0000
0000
0100
0000
0010
0000
1000
0100
,
0000
0000
1000
0000
0010
0000
0100
0001
0100
0000
0100
0000
0010
0000
0010
0000
,
0220
0300
2000
3030
,
0220
0030
0002
0303
,
2002
0003
0200
3300
,
2002
0000
3000
0000
1003
0100
0010
0001
,
2002
0000
0000
0000
3000
0000
2003
0020
,
0000
0000
0000
0000
3000
0000
0230
0002
,
0000
0000
0000
0000
0300
0000
2003
0200
,
3000
0302
0203
2300
,
0002
0000
3003
0002
0200
0000
0000
0000
,
0003
0302
0023
2030
,
3020
0000
0000
0000
0000
0000
0031
1000
,
0000
0000
0020
0000
2030
0000
3001
0100
,
0010
1000
0010
1000
0010
1000
0100
0010
,
0001
0100
0001
0100
0001
0010
1000
0010
,
0001
0100
0010
1010
0000
1100
0000
0011
,
0000
0010
0002
0000
0203
0000
0320
0000
,
1030
0100
1000
0100
0001
0100
0001
0100
,
1000
0010
1000
0010
0001
0010
0001
0010
,
1000
0100
0010
0001
1000
0100
0010
0001
,
1000
0100
1000
0000
0001
0100
0001
0000
1000
0001
1000
0001
1000
0000
0000
0000
,
0001
1000
0100
0010
0001
0100
0010
1010
,
1000
0001
0100
0001
0010
0100
0010
0011
,
0001
0000
0100
0001
0100
0000
0010
0100
0010
0000
1000
0010
1000
0000
0001
0000
,
0100
1000
0100
0001
1000
0010
0001
0010
,
1000
0000
0010
0100
0010
0000
0100
0001
0100
0000
0001
0000
1000
0000
1100
0000
,
0100
0000
1000
0010
1000
0000
0001
1000
0001
0000
0010
0000
0100
0000
1100
0000
,
1000
1010
0000
0001
0011
0000
0100
0110
,
0000
0000
0000
0000
0000
0000
0001
0000
0001
0000
1000
0001
1000
0001
1000
0000
,
0001
0000
0100
0010
1000
0000
0010
1000
0001
0000
0010
0000
0100
0000
1000
0000
,
0001
0000
1000
0100
0010
0000
0100
0010
0001
0000
0100
0000
0010
0000
1000
0000
,
0010
0100
1000
0100
0010
0100
0001
0100
,
0001
0010
0100
1000
0001
0001
1000
1000
,
0020
0000
0100
0200
0000
0000
0000
0000
,
0000
0330
0220
0330
,
2002
0000
0000
3003
,
1000
0100
1000
0000
0001
0100
0001
0000
1000
0001
1000
0001
1000
0000
0000
0000
,
0001
0000
0000
0001
0100
0000
0100
0000
1000
0000
0000
1000
0100
0000
0100
0000
,
0002
0000
0000
0000
1003
0000
0100
0010
0001
0000
0100
0000
0001
0000
0010
0000
,
0001
0000
0000
0001
0010
0000
0010
0000
1000
0000
0000
1000
0010
0000
0010
0000
,
0002
0000
0000
0000
1003
0000
0010
0100
0010
0000
1000
0001
1000
0000
0001
0000
,
2000
3200
0320
0032
2003
3020
0230
0302
,
1003
0000
0000
0000
0001
0010
0100
0000
1000
0010
0100
0000
0001
0010
0100
0000
,
1000
0000
0000
1000
0010
0000
0010
0000
0100
0000
0100
0000
0001
0000
0001
0000
,
1001
0000
0000
0000
0110
0000
0000
0000
1001
0000
1000
0100
0010
0000
0001
0000
,
1001
0000
0000
0000
,
0000
0000
0000
0000
;
#NOTES:
     dance-double:
     :
     Easy:
     5:
     :
00000000
00000000
00000000
00000000
,
00000000
00000000
00000000
00000000
,
00000000
00000000
00000000
00000000
,
00000000
00000000
00000000
00000000
,
00000000
00000000
00000000
00000000
,
00000000
00000000
00000000
00000000
,
10000000
10000000
00010000
00000000
,
10000000
00100000
01000000
00000000
,
00001000
00010000
00001000
00000000
,
00011000
00000000
00000000
00000000
,
00010000
00000100
00001000
00000100
,
00001000
00000000
00000000
00000000
,
00000001
00000010
00000100
00000010
,
00000001
00000000
00000000
00000000
,
00000001
00001000
00000100
00000000
,
00001000
00000001
00000100
00000000
,
00000010
00000000
00010000
00000000
,
00011000
00000000
00000000
00000000
,
00020000
00000000
00000000
00030000
,
02000000
00000000
00000000
03000000
,
20000000
00000000
00000000
30000000
,
00020000
00000000
00000000
00030000
,
10010000
00000000
00000000
00000000
,
00010000
00000000
00000000
00000000
,
01100000
00000000
00000000
00000000
,
00001000
00000000
00000000
00000000
,
00022000
00000000
00000000
00000000
,
00033000
00000000
00000000
00000000
,
00010000
00000100
00001000
00000100
,
00000010
00000000
00000000
00000000
,
00000001
00001000
00000001
00000000
,
00000100
00000010
00000100
00000000
,
00000010
00010000
00000010
00010000
,
00001000
00000000
00000000
00000000
,
00010000
00001000
01000000
00000000
,
00010000
01000000
00010000
00000000
,
00100000
00010000
10000000
00010000
,
10000000
00000000
00000000
00000000
,
10000000
01000000
00100000
00000000
,
01100000
00000000
00000000
00000000
,
01000000
00100000
00001000
00000000
,
00011000
00000000
00000000
00000000
,
00001000
00010000
00000010
00000000
,
00000110
00000000
00000000
00000000
,
00000001
00000000
00001000
00000000
,
00002002
00000000
00000000
00003003
,
00000001
00000001
00000100
00000000
,
00000001
00000001
00000010
00000000
,
00000001
00001000
00000100
00010000
,
00001000
00000000
00000000
00000000
,
00022000
00000000
00000000
00000000
,
00033000
00000000
00000000
00000000
,
02200000
00000000
00000000
00000000
,
03300000
00000000
00000000
00000000
,
10000000
00000000
00010000
00000000
,
01000000
00100000
01000000
00000000
,
00100000
00000000
01000000
00000000
,
00001000
00010000
00001000
00000000
,
00010000
00010000
00000100
00000000
,
00001000
00001000
00000100
00000000
,
00000010
00000100
00000010
00000000
,
00001001
00000000
00000110
00000000
,
00001001
00000000
00000000
00000000
,
00000000
00000000
00000000
00000000
;
#NOTES:
     dance-double:
     :
     Medium:
     9:
     :
00000000
00000000
00000000
00000000
,
00000000
00000000
00000000
00000000
,
00000000
00000000
00000000
00000000
,
00000000
00000000
00000000
00000000
,
00000000
00000000
00000000
00000000
,
00000000
00000000
00000000
00000000
,
10000000
00100000
10000000
00000000
00010000
00100000
00010000
00000000
,
01000000
00001000
00010000
00000000
00001000
00010000
00000100
00000000
,
00001000
00000010
00001000
00000000
00000001
00000100
00000001
00000000
,
00000100
00000000
00000000
00000100
00000000
00000000
00000110
00000000
00000000
00000000
00000001
00000000
00000001
00000000
00000000
00000000
,
00001000
00000010
00000100
00000000
00000001
00000100
00000010
00000000
,
00001000
00000100
00010000
00000000
00001000
00000000
00011000
00000000
,
00010000
00001000
00100000
00000000
00010000
00100000
01000000
00000000
,
10000000
00010000
10000000
00000000
00100000
00000000
10010000
00000000
,
00010000
01000000
00100000
00000000
10000000
00100000
01000000
00000000
,
00010000
00100000
00001000
00000000
00010000
00000000
00011000
00000000
,
00001000
00010000
00000100
00000000
00001000
00000100
00000010
00000000
,
00000001
00000000
00001001
00000000
00001000
00000001
00001000
00000000
,
00000002
00000000
00000203
00000000
,
00002300
00003000
00011000
00000000
,
00020000
00000000
00230000
00000000
,
10300000
00000000
00000000
00000000
10000000
01000000
10000000
00000000
,
00020000
00000000
00000000
00000000
00030000
00000000
00010000
00200000
,
00000000
00000000
00000000
00000000
00300000
00000000
00100000
00002000
,
00000000
00000000
00000000
00000000
00003000
00000000
00001000
00010000
,
00000000
00001000
00000010
00000010
,
00000001
00000000
00000000
00000001
00002000
00000000
00000000
00000000
,
00003000
00000001
00000100
00001000
,
00020000
00000000
00000000
00000000
00030000
00000000
00010000
00001000
,
00000000
00000000
00002000
00000000
00023000
00000000
01030000
00100000
,
01000000
00000000
01000000
00000000
01000000
10000000
00010000
00000000
,
00100000
00000000
00100000
00000000
00100000
00001000
00010000
00000000
,
00001000
00010000
00000010
00000000
00001000
00000100
00000010
00000000
,
00000011
00000001
00000101
00000100
,
00000220
00000000
00000000
00000000
,
00000330
00000000
00000000
00000000
00001000
00000000
00000000
00001000
,
00000002
00000000
00000000
00000000
,
00001003
00000000
00001000
00000000
00000010
00000100
00000010
00000000
,
00001000
00000000
00000100
00010000
00000000
00001000
00010000
00001000
,
00000000
00000000
00011000
00000000
00010000
00001000
01000000
00010000
,
01000000
00000000
00000000
01100000
00000000
00000000
00000000
00100000
,
10000000
00000000
01000000
00000000
00010000
01000000
00000000
01000000
,
10000000
00000000
00000000
10010000
00000000
00000000
00000000
00000000
,
10000000
01000000
00010000
00001000
,
00000010
00000001
00000000
00000010
00001000
00000000
00000010
00000001
,
00000000
00000000
00000000
00000001
00000000
00000001
00001000
00000000
,
00000001
00000100
00000000
00001010
00000000
00000000
00000010
00010000
,
00001000
00010000
00000000
00011000
00000000
00000000
00010000
00001000
,
00100000
00000000
00010000
01000000
00000000
10000000
00000000
01000000
,
00000000
00000000
00000000
00000000
00010000
00100000
01000000
10000000
,
00010000
00000000
00100000
00200000
00000000
00000000
00000000
00000000
,
00300000
00000000
00000000
00000000
00001000
00000000
00000000
00001000
,
00020000
00000000
00000000
00030000
,
00011000
00000000
00011000
00000000
00010000
00001000
00010000
00000000
,
00000010
00000000
00000000
00001000
00000000
00000000
00001000
00000000
00000010
00000000
00000000
00000100
00000000
00000000
00000100
00000000
,
00000001
00000000
00001001
00000000
00001000
00000001
00001000
00000000
,
00000100
00000000
00000000
00010000
00000000
00000000
00010000
00000000
00001000
00000000
00000000
00010000
00000000
00000000
00010000
00000000
,
00001000
00000000
00011000
00000000
00010000
00001000
01000000
00000000
,
00010000
00000000
00100000
00000000
10000000
00100000
00010000
00000000
,
00110000
00000000
00100000
00000000
00001000
00010000
00001000
00000000
,
00010000
00000000
00001000
00000000
00000010
00000100
00000010
00000000
,
00000001
00000000
00001001
00000000
00001000
00000010
00010000
00000000
,
00011000
00000000
00000000
00000000
,
00000000
00000000
00000000
00000000
;
#NOTES:
     dance-double:
     :
     Hard:
     13:
     :
00000000
00000000
00000000
00000000
,
00000000
00000000
00000000
00000000
,
00000000
00000000
00000000
00000000
,
00000000
00000000
00000000
00000000
,
00000000
00000000
00000000
00000000
,
00000000
00000000
00000000
00000000
,
10000000
01000000
10000000
01000000
00100000
00010000
00100000
00010000
,
00001000
00000100
00001000
00000100
00000010
00000001
00000010
00000000
,
00000001
00000100
00000001
00000100
00000010
00001000
00000010
00001000
,
00010000
00000000
00000000
00010000
01000000
00000000
00100000
00000000
00000000
00000000
10000000
00010000
10000000
00010000
10000000
00000000
,
00010000
00000000
01000000
00000000
00100000
00000000
10000000
00100000
00000000
01000000
00100000
00000000
00010000
00000000
00001000
00000100
,
00000000
00000010
00000100
00000000
00000001
00000000
00000010
00000001
00000000
00000000
00001000
00000000
00001000
00000000
00000000
00000000
,
00001000
00000000
00000100
00000000
00000010
00000000
00000001
00000010
00000000
00000100
00000010
00000000
00001000
00000000
00010000
01000000
,
00000000
00100000
01000000
00000000
10000000
00000000
00100000
10000000
00000000
00000000
00010000
00000000
00010000
00000000
00000000
00000000
,
10000000
00000000
00010000
00000000
00100000
00000000
01000000
10000000
00000000
00010000
01000000
00000000
00001000
00000000
00010000
00001000
,
00000000
00000010
00000100
00000000
00001000
00000000
00000001
00000010
00000000
00000000
00000001
00000000
00000001
00000000
00000000
00000000
,
00000001
00000000
00001000
00000000
00000010
00000000
00000100
00000001
00000000
00001000
00000100
00000000
00010000
00000000
00001000
00010000
,
00000000
00100000
01000000
00000000
00010000
00000000
10000000
00100000
00000000
00000000
10000000
00000000
10000000
00000000
00000000
00000000
,
20200000
00300000
00020000
30030000
,
00220000
00030000
00002000
00303000
,
00022000
00030000
00000200
00003300
,
00000220
00000000
00000030
00000000
00000301
00000010
00000100
00001000
,
00002002
00000000
00000000
00000000
00003003
00000000
00000002
00000200
,
00000000
00000000
00000000
00000000
00000303
00000000
00002000
00020000
,
00000000
00000000
00000000
00000000
00033000
00000000
00010000
00200000
,
00000000
20300000
32000000
03020000
,
00032000
00000000
00003000
00002000
00020000
00000000
00000000
00000000
,
00033000
00020000
00032000
00003020
,
00000032
00000000
00000000
00000000
00000000
00000000
00001003
00000001
,
00000000
00000000
00000002
00000000
00000203
00000000
00000310
00001000
,
00000001
00000010
00000100
00001000
00000010
00000100
00001000
00010000
,
01000000
00100000
00010000
01000000
00100000
10000000
00100000
00010000
,
00100000
00000000
10000000
00100000
10000000
00000000
00010000
01000000
00010000
00000000
00100000
00000000
00001000
00000000
00011000
00000000
,
00000000
00020000
00032000
00003020
,
00000031
00000100
00001000
00000100
00000001
00000010
00001000
00010000
,
01000000
10000000
00100000
00010000
00100000
10000000
01000000
00010000
,
00001000
00001000
00000010
00000010
00000001
00000001
00001000
00001000
,
00000001
00000100
00000001
00000000
00001000
00000100
00001000
00000000
00000001
00001000
00000001
00001000
00000001
00000000
00000000
00000000
,
00001000
00000010
00000100
00000001
00001000
00000010
00010000
00011000
,
00001000
01000000
00010000
00100000
00010000
01000000
00100000
10100000
,
10000000
00000000
00010000
01000000
00010000
00000000
00100000
00001000
00100000
00000000
00001000
00010000
00001000
00000000
00010000
00000000
,
00001000
00000010
00000001
00001000
00000100
00000001
00000100
00001000
,
00000001
00000000
00000100
00000010
00001000
00000000
00000010
00010000
00001000
00000000
00001000
00000000
00010000
00000000
00010000
00000000
,
00100000
00000000
01000000
00010000
10000000
00000000
01000000
10000000
00010000
00000000
00010000
00000000
00100000
00000000
00100000
00000000
,
00001000
00011000
00000000
00010000
00010010
00000000
00001000
00101000
,
00000000
00000000
00000000
00000000
00000000
00000000
00011000
00000000
00000000
00000000
00001000
00010000
00001000
00010000
00001000
00000000
,
00010000
00000000
00000100
00001000
00000010
00000000
00000100
00000001
00000010
00000000
00000100
00000000
00001000
00000000
00000010
00000000
,
00000100
00000000
00001000
00010000
00100000
00000000
01000000
00010000
00100000
00000000
01000000
00000000
10000000
00000000
01000000
00000000
,
00010000
01000000
00100000
00001000
00010000
00100000
00010000
00001000
,
00000100
00000010
00001000
00000100
00000010
00000010
00000001
00000001
,
00002000
00000000
00000010
00000020
00000000
00000000
00000000
00000000
,
00000000
00003030
00000220
00000330
,
00002002
00000000
00000000
00003003
,
00000001
00000010
00000001
00000000
00001000
00000010
00001000
00000000
00000001
00001000
00000001
00001000
00000001
00000000
00000000
00000000
,
00001000
00000000
00000000
00000100
00010000
00000000
00010000
00000000
00001000
00000000
00000000
00001000
00100000
00000000
00100000
00000000
,
00020000
00000000
00000000
00000000
01030000
00000000
00100000
10000000
00100000
00000000
01000000
00010000
10000000
00000000
00000000
00000000
,
01000000
00000000
00000000
01000000
00100000
00000000
00100000
00000000
00001000
00000000
00000000
00001000
00010000
00000000
00010000
00000000
,
00000020
00000000
00000000
00000000
00001030
00000000
00000100
00001000
00000001
00000000
00000100
00000010
00001000
00000000
00000001
00000000
,
00000020
00002030
00023000
02030000
23000000
30200000
00320000
00032000
,
00003100
00000000
00000000
00000000
00000001
00000010
00000100
00000000
00001000
00000100
00000010
00000000
00000001
00000100
00000010
00000000
,
00010000
00000000
00000000
00010000
00001000
00000000
00001000
00000000
01000000
00000000
01000000
00000000
00100000
00000000
00100000
00000000
,
01100000
00000000
00000000
00000000
10010000
00000000
00000000
00000000
10000000
00000000
01000000
00100000
00001000
00000000
00010000
00000000
,
00011000
00000000
00000000
00000000
,
00000000
00000000
00000000
00000000
;
