
//----- song ID: blem -----//
#TITLE:Black Emperor;
#ARTIST:黒魔;
#ARTISTTRANSLIT:Kokuma;
#BANNER:Black Emperor.png;
#BACKGROUND:Black Emperor-bg.png;
#CDTITLE:./CDTitles/SDVX II -infinite -infection-.png;
#MUSIC:Black Emperor.ogg;
#SAMPLESTART:90.349;
#SAMPLELENGTH:15;
#BPMS:0=180,84=185,180=180,196=170,208=185,253=30,254=190,354=195;
#STAGE:28;
#NOTES:
     dance-single:
     :
     Beginner:
     5:
     :
0000
0000
0000
0000
,
0000
0000
0000
0000
,
0000
0000
0000
0000
,
0000
0000
0000
0000
,
0000
0000
0000
0000
,
0000
0000
0000
0000
,
0001
0000
0001
0000
,
0010
0000
0010
0000
,
0100
0000
0100
0000
,
1000
0000
0000
0000
,
0000
0000
0000
1001
,
0000
0000
0000
0000
,
1000
0000
0100
0000
,
1000
0000
0000
0000
,
0010
0000
0100
0000
,
0010
0000
0000
0000
,
0001
0000
0100
0000
,
0000
0002
0000
0000
,
0003
0000
0000
0000
,
2000
0000
0000
0000
,
3000
0000
0000
0000
,
1000
0000
0100
0000
,
0010
0010
1000
0000
,
0010
0000
0001
0000
,
0010
0000
0000
0000
,
0001
0000
0100
0000
,
0010
0010
0001
0000
,
0010
0000
1000
0000
,
0010
0000
0000
0000
,
1000
1000
0100
0000
,
0010
1000
0010
0000
,
0100
0000
0001
0000
,
0001
0000
0000
0000
,
0001
0001
0100
0000
,
0010
0001
0010
0000
,
0100
0000
1000
0000
,
1000
0000
0000
0000
,
1001
0000
0000
0000
,
0110
0000
0000
0000
,
1001
0000
0000
0000
,
0110
0000
0000
0000
,
0001
0001
0010
0000
,
0010
0100
0010
0000
,
0110
0000
0000
0000
,
1001
0000
0000
0000
,
2000
0000
0000
0000
,
3000
0000
0000
0000
,
0002
0000
0000
0000
,
0003
0000
0000
0000
,
1001
0000
0000
0000
,
0000
0000
0000
0000
,
0000
0000
0000
0000
,
0000
0001
0000
0001
,
0000
0010
0000
0100
,
0000
0010
0000
0010
,
0000
0001
0000
0000
,
0000
1000
0000
1000
,
0000
0010
0000
0100
,
0000
0010
0000
0010
,
0000
1000
0000
0000
,
0000
0001
0000
0100
,
0000
1000
0000
0000
,
0000
1000
0000
0100
,
0000
0001
0000
0000
,
0001
0000
0010
0000
,
0100
0000
1000
0000
,
0100
0000
0010
0000
,
0000
0000
0001
0001
,
0010
0000
0100
0001
,
0100
0000
0010
0001
,
0100
0000
0010
0000
,
0000
0000
0001
0000
,
0010
0000
1000
0000
,
0000
0000
1001
0000
,
0000
0000
0000
0000
,
0000
0000
1000
1000
,
0100
0000
0010
1000
,
0010
0000
0100
1000
,
0010
0000
0100
0000
,
0000
0000
1000
0000
,
0100
0000
0001
0000
,
0000
0000
1001
0000
,
0000
0000
0000
0000
,
0000
0000
0001
0000
,
0000
0000
0100
0000
0000
0000
0000
0010
,
0000
0010
0000
0000
1001
0000
0000
0000
,
0000
0110
0000
0000
,
1001
0000
1000
0001
,
1000
0000
1001
0000
,
0000
0000
0000
0000
,
0000
0000
0000
0010
,
0000
1001
0000
0000
0000
0000
0000
0000
,
0000
0000
0000
0000
;
#NOTES:
     dance-single:
     :
     Easy:
     9:
     :
0000
0000
0000
0000
,
0000
0000
0000
0000
,
0000
0000
0000
0000
,
0000
0000
0000
0000
,
0000
0000
0000
0000
,
0000
0000
0000
0000
,
0001
0010
1000
0010
,
0001
0010
1000
0010
,
0001
0100
1000
0100
,
0001
0001
1000
2000
,
0000
0000
3000
2002
,
0000
0000
0000
3003
,
1000
0000
0000
0100
0000
0000
0010
0000
,
1001
0000
0000
0000
,
0001
0000
0000
0100
0000
0000
0010
0000
,
1000
0100
1000
0001
,
1000
0000
0000
0100
0000
0000
0010
0000
,
0001
0011
0000
0000
,
1000
0100
0001
0100
,
0220
0000
0000
0000
,
0330
0000
0000
0000
,
1000
0001
1000
0001
,
0100
0000
0010
0000
0100
0010
0100
0000
,
0001
0001
0001
0000
,
1000
1000
1000
0000
,
0001
1000
0001
1000
,
0100
0000
0010
0000
0100
0010
0100
0000
,
1000
1000
1000
0000
,
0001
0001
0001
0000
,
1000
0100
0010
0001
,
0010
0100
0010
0000
0001
1000
0001
0000
,
1000
0100
0010
0001
,
0100
0010
1000
0000
0001
0000
0000
0000
,
0001
0010
0100
1000
,
0100
0010
0100
0000
1000
0001
1000
0000
,
0001
0010
0100
1000
,
0010
0100
0001
0000
1000
0000
0000
0000
,
1010
0000
0000
0011
0000
0000
1001
0000
,
1000
0001
1000
0001
1000
0000
0000
0000
,
0101
0000
0000
1100
0000
0000
1001
0000
,
0001
0100
0010
1000
,
0001
0000
0100
0000
0001
0010
0001
0000
,
1000
0000
0100
0000
1000
0010
1000
0000
,
0001
0000
0010
0100
0000
0000
1000
0000
,
0010
0100
0000
0000
0110
0000
0000
0000
,
0002
0000
0000
0003
,
0020
0000
0000
0030
,
0200
0000
0000
0300
,
2000
0000
0000
3000
,
2002
0000
0000
0000
,
0000
0000
0000
0000
,
3003
0000
0000
0000
,
0000
0001
0000
0010
,
0000
0000
0000
0100
0000
1000
0000
0010
0000
1000
0000
0001
,
0000
0100
0000
0001
0000
0000
0000
0000
0000
0100
0000
0000
,
0000
0000
0000
0001
0000
0100
0000
0001
0000
1000
0000
0010
,
0000
0100
0000
0010
0000
0000
0000
0000
0000
1000
0000
0000
,
0000
0000
0000
1000
0000
0010
0000
0100
0000
0001
0000
0010
,
0000
0100
0000
1000
0000
0000
0000
0000
0000
0001
0000
0000
,
0000
0000
0000
1000
0000
0100
0000
1000
0000
0010
0000
0100
,
0000
0001
0000
0100
0000
0000
0000
0100
0000
0001
0000
0000
,
0000
0000
0000
1000
0000
0000
0000
1000
0000
0010
0000
0000
,
0000
1000
1000
0001
,
0001
1001
1000
0001
,
1000
0001
0100
0010
,
0100
0010
1000
0001
,
1000
0100
0010
0000
,
0001
0001
2000
0000
,
0000
3000
0200
0000
,
0000
0300
0010
0001
,
0010
0001
0011
0000
,
0101
0000
0002
0000
,
0000
0003
0200
0000
,
0000
0300
0010
1000
,
0010
1000
1010
0000
,
1100
0000
1000
0100
,
0001
0100
1000
1000
,
0010
0010
0100
0001
,
0010
0001
0100
0010
,
1000
0000
0001
0100
,
0001
0100
0010
1000
,
0001
1000
0100
0010
,
0001
1000
0100
0010
,
0001
0000
0000
0000
0011
0000
0000
0001
,
0000
0000
1001
0000
0000
1000
0000
0001
,
0000
1000
0000
0000
2000
0000
0000
0000
,
3000
0020
0000
0030
,
0200
0000
0300
0000
,
0000
0000
1001
0100
,
0001
0100
1001
0100
,
1000
0100
1001
0110
,
0000
0110
0000
0000
0000
0000
0000
0000
,
0000
0000
0000
0000
;
#NOTES:
     dance-single:
     :
     Medium:
     14:
     :
0000
0000
0000
0000
,
0000
0000
0000
0000
,
0000
0000
0000
0000
,
0000
0000
0000
0000
,
0000
0000
0000
0000
,
0000
0000
0000
0000
,
0001
0000
0001
1000
0000
0000
0010
0000
0010
0100
0000
0000
,
0010
1010
0010
0011
,
0100
1100
0100
0101
,
1001
0000
0000
0110
0000
0000
1001
0000
0000
0100
0000
0010
,
0000
0100
0000
0010
0000
0100
0000
0000
0000
2002
0000
0000
,
0000
0000
0000
3003
,
0001
0000
0000
0010
0000
0000
1000
0000
0000
0010
0000
0000
0001
0000
0000
0000
,
1001
0000
0000
0000
,
2000
0000
0000
3200
0000
0000
0320
0000
,
0000
0000
0000
0030
,
0001
0000
0000
0100
0000
0000
1000
0000
0000
0100
0000
0000
0001
0000
0000
1000
,
0000
1000
0002
0000
0000
0000
0000
0000
,
0013
0000
0000
0001
0000
0000
0010
0000
0100
0000
1000
0000
0010
0000
1000
0000
,
0200
0000
0000
0000
,
0300
0000
0000
0100
0000
0000
0100
0000
0000
0100
0000
0000
1000
0000
0001
0000
1000
0000
0001
0000
0000
0000
0000
0000
,
1000
0000
0000
0100
0000
0000
1000
0000
0010
0000
1000
0000
0100
0000
0000
0000
,
0010
0001
0000
0010
0000
0000
0001
0000
0100
0000
0000
1000
0000
0000
0100
0000
,
0001
0000
1000
0001
0000
1000
0001
0000
0010
0000
0000
0010
0000
0000
0010
0000
,
0001
0100
0001
0100
0010
0000
0110
0000
,
0001
0000
0000
0100
0000
0000
0001
0000
0010
0000
0001
0000
0100
0000
0000
0000
,
0010
1000
0000
0010
0000
0000
1000
0000
0100
0000
0000
0001
0000
0000
0100
0000
,
1000
0000
0001
1000
0000
0001
1000
0000
0010
0000
0000
0010
0000
0000
0010
0000
,
1000
0100
1000
0100
0010
0000
0110
0000
,
0001
0100
0010
1000
0100
0010
0001
0000
,
1000
0100
0000
0010
0000
0100
1000
0000
0100
0000
0000
1000
0000
0000
0001
0000
,
0100
0000
0010
1000
0000
0001
1000
0000
0001
0000
0000
0010
0000
0000
0100
0000
,
1000
0010
0001
0010
1000
0100
0010
0100
,
1000
0010
0100
0001
0010
0100
1000
0000
,
0001
0010
0000
0100
0000
0010
0001
0000
0010
0000
0000
0001
0000
0000
1000
0000
,
0010
0000
0100
0001
0000
1000
0001
0000
1000
0000
0000
0100
0000
0000
0010
0000
,
0001
0100
1000
0100
0001
0010
0100
0010
,
0001
0100
0001
0100
0001
0010
0001
0000
,
0011
1010
1100
0101
,
1000
0010
1000
0010
1000
0100
1000
0000
,
1010
0011
0101
1100
,
0001
0010
1000
0010
1000
0010
0001
0000
,
1000
0010
0001
0010
0001
0010
1000
0000
,
0001
0000
0100
0110
0000
0000
1000
0000
,
0100
0110
0000
0000
2002
0000
3003
0000
,
0001
0000
0000
0010
0000
0000
1000
0000
0010
0000
0001
0000
1000
0000
0000
0000
,
0001
0000
0000
1001
0000
1000
0001
0000
,
1000
0000
0000
0010
0000
0000
0001
0000
0010
0000
1000
0000
0001
0000
0000
0000
,
1000
0000
0000
0000
0000
0000
0000
0000
0000
0001
0000
0000
0000
0000
0000
0000
0000
0000
1001
0000
0000
0000
0000
0000
0000
0000
0000
0000
0000
0000
0000
0000
0000
0000
0000
0000
1000
0000
0000
0000
0001
0000
0000
0000
1000
0000
0000
0000
,
0001
0000
0000
1000
0000
1000
0010
0000
0010
0100
0000
0100
,
0001
0000
0001
0010
0000
0010
0100
0000
0100
1000
0000
1000
,
0002
0000
0000
0000
,
0003
0000
0000
1000
0000
1000
0001
0000
0000
1000
0000
0100
,
0000
0010
0000
0011
0000
0001
0000
0100
0000
1000
0000
0100
,
0000
0001
0000
0010
0000
0010
0100
0000
0000
1000
0000
0010
,
0000
0100
0000
0101
0000
0001
0000
1000
0000
0100
0000
0001
,
0000
0100
0000
1000
0000
0010
0100
0000
0000
0001
0000
0010
,
0000
1000
0000
0010
0001
0010
0001
0010
0000
0100
1000
0100
,
1000
0100
0000
1000
0000
0010
0100
0000
0000
0001
0000
0100
,
0000
1000
0000
0100
0001
0100
0001
0100
0000
0010
1000
0010
,
1000
0010
0000
1000
0000
1000
0001
0000
0000
0100
0010
0100
,
0010
0000
0000
1000
0000
1000
0001
0000
0000
0010
0100
0010
,
0100
0000
1000
0001
0100
0010
1000
0001
,
0100
0000
1001
0000
0001
0010
0100
1000
,
0001
0010
0100
1000
0001
0010
0100
1000
,
0001
0010
0100
1000
0001
0010
0100
1000
,
0001
0010
0100
1000
0002
0000
0000
0000
,
1000
0000
1003
0000
0001
0100
0001
0100
,
0010
0000
0000
1000
0000
0000
0010
0000
1000
0000
0100
0000
1000
0000
0100
0000
,
0010
0001
0100
0001
0020
0000
1030
0010
,
0001
0000
1000
0000
0100
0000
0010
0000
0001
0000
0000
0100
0000
0000
0010
0000
,
0000
0100
0001
0000
0011
0000
0000
1100
,
0000
0000
1010
0000
0000
0101
0000
0000
,
1001
0000
0000
0000
0110
0000
0000
0000
1000
0100
1000
0000
0000
0000
0000
0000
,
0001
0000
0000
0010
0000
0000
0001
0000
0000
0000
1000
0000
0010
0100
0010
0000
,
1000
0001
1001
0000
1000
0010
1000
0010
,
0100
0001
0100
0001
0010
0100
1000
0010
,
0100
0001
0010
0100
1000
0010
0001
0010
,
1000
0100
0001
0100
1000
0010
0001
0010
,
1000
0100
0010
0000
0011
0000
0000
1010
,
0000
0000
0101
0000
0000
1100
0000
0000
,
0110
0000
0000
0000
1001
0000
0000
0000
1000
0000
0000
0100
0000
0000
0010
0000
,
0001
0000
0000
0100
0000
0000
0010
0000
0000
0000
1000
0000
0001
0100
0001
0000
,
0010
0100
0100
0000
1000
0100
1000
0100
,
1000
0000
0001
0100
0001
0100
0001
1000
,
0010
0000
1000
0000
0000
0000
0000
0000
0001
0100
0001
0000
0010
0000
0100
0000
,
1000
0000
0000
0000
1000
0010
1000
0000
0100
0000
0010
0000
0001
0000
0000
0000
,
1000
0100
0010
0000
0001
0000
0100
0000
0020
0000
0000
0000
0000
0000
0000
0000
,
0000
0000
0000
0000
0030
0000
0000
0000
1000
0010
1000
0000
0010
0000
1000
0000
,
0100
0000
0010
0000
0001
0010
0001
0000
0010
0000
0001
0000
0100
0000
0010
0000
,
1000
0100
1000
0000
0001
0100
0001
0000
1000
0000
0000
0000
1001
0000
0000
0000
,
0000
0110
0000
0000
0000
0000
0000
0000
,
0000
0000
0000
0000
;
#NOTES:
     dance-single:
     :
     Hard:
     17:
     :
0000
0000
0000
0000
,
0000
0000
0000
0000
,
0000
0000
0000
0000
,
0000
0000
0000
0000
,
0000
0000
0000
0000
,
0000
0000
0000
0000
,
0001
0000
0001
1000
0000
1000
0010
0100
0010
0100
0000
0000
,
0001
0010
0100
1000
0000
0000
0001
0010
0100
1000
0000
0000
,
0001
0100
0010
1000
0000
0000
0001
0100
0010
1000
0000
0000
,
0001
0100
0010
1000
0100
0010
0001
0100
0010
1000
0000
1100
,
0000
0110
0000
0110
0000
1001
0000
0000
0000
0220
0000
0000
,
0000
0000
0000
0330
,
1001
0000
0000
0100
0000
0000
0110
0000
0000
0010
0000
0000
1001
0000
0000
0000
,
1001
0000
0000
0000
,
0011
0001
1000
1100
0100
1000
2002
0000
,
0000
0000
0000
3003
,
0011
0000
0000
0100
0000
0000
1100
0000
0000
1000
0000
0000
0110
0000
0000
1001
,
0000
0000
1000
0100
0020
0000
0000
0000
0000
0000
0000
0000
0000
0000
0000
0000
,
0000
0000
0000
0000
,
0002
0000
0000
0000
,
0000
0000
0000
0033
,
0001
0000
0000
0100
0000
0000
0010
0000
1000
0010
1000
0000
0100
0000
1000
0000
,
0001
1000
0000
0001
0000
1000
0001
0000
0010
0000
0000
0100
0000
0000
0010
0000
,
0001
0100
0001
0100
0000
0010
1000
0010
1000
0000
0000
0100
0000
0000
0001
0000
,
0100
1000
0000
0010
0000
1000
0100
0000
0010
0001
0010
0000
0001
0000
1000
0000
,
0001
0000
0000
0100
0000
0000
0010
0000
1000
0100
0010
0000
0001
0000
1000
0000
,
0010
0100
0000
0010
0000
0100
0010
0000
1000
0000
0000
0010
0000
0000
0100
0000
,
0001
0010
0001
0100
0000
0010
1000
0100
1000
0000
0000
0001
0000
0000
0100
0000
,
1000
0100
0000
0010
0000
0100
0001
0000
1000
0100
0010
0000
0001
1000
0001
0000
,
1000
0000
0000
0010
0000
0000
0100
0000
0001
0100
0001
0000
0010
0000
0001
0000
,
1000
0001
0000
1000
0000
0001
1000
0000
0100
0000
0000
0010
0000
0000
0100
0000
,
1000
0010
1000
0010
0000
0100
0001
0100
0001
0000
0000
0010
0000
0000
1000
0000
,
0010
0001
0000
0100
0000
0001
0010
0000
0100
1000
0100
0000
1000
0000
0001
0000
,
1000
0000
0000
0010
0000
0000
0100
0000
0001
0010
0100
0000
1000
0000
0001
0000
,
0100
0010
0000
0100
0000
0010
0100
0000
0001
0000
0000
0100
0000
0000
0010
0000
,
1000
0100
1000
0010
0000
0100
0001
0010
0001
0000
0000
1000
0000
0000
0010
0000
,
0001
0010
0000
0100
0000
0010
1000
0000
0001
0010
0100
0000
1000
0000
0001
0000
,
0101
0100
0010
1010
1000
0001
1001
0000
,
1000
0100
1000
0100
1000
0010
0000
0100
0000
0001
0010
0001
0100
0000
0000
0000
,
0101
0001
0010
0110
0100
1000
1001
0000
,
0001
0010
0100
1000
0010
0100
0001
0010
0100
1000
0000
0000
,
0001
0000
0100
0000
1000
0100
0000
1000
0000
0100
0001
0000
1000
0100
0010
0001
,
1000
0000
0100
0000
0001
0100
0000
0001
0000
0100
1000
0000
0001
0010
0100
1000
,
0001
0000
1000
0010
0000
0001
0010
0000
,
1000
0100
0000
0001
0100
0000
0110
0000
,
2000
0000
0000
0100
0000
0000
3100
0000
0010
0000
0001
0000
0100
0000
0001
0000
,
0020
0000
0000
1000
0000
0031
1000
0100
,
0020
0000
0000
0001
0000
0000
0031
0000
0010
0000
0001
0000
0100
0000
0010
0000
,
2000
0000
0000
0000
0000
0000
0000
0000
0000
0100
0000
0000
0000
0000
0000
0000
0000
0000
3010
0000
0000
0000
0000
0000
0000
0000
0000
0000
0000
0000
0010
0000
0000
0000
0000
0000
1000
0000
0000
0000
0100
0000
0000
0000
0010
0000
0000
0000
,
0001
0000
0000
1000
0100
1000
0100
0010
0100
0010
0001
0010
,
0001
0100
0001
0100
0010
0100
0010
1000
0010
1000
0100
0010
,
0002
0000
0000
0000
,
0003
0000
0000
1000
0000
1000
0010
1000
0100
0010
0001
0100
,
0001
0010
0100
1000
0000
1000
0010
0000
0010
0100
0000
0100
,
0001
0000
0001
1000
0000
1000
0001
0010
0100
0010
0001
1000
,
0010
0100
0010
1000
0000
1000
0001
0000
0001
0010
0000
0010
,
0100
0000
0100
1000
0000
1000
0001
0010
1000
0010
0001
1000
,
0100
0010
0001
1000
0000
1000
0100
0000
0100
0001
0000
0001
,
0100
0000
0100
1000
0000
1000
0001
0100
1000
0100
0001
1000
,
0010
0100
0001
1000
0000
1000
0010
0000
0010
0001
0000
0001
,
0010
0000
0010
1000
0000
1000
0010
1000
0100
0010
0001
0100
,
0001
0010
0100
1000
0000
1000
0010
0000
0010
0100
0000
0100
,
0001
0000
0000
0000
0000
0000
0000
0000
0001
0000
0000
0000
1000
0000
0000
0010
0000
0000
1000
0000
0000
0000
0000
0000
0100
0000
0000
0000
0000
0000
0010
0000
0000
0001
0000
0000
0010
0000
0000
0000
0000
0000
0100
0000
0000
0000
0000
0000
,
0100
0000
0000
0000
0000
0000
0000
0000
0000
0000
0000
0000
2002
0000
0000
0000
0000
0000
0000
0000
3003
0000
0000
0000
0001
0000
0000
1000
0000
0000
0001
0000
0000
1000
0000
0000
0001
0000
0000
1000
0000
0000
0001
0000
0000
1000
0000
0000
,
0001
1000
0001
1000
0001
1000
0001
1000
0001
1000
0001
1000
0001
1000
0001
1000
,
0001
1000
0001
1000
0001
1000
0001
1000
0001
1000
0001
1000
0001
1000
0001
1000
,
0001
1000
0001
1000
0001
1000
0001
1000
0001
0000
0000
0000
0000
0000
0000
0000
,
0011
1100
2002
3003
,
1000
0000
0000
0001
0000
0000
0100
0000
0020
0000
0000
0000
0030
0000
0000
0000
,
0010
1000
0100
1000
0020
0000
0030
1000
,
0100
0010
0001
0000
0100
0010
1000
0000
0001
0000
0000
0100
0000
0000
1000
0000
,
0000
0000
0100
0000
0001
0000
0000
0000
1001
0000
0000
0100
0000
0000
0010
0000
,
0110
1000
0001
1001
0000
1010
0000
0101
,
0000
0000
1010
0000
0000
0100
0000
0000
0202
0000
0000
0000
0303
0000
0000
0000
,
1000
0000
0000
0100
0000
0000
0001
0000
0000
0000
0100
0000
1000
0100
1000
0000
,
0001
0100
0010
1000
0002
0000
0003
0000
,
0001
0000
0000
0100
0000
0000
0010
1000
0010
0100
0010
0000
1000
0100
0010
0000
,
0001
1000
0001
0000
0100
0010
1000
0000
0001
0100
0001
0100
0010
0100
0010
0000
,
1000
0100
1000
0100
0010
0100
0010
0000
0001
0010
0100
1000
0100
0010
0001
0000
,
1000
0010
0100
0001
0100
0010
1000
0000
0001
0000
0000
0010
0000
0000
0100
0000
,
1000
0000
0010
0100
0010
0000
1000
0000
0001
0000
0010
0000
0100
1000
0001
0000
,
0100
0000
0010
0000
1000
0000
0010
0000
0100
0000
0000
0001
0000
0000
0001
0000
,
1000
0000
0000
0010
0000
0000
0010
0000
0000
0000
1000
0100
0010
0001
0100
0010
,
1000
0001
1000
0000
1010
0000
0000
1100
,
0000
0000
0011
0000
0000
0101
0000
0110
,
0000
0000
1001
0000
0000
0000
0000
0000
0001
0010
0001
0000
0001
0000
0010
0000
,
0001
0000
0010
0000
0001
0100
0001
0000
0001
0000
0100
0000
0001
0000
0001
0000
,
1000
0000
0000
0010
0000
0000
1000
0000
0000
0000
0000
0000
1000
0000
0000
0000
0000
0000
0010
0000
0000
0000
0000
0000
1000
0000
0000
0000
0100
0000
0000
0000
0010
0000
0000
0000
0001
0000
0000
0000
0100
0000
0000
0000
0010
0000
0000
0000
,
1000
0000
0000
0000
0100
0000
0000
0000
0010
0000
0000
0000
0001
0000
0000
0000
0000
0000
0000
0000
0000
0000
0000
0000
1000
0000
0000
0100
0000
0000
1000
0000
0000
0100
0000
0000
0010
0000
0000
0001
0000
0000
0010
0000
0000
0001
0000
0000
,
1000
0010
1000
0010
0100
0001
0100
0001
1000
0001
1000
0001
0010
0100
0010
0100
,
1000
0010
0100
0001
0100
0010
1000
0001
0010
0000
0000
0000
0110
0000
0000
0000
,
0000
1001
0000
0000
0000
0000
0000
0000
,
0000
0000
0000
0000
;
#NOTES:
     dance-single:
     :
     Challenge:
     18:
     :
0000
0000
0000
0000
,
0000
0000
0000
0000
,
0000
0000
0000
0000
,
0000
0000
0000
0000
,
0000
0000
0000
0000
,
0000
0000
0000
0000
,
0001
0010
0100
1000
0100
0010
0001
0100
0010
1000
0010
0100
,
0001
0010
0100
1000
0100
0010
0001
0100
0010
1000
0010
0100
,
0001
0010
1000
0010
0001
0100
1000
0100
0001
0010
1000
0010
,
0001
0001
0001
1000
1000
1000
0001
0001
0001
1000
0000
0101
,
0000
0000
0000
0000
0011
0000
0000
0000
0000
0000
0000
0000
1010
0000
0000
0000
0000
0000
0000
0000
1100
0000
0000
0000
0000
0000
0000
0000
0000
0000
0100
0000
0000
0010
0000
0000
0001
0000
0000
0010
0000
0000
0001
0000
0000
0010
0000
0000
,
0001
0010
0001
0010
0001
0010
0001
0010
0001
0010
0001
0010
0001
0000
0000
0000
,
0011
0000
0000
0110
0000
0000
1100
0000
0000
0110
0000
0000
0011
0000
0000
0000
,
0001
1000
0100
0010
0001
0010
0100
1000
0001
1000
0100
0010
0001
0010
0100
1000
,
0002
0000
0000
0203
0000
0000
0310
0000
,
1000
0010
0100
0001
1000
0001
0100
0010
1000
0010
0100
0001
1000
0001
0100
0010
,
1000
0000
0000
1000
0000
0000
0100
0000
0000
0100
0000
0000
0001
0000
0000
0010
,
0000
2002
0000
0000
,
0000
0000
0000
3003
,
0220
0000
0000
0000
,
0330
0000
0000
1000
0000
0000
0001
0000
0000
1000
0000
0000
0001
0000
0010
0000
0100
0000
1000
0000
0010
0000
0100
0000
,
0001
0000
1000
0100
0000
0001
0100
0000
1000
0001
1000
0000
0100
0010
0001
0000
,
1000
0010
0000
0100
0000
0001
0100
0000
0002
0000
0000
0023
0000
0000
0130
0000
,
1000
0100
0010
0100
0000
0001
0100
1000
0002
0000
0000
0203
0000
0000
0310
0000
,
1000
0010
1000
0010
0000
0100
0001
0000
1000
0100
0010
0000
0001
1000
0001
0000
,
1000
0000
0001
0010
0000
1000
0010
0000
0001
1000
0001
0000
0010
0100
1000
0000
,
0001
0100
0000
0010
0000
1000
0010
0000
2000
0000
0000
3200
0000
0000
0310
0000
,
0001
0010
0100
0010
0000
1000
0010
0001
2000
0000
0000
3020
0000
0000
0130
0000
,
0001
0100
0001
0100
0000
0010
1000
0000
0001
0010
0100
0000
1000
0001
1000
0000
,
0001
0000
0100
0010
0000
1000
0100
0000
1000
1000
0001
0000
0100
0000
0010
0000
,
1000
0010
0000
0100
0000
0100
0001
0000
1000
0100
0010
0001
1000
0100
0010
0001
,
1000
0010
0100
0001
0000
0001
0010
1000
0020
0000
0000
0230
0000
0000
1300
0000
,
0001
0100
0000
0100
0000
0100
0010
0000
1000
0001
0010
0000
0100
1000
0001
0000
,
1000
0000
0010
0100
0000
0001
0010
0000
0001
0001
1000
0000
0010
0000
0100
0000
,
0001
0100
0000
0010
0000
0010
1000
0000
0001
0010
0100
1000
0001
0010
0100
1000
,
0001
0100
0010
1000
0000
1000
0100
0001
0200
0000
0000
0320
0000
0000
0031
0000
,
1000
0010
0000
0010
0000
0010
0100
0000
0001
1000
0100
0000
0010
0001
1000
0000
,
0001
0011
0011
1000
1100
1100
1001
0000
,
0001
0100
0001
0100
1000
0100
0000
0010
0000
1000
0100
0010
0001
0000
0000
0000
,
0100
0101
0101
0010
1010
1010
1001
0000
,
1000
0100
0100
0001
0010
0010
1000
0100
0100
0110
0000
0000
,
1000
0000
0010
0000
1000
0100
0000
0100
0000
1000
0010
0000
1000
0100
0010
0001
,
1000
0000
0001
0000
0010
0001
0000
0001
0000
0100
0001
0000
0010
0001
0010
0100
,
1000
0000
1010
0010
0000
0011
0010
0000
,
0101
0000
0100
0000
0000
0000
0110
0000
0010
0000
0000
0000
0001
0010
0100
1000
,
0200
0000
0000
0000
,
0320
0000
0000
0000
,
0032
0000
0000
0000
,
2003
0000
0000
3000
,
1001
0000
0000
0001
0001
0100
0010
0010
1000
0100
0001
0100
,
1000
1000
0010
0100
0100
0001
0010
0010
0010
0100
0100
0100
,
2000
0000
0000
0000
,
3000
0000
0000
0001
0010
0000
0001
0000
0100
0000
0010
1000
,
0000
0010
0000
1000
0100
1000
0100
1000
0100
0010
0100
0010
,
0100
0010
0100
1000
0010
0000
1000
0000
0100
0000
0010
0001
,
0000
0010
0000
0001
0010
0001
0010
0001
0010
0100
0010
0100
,
0010
0100
0010
0100
1000
0000
0010
0000
0001
0000
0010
1000
,
0000
0001
0000
1000
0010
1000
0001
0100
0001
1000
0100
1000
,
0001
0010
0001
0010
0001
0000
0100
0000
1000
0000
0100
0001
,
0000
1000
0000
0001
0100
0001
1000
0010
1000
0001
0010
0001
,
1000
0100
1000
0002
0000
0000
0010
0000
0000
0100
0000
0000
,
1003
2000
0100
0010
,
3001
0000
0000
0000
0000
0000
1000
0100
1000
0000
0010
0000
0100
0000
0001
0000
0010
0001
0010
0000
0100
0000
1000
0000
,
0001
0000
0000
0000
0000
0000
0000
0000
0000
0000
0000
0000
2002
0000
0000
0000
0000
0000
0000
0000
3003
0000
0000
0000
0001
0000
0000
0010
0000
0000
0100
0000
0000
1000
0000
0000
0001
0000
0000
0010
0000
0000
0100
0000
0000
1000
0000
0000
,
0001
0010
0100
1000
0001
0010
0100
1000
0010
1000
0001
0100
0010
1000
0001
0100
,
0010
1000
0001
0100
0010
1000
0001
0100
0001
0010
0100
1000
0001
1000
0100
0010
,
0001
0010
0100
1000
0001
1000
0100
0010
0001
0000
0000
0000
0000
0000
0000
0000
,
0100
0100
1001
0000
,
1000
0000
0000
0100
0000
0000
0010
0000
0011
0000
0000
0000
0000
0000
0000
0000
,
0001
0100
1000
0100
0001
0000
0000
1000
,
0001
0010
0100
1000
0010
0001
0010
1000
0001
0000
0000
1000
0000
0000
0100
0000
,
0000
0000
0100
0000
0010
0000
0000
0000
0011
0000
0000
0001
0000
0000
1000
0000
,
1010
0010
0100
0110
0000
1010
0000
0101
,
0000
1000
0000
1000
0001
0000
0000
0000
,
0100
0000
0000
0010
0000
0000
1000
0000
0000
0000
0001
0000
1000
0100
0010
0000
,
0001
1000
1001
0001
2000
0000
0000
0000
,
3001
0000
0000
0100
0000
0000
0001
0100
0001
0010
0001
0010
0100
1000
0100
1000
,
0010
1000
0100
0010
0001
0100
1000
0100
0001
0010
0100
1000
0010
0100
0001
0010
,
0100
1000
0001
0100
1000
0100
0001
1000
0010
0001
0010
0100
0010
1000
0001
0100
,
0010
1000
0100
0010
0100
0001
0100
1000
0001
0000
0000
0010
0000
0000
1000
0000
,
0010
0000
0001
1000
0100
0000
0010
0000
0001
0000
1000
0000
0010
0100
0010
0000
,
0001
0000
0010
0000
1000
0000
0001
0000
0100
0000
0000
1000
0000
0000
0100
0000
,
0001
0000
0000
1000
0000
0000
0200
0000
0000
0000
0310
0001
0100
0010
1000
0100
,
0010
1000
0010
0100
0010
0001
0010
0000
0011
0000
0000
0000
0001
0000
0101
0000
,
0000
0000
1010
0000
1000
1100
0100
0110
,
0010
0000
1001
0000
0000
0000
0000
0000
0001
0010
0001
0000
0011
0000
0101
0000
,
0011
0000
1001
0000
1000
0010
1000
0000
1010
0000
1100
0000
1010
0000
1001
0000
,
0010
0000
0000
0100
0000
0000
0010
0000
0000
0000
0000
0000
0110
0000
0000
0000
0000
0000
1001
0000
0000
0000
0000
0000
1000
0000
0000
0000
0010
0000
0000
0000
0100
0000
0000
0000
0001
0000
0000
0000
0010
0000
0000
0000
0100
0000
0000
0000
,
1000
0000
0000
0000
0010
0000
0000
0000
0100
0000
0000
0000
0001
0000
0000
0000
0000
0000
0000
0000
0000
0000
0000
0000
1001
0000
0000
0000
0000
0000
0000
0000
0000
0000
0000
0000
1000
0000
0000
0100
0000
0000
0010
0000
0000
0100
0000
0000
,
1000
0001
0010
0100
1000
0010
0100
0010
1000
0001
0100
0001
0010
0100
1000
0010
,
1000
0100
0010
0001
0100
0010
1000
0100
0010
0001
1000
0000
0001
0100
1000
0100
,
0001
1001
0000
0000
0000
0000
0000
0000
,
0000
0000
0000
0000
;
#NOTES:
     dance-double:
     :
     Easy:
     9:
     :
00000000
00000000
00000000
00000000
,
00000000
00000000
00000000
00000000
,
00000000
00000000
00000000
00000000
,
00000000
00000000
00000000
00000000
,
00000000
00000000
00000000
00000000
,
00000000
00000000
00000000
00000000
,
00000001
00000100
00000001
00000010
,
00000100
00001000
00000100
00010000
,
00001000
00010000
00001000
00100000
,
00010000
00010000
10000000
20000000
,
00000000
00000000
30000000
20020000
,
00000000
00000000
00000000
30030000
,
10000000
00000000
00000000
01000000
00000000
00000000
00100000
00000000
,
01100000
00000000
00000000
00000000
,
00001000
00000000
00000000
00010000
00000000
00000000
00022000
00000000
,
00000000
00000000
00000000
00033000
,
00010000
00000000
00000000
00000010
00000000
00000000
00001000
00000000
,
00000100
00000110
00000000
00000000
,
00000001
00000010
00000100
00001000
,
00002002
00000000
00000000
00000000
,
00003003
00000000
00000000
00000000
,
00000001
00001000
00000010
00001000
,
00000100
00000000
00010000
00000000
00001000
00010000
00001000
00000000
,
00100000
00010000
00100000
00010000
,
01000000
00010000
10000000
00000000
,
00010000
10000000
00100000
10000000
,
01000000
00000000
00100000
00000000
00001000
00010000
00001000
00000000
,
00010000
00000100
00001000
00000100
,
00000010
00000100
00000010
00000000
,
00000001
00000100
00000001
00000000
,
00001000
00000010
00010000
00000000
00000100
00010000
00001000
00000000
,
00100000
00010000
01000000
00010000
,
00100000
01000000
00100000
00010000
10000000
00000000
00000000
00000000
,
00010000
01000000
00010000
00000000
,
00100000
00001000
00010000
00000000
00001000
00010000
00000010
00000000
,
00001000
00000100
00000010
00000001
,
00000100
00000010
00000100
00000001
00001000
00000000
00000000
00000000
,
00000001
00000000
00000000
00000100
00000000
00000000
00000110
00000000
,
00000010
00010000
00001000
00010000
00001000
00000000
00000000
00000000
,
00001000
00000000
00000000
00100000
00000000
00000000
00110000
00000000
,
00010000
01000000
00010000
01000000
00100000
00000000
00000000
00000000
,
10000000
01000000
00010000
01000000
,
10000000
00000000
00010000
00000000
00100000
00001000
00010000
00000000
,
00001000
00000000
00000010
00000100
00000000
00000000
00000010
00000000
,
00000001
00001000
00000000
00000000
00001001
00000000
00000000
00000000
,
00000002
00000000
00000000
00000003
,
00002000
00000000
00000000
00003000
,
00000200
00000000
00000000
00000300
,
00020000
00000000
00000000
00030000
,
00022000
00000000
00000000
00000000
,
00000000
00000000
00000000
00000000
,
00033000
00000000
00000000
00000000
,
00000000
00001000
00000000
01000000
,
00000000
00000000
00000000
00010000
00000000
01000000
00000000
00010000
00000000
00100000
00000000
01000000
,
00000000
10000000
00000000
00010000
00000000
00000000
00000000
00000000
00000000
01000000
00000000
00000000
,
00000000
00000000
00000000
00010000
00000000
00100000
00000000
00001000
00000000
00010000
00000000
00001000
,
00000000
00000010
00000000
00000001
00000000
00000000
00000000
00000000
00000000
00001000
00000000
00000000
,
00000000
00000000
00000000
00000001
00000000
00000100
00000000
00000010
00000000
00001000
00000000
00000010
,
00000000
00010000
00000000
00001000
00000000
00000000
00000000
00000000
00000000
00100000
00000000
00000000
,
00000000
00000000
00000000
00001000
00000000
00010000
00000000
00001000
00000000
00010000
00000000
01000000
,
00000000
00010000
00000000
01000000
00000000
00000000
00000000
01000000
00000000
10000000
00000000
00000000
,
00000000
00000000
00000000
00010000
00000000
00000000
00000000
00010000
00000000
00100000
00000000
00000000
,
00000000
00001000
00001000
00010000
,
00010000
00011000
00001000
00010000
,
00001000
00000010
00000001
00000100
,
00000001
00000100
00001000
00010000
,
00001000
00010000
00100000
00000000
,
10000000
10000000
00020000
00000000
,
00000000
00030000
02000000
00000000
,
00000000
03000000
00001000
00010000
,
00001000
00000010
00000110
00000000
,
00001001
00000000
00000002
00000000
,
00000000
00000003
00002000
00000000
,
00000000
00003000
00000100
00010000
,
00000100
00010000
00001000
00000000
,
00011000
00000000
00001000
00010000
,
00100000
01000000
10000000
01000000
,
00010000
00100000
00001000
00010000
,
00001000
00000010
00000100
00001000
,
00000001
00000000
00001000
00000001
,
00000100
00000001
00000010
00001000
,
00010000
00001000
00010000
00100000
,
01000000
00010000
01000000
00100000
,
10000000
00000000
00000000
00000000
10100000
00000000
00000000
00110000
,
00000000
00000000
00011000
00000000
00000000
00001010
00000000
00000010
,
00000000
00000001
00000000
00000000
00000002
00000000
00000000
00000000
,
00000003
00002000
00000000
00003000
,
00020000
00000000
00030000
00000000
,
00000000
00000000
00011000
01000000
,
00100000
01000000
00001000
00010000
,
00001000
00000010
00000100
00000010
,
00000000
00000110
00000000
00000000
00000000
00000000
00000000
00000000
,
00000000
00000000
00000000
00000000
;
#NOTES:
     dance-double:
     :
     Medium:
     14:
     :
00000000
00000000
00000000
00000000
,
00000000
00000000
00000000
00000000
,
00000000
00000000
00000000
00000000
,
00000000
00000000
00000000
00000000
,
00000000
00000000
00000000
00000000
,
00000000
00000000
00000000
00000000
,
00000001
00000000
00000100
00000001
00000000
00000000
00001000
00000000
00000010
00010000
00000000
00000000
,
00001000
00000000
00100000
00001000
00000000
00000000
01000000
00000000
00010000
00100000
00000000
00000000
,
00010000
00000000
10000000
01000000
00000000
00000000
10000000
00000000
00100000
01000000
00000000
00000000
,
00010000
00000000
00010000
00100000
00000000
00100000
00001000
00000000
00001000
00010000
00000000
00000100
,
00000000
00001000
00000000
00000100
00000000
00000010
00000000
00000000
00000000
00002002
00000000
00000000
,
00000000
00000000
00000000
00003003
,
00000001
00000000
00000000
00001000
00000000
00000000
00000100
00000000
00000000
00010000
00000000
00000000
00001000
00000000
00000000
00000000
,
00011000
00000000
00000000
00000000
,
00001000
01000000
00001000
00100000
00010000
00100000
02000000
00000000
,
00000000
00000000
00000000
03000000
,
10000000
00000000
00000000
01000000
00000000
00000000
00010000
00000000
00000000
00001000
00000000
00000000
00010000
00000000
00000000
00001000
,
00000000
00000220
00000000
00000000
,
00000000
00000000
00000000
00000330
,
00002002
00000000
00000000
00000000
,
00000000
00000000
00000000
00003003
00000000
00000000
00000001
00001000
00000001
00001000
00000000
00000000
,
00000001
00000000
00000000
00000100
00000000
00000000
00000001
00000000
00000010
00000000
00000100
00000000
00001000
00000000
00000000
00000000
,
00000100
00010000
00000000
00000100
00000000
00000000
00010000
00000000
00001000
00000000
00000000
00010000
00000000
00000000
00001000
00000000
,
00010000
00000000
00100000
01000000
00000000
00100000
01000000
00000000
00100000
00000000
00000000
10000000
00000000
00000000
00100000
00000000
,
10000000
01000000
00010000
00001000
00010000
01000000
10000000
00010000
,
10000000
00000000
00000000
00100000
00000000
00000000
10000000
00000000
01000000
00000000
00100000
00000000
00010000
00000000
00000000
00000000
,
00100000
00001000
00000000
00100000
00000000
00000000
00001000
00000000
00010000
00000000
00000000
00001000
00000000
00000000
00010000
00000000
,
00001000
00000000
00000100
00000010
00000000
00000100
00000010
00000000
00000100
00000000
00000000
00000001
00000000
00000000
00000100
00000000
,
00000001
00000010
00001000
00010000
00001000
00000010
00000001
00001000
,
00000001
00000010
00001000
00010000
00000100
00000010
00001000
00010000
,
00100000
01000000
00001000
00010000
01000000
00100000
00001000
00010000
,
00100000
00000000
10000000
00010000
00000000
10000000
00010000
00000000
01000000
00000000
00100000
00000000
00010000
00000000
00001000
00000000
,
00000100
00000010
00001000
00010000
01000000
00100000
10000000
00010000
,
10000000
00100000
00010000
00001000
01000000
00100000
00010000
00001000
,
00000010
00000100
00010000
00001000
00000100
00000010
00010000
00001000
,
00000010
00000000
00000001
00001000
00000000
00000001
00001000
00000000
00000100
00000000
00000010
00000000
00001000
00000000
00010000
00000000
,
01000000
00100000
00010000
00001000
00000100
00000010
00000001
00001000
,
00000001
00000100
00000010
00000100
00001000
00010000
00001000
00000000
,
00011000
01001000
01010000
10100000
,
10000000
01000000
00100000
01000000
00010000
00001000
00010000
00000000
,
00011000
00010100
00001100
00000011
,
00000001
00000010
00000100
00000000
00001000
00000010
00000100
00000000
,
00001000
00010000
00100000
00000000
01000000
00010000
00100000
00000000
,
00010000
00000000
10000000
01000000
00000000
00000000
00010000
00000000
,
00001000
00000010
00000000
00000000
00000220
00000000
00000330
00000000
,
00000001
00000000
00000000
00001000
00000000
00000000
00001000
00000000
00000001
00000000
00000100
00000000
00000010
00000000
00010000
00000000
,
00001000
00000000
00000000
00011000
00000000
00000000
00000000
00000000
,
00010000
00000000
00000000
00001000
00000000
00000000
00001000
00000000
00100000
00000000
00010000
00000000
01000000
00000000
00100000
00000000
,
10000000
00000000
00000000
00000000
00000000
00000000
00000000
00000000
00000000
10010000
00000000
00000000
00000000
00000000
00000000
00000000
00000000
00000000
10000000
00000000
01000000
00000000
00100000
00000000
,
00010000
00000000
00000000
10000000
00000000
10000000
00010000
00000000
00010000
00100000
00000000
00100000
,
00001000
00000000
00001000
00010000
00000000
00010000
00000010
00000000
00000010
00001000
00000000
00001000
,
00000002
00000000
00000000
00000000
,
00000003
00000000
00000000
00000001
00000000
00000100
00000010
00000000
00000000
00001000
00000000
00000001
,
00000000
00000001
00000000
00000010
00000000
00001000
00000000
00010000
00000000
01000000
00000000
10000000
,
00000000
00010000
00000000
10000000
00000000
01000000
00100000
00000000
00000000
00010000
00000000
10000000
,
00000000
10000000
00000000
00100000
00000000
00010000
00000000
00001000
00000000
00000100
00000000
00000001
,
00000000
00001000
00000000
00000001
00000000
00000010
00000100
00000000
00000000
00001000
00000000
00000010
,
00000000
00000100
00000000
00001000
00010000
00001000
00010000
00001000
00000000
01000000
00010000
01000000
,
00010000
01000000
00000000
00010000
00000000
01000000
00100000
00000000
00000000
10000000
00000000
01000000
,
00000000
00010000
00000000
00001000
00010000
00001000
00010000
00001000
00000000
00010000
00000010
00010000
,
00000010
00010000
00000000
00000010
00000000
00000010
00001000
00000000
00000000
00000001
00000000
00000100
,
00000000
00000100
00000000
00000010
00000000
00000010
00000000
00010000
00000000
00001000
00000000
01000000
,
00000000
00000000
01000000
00000000
00000000
00000000
00010000
00000000
00000000
00100000
00000000
00000000
01000000
00000000
00000000
10000000
00000000
00000000
01000000
00000000
00000000
00100000
00000000
00000000
,
00010000
00000000
10010000
00000000
10000000
01000000
10000000
01000000
,
00100000
01000000
00100000
00001000
00010000
00001000
00010000
00001000
,
00010000
00000100
00001000
00000100
00000010
00000001
00000010
00000001
,
00001000
00000100
00000010
00000001
00002000
00000000
00000000
00000000
,
00000001
00000000
00003001
00000000
00000001
00001000
00000001
00000010
,
00000100
00001000
00000010
00000100
00001000
00010000
00100000
01000000
,
00100000
10000000
00010000
01000000
00200000
00000000
10300000
00100000
,
01000000
00000000
00010000
00000000
00100000
00000000
01000000
00000000
00010000
00000000
00000000
00001000
00000000
00000000
00000010
00000000
,
00000000
00000000
00000001
00000000
00001000
00000000
00000000
00000000
00000001
00000000
00000000
00000100
00000000
00000000
00000001
00000000
,
00000010
00000001
00000010
00000001
00000000
00001000
00000100
00001000
,
00000000
00000010
00010000
00001000
00010000
00000000
00000000
00000000
,
00001000
00000000
00000000
01000000
00000000
00000000
00010000
00000000
00000000
00000000
00100000
00000000
00010000
10000000
00010000
00000000
,
01000000
00100000
10000000
00000000
00010000
01000000
00100000
10000000
,
01000000
00100000
00010000
00100000
01000000
00010000
00001000
00000010
,
00000100
00010000
00001000
00000010
00000100
00001000
00000001
00000100
,
00001000
00010000
00100000
01000000
00001000
00010000
00100000
01000000
,
10000000
00000000
01000000
00000000
00010000
00000000
00000000
00000000
00100000
00000000
00000000
01000000
00000000
00000000
10000000
00000000
,
01000000
00100000
00001000
00010000
00001000
00000100
00000010
00001000
,
00000100
00000000
00000010
00000000
00000001
00000000
00000010
00000000
00000100
00000000
00000000
00010000
00000000
00000000
00010000
00000000
,
00001000
00000000
00000000
01000000
00000000
00000000
01000000
00000000
00000000
00000000
00010000
00000000
00100000
01000000
00100000
00000000
,
01000000
10000000
10000000
00000000
10100000
00000000
00000000
01010000
,
00000000
00000000
00011000
00000000
00000000
00001100
00000000
00000011
,
00000000
00000000
00001001
00000000
00000000
00000000
00000000
00000000
00000001
00000010
00000001
00000000
00000100
00000000
00001000
00000000
,
00010000
00000000
00000000
00000000
00001000
00010000
00001000
00000000
00010000
00000000
00100000
00000000
10000000
00000000
00000000
00000000
,
00010000
00100000
00010000
00000000
10000000
00000000
01000000
00000000
00200000
00000000
00000000
00000000
00000000
00000000
00000000
00000000
,
00000000
00000000
00000000
00000000
00300000
00000000
00000000
00000000
10000000
01000000
00100000
00000000
00010000
00000000
00100000
00000000
,
00001000
00000000
00010000
00000000
00000100
00001000
00000100
00000000
00000010
00000000
00000001
00000000
00001000
00000000
00000001
00000000
,
00000100
00000010
00000100
00000000
00000010
00010000
00001000
00000000
00010000
00000000
00000000
00000000
00011000
00000000
00000000
00000000
,
00000000
00011000
00000000
00000000
00000000
00000000
00000000
00000000
,
00000000
00000000
00000000
00000000
;
#NOTES:
     dance-double:
     :
     Hard:
     17:
     :
00000000
00000000
00000000
00000000
,
00000000
00000000
00000000
00000000
,
00000000
00000000
00000000
00000000
,
00000000
00000000
00000000
00000000
,
00000000
00000000
00000000
00000000
,
00000000
00000000
00000000
00000000
,
00000001
00000000
00000001
00000100
00000000
00000100
00000001
00000010
00000100
00001000
00000000
00000000
,
00000100
00010000
00001000
00010000
00000000
00000000
00001000
00100000
00010000
01000000
00000000
00000000
,
00010000
00100000
01000000
10000000
00000000
00000000
00010000
00100000
01000000
10000000
00000000
00000000
,
00010000
10000000
00100000
01000000
00010000
00100000
00001000
00010000
00000100
00001000
00000000
00001010
,
00000000
00000110
00000000
00000101
00000000
00001001
00000000
00000000
00000000
00000220
00000000
00000000
,
00000000
00000000
00000000
00000330
,
00000001
00000000
00000000
00000100
00000000
00000000
00001000
00000000
00000000
00010000
00000000
00000000
00100000
00000000
00000000
00000000
,
10010000
00000000
00000000
00000000
,
10000000
01000000
01000000
00100000
00001000
00001000
00020000
00000000
,
00000000
00000000
00000000
00030000
,
00010000
00000000
00000000
01000000
00000000
00000000
00010000
00000000
00000000
00001000
00000000
00000000
00000010
00000000
00000000
00000001
,
00000000
00000000
00001000
00000100
00000020
00000000
00000000
00000000
00000000
00000000
00000000
00000000
00000000
00000000
00000000
00000000
,
00000000
00000000
00000000
00000030
,
00000002
00000000
00000000
00000000
,
00000000
00000000
00000000
00000003
,
00000001
00000000
00000000
00000100
00000000
00000000
00000001
00000000
00000010
00000100
00000010
00000000
00000001
00000000
00001000
00000000
,
00000010
00001000
00000000
00000100
00000000
00010000
00001000
00000000
00010000
00000000
00000000
00100000
00000000
00000000
01000000
00000000
,
00100000
10000000
00100000
10000000
00000000
00010000
01000000
00010000
01000000
00000000
00000000
10000000
00000000
00000000
01000000
00000000
,
00010000
00100000
00000000
01000000
00000000
10000000
00010000
00000000
10000000
01000000
00100000
00000000
00001000
00000000
00010000
00000000
,
00001000
00000000
00000000
00000010
00000000
00000000
00000100
00000000
00000010
00000001
00000010
00000000
00000001
00000000
00001000
00000000
,
00000100
00010000
00000000
00001000
00000000
00010000
00000100
00000000
00010000
00000000
00000000
00001000
00000000
00000000
00100000
00000000
,
00010000
01000000
00010000
01000000
00000000
00100000
10000000
00100000
10000000
00000000
00000000
01000000
00000000
00000000
00010000
00000000
,
01000000
00100000
00000000
00010000
00000000
10000000
01000000
00000000
00100000
00001000
00010000
00000000
00001000
00010000
00001000
00000000
,
00010000
00000000
00000010
00001000
00000000
00000010
00001000
00000000
00000001
00000100
00000010
00000000
00001000
00000000
00000100
00000000
,
00000010
00000001
00000000
00000100
00000000
00000001
00001000
00000000
00000001
00000000
00000100
00000010
00000000
00000100
00000010
00000000
,
00000100
00001000
00010000
00001000
00000000
00010000
00001000
00010000
00001000
00000000
00010000
00001000
00000000
00010000
01000000
00000000
,
00100000
00010000
00000000
01000000
00000000
00010000
00100000
00000000
01000000
10000000
01000000
00000000
10000000
00000000
00010000
00000000
,
01000000
00000000
00100000
10000000
00000000
01000000
10000000
00000000
00100000
01000000
00010000
00000000
00100000
00000000
01000000
00000000
,
00010000
00001000
00000000
00010000
00000000
00001000
00010000
00000000
00001000
00000000
00000100
00000010
00000000
00000100
00000010
00000000
,
00001000
00000100
00000010
00000001
00000000
00001000
00000001
00001000
00000001
00000000
00000100
00000010
00000000
00000100
00000010
00000000
,
00000100
00000000
00001000
00010000
00000000
00001000
00010000
00000000
00100000
01000000
00100000
00000000
10000000
00000000
00000000
00000000
,
10100000
00100000
01000000
00001000
00010000
00000010
00001010
00000000
,
00000001
00000010
00000001
00000010
00000100
00001000
00000000
00000100
00000000
00010000
00001000
00000000
00000100
00000000
00000000
00000000
,
00000101
00000001
00001000
00000100
00010000
00001000
01001000
00000000
,
00010000
10000000
01000000
00100000
00001000
00010000
00000010
00001000
00000100
00000010
00000000
00000000
,
00000001
00000000
00001000
00000000
00000001
00000010
00000000
00000100
00000000
00001000
00000001
00000000
00001000
00000000
00000100
00000000
,
00010000
00000000
00001000
00000000
00100000
00010000
00000000
01000000
00000000
00010000
00100000
00000000
01000000
10000000
00010000
10000000
,
01000000
00000000
10000000
00100000
00000000
00010000
00001000
00000000
,
00000010
00000001
00000000
00001000
00000100
00000000
00000110
00000000
,
00000001
00000000
00000000
00000100
00000000
00000000
00000100
00000000
00000001
00000000
00000010
00000000
00000100
00000000
00010000
00000000
,
00001000
00000000
00000000
00011000
00000000
00010000
00001000
01000000
,
00010000
00000000
00000000
00100000
00000000
00000000
00100000
00000000
00010000
00000000
01000000
00000000
10000000
00000000
01000000
00000000
,
00100000
00000000
00000000
00000000
00000000
00000000
00000000
00000000
00000000
10000000
00000000
00000000
00000000
00000000
00000000
00000000
00000000
00000000
01000000
00000000
00000000
00000000
00000000
00000000
00000000
00000000
00000000
00000000
00000000
00000000
00000000
00000000
00000000
00000000
00000000
00000000
10000000
00000000
00000000
00000000
01000000
00000000
00000000
00000000
00100000
00000000
00000000
00000000
,
00010000
00000000
00000000
10000000
00000000
10000000
01000000
00000000
01000000
00100000
00001000
00010000
,
00001000
00000000
00001000
00000100
00000000
00000100
00000001
00000000
00000001
00001000
00000100
00000010
,
00000002
00000000
00000000
00000000
,
00000003
00000000
00000000
00000001
00000000
00000001
00001000
00000001
00000010
00000100
00001000
00000100
,
00010000
00001000
00010000
00002000
00000000
00000000
00000100
00000000
00000000
00013000
00000000
00000000
,
00011000
00000000
00000000
00001000
00000000
00001000
00100000
00010000
01000000
00001000
00100000
00010000
,
01000000
00100000
10000000
02000000
00000000
00000000
00010000
00000000
00000000
13000000
00000000
00000000
,
10010000
00000000
00000000
10000000
00000000
10000000
00010000
10000000
00100000
01000000
00010000
01000000
,
00001000
00010000
00001000
00020000
00000000
00000000
01000000
00000000
00000000
00031000
00000000
00000000
,
00011000
00000000
00000000
00010000
00000000
00010000
00000010
00001000
00000100
00010000
00000010
00001000
,
00000100
00000010
00000001
00000200
00000000
00000000
00001000
00000000
00000000
00000301
00000000
00000000
,
00001001
00000000
00000000
00000001
00000000
00000001
00000100
00000010
00001000
00000010
00000000
00000010
,
00010000
00001000
00010000
00001000
00000000
00001000
00100000
00010000
01000000
00100000
00000000
00100000
,
10000000
00000000
00000000
00000000
00010000
00000000
00000000
00000000
10000000
00000000
00000000
00000000
01000000
00000000
00000000
00100000
00000000
00000000
01000000
00000000
00000000
00000000
00000000
00000000
00100000
00000000
00000000
00000000
00000000
00000000
00001000
00000000
00000000
00010000
00000000
00000000
00001000
00000000
00000000
00000000
00000000
00000000
00010000
00000000
00000000
00000000
00000000
00000000
,
00010000
00000000
00000000
00000000
00000000
00000000
00000000
00000000
00000000
00000000
00000000
00000000
00022000
00000000
00000000
00000000
00000000
00000000
00000000
00000000
00033000
00000000
00000000
00000000
00001000
00000000
00000000
00010000
00000000
00000000
00001000
00000000
00000000
00010000
00000000
00000000
00001000
00000000
00000000
00010000
00000000
00000000
00001000
00000000
00000000
00010000
00000000
00000000
,
00001000
00010000
00001000
00010000
00001000
00010000
00001000
00010000
00000100
00001000
00000100
00001000
00000100
00001000
00000100
00001000
,
00000100
00001000
00000100
00001000
00000100
00001000
00000100
00001000
00000100
00000010
00000100
00000010
00000100
00000010
00000100
00000010
,
00000100
00000010
00000100
00000010
00000100
00000010
00000100
00000010
00000001
00000000
00000000
00000000
00000000
00000000
00000000
00000000
,
00000011
00001100
00002002
00003003
,
00000001
00000000
00000000
00000100
00000000
00000000
00000010
00000000
00002000
00000000
00000000
00000000
00003000
00000000
00000000
00000000
,
00001000
00000100
00010000
00001000
00020000
00000000
00030000
00001000
,
01000000
00010000
01000000
00000000
00010000
00100000
00010000
00000000
01000000
00000000
00000000
00100000
00000000
00000000
10000000
00000000
,
00000000
00000000
00010000
00000000
01000000
00000000
00000000
00000000
10010000
00000000
00000000
10000000
00000000
00000000
01000000
00000000
,
01100000
00100000
00001000
00011000
00000000
00001100
00000000
00000110
,
00000000
00000000
00000011
00000000
00000000
00001000
00000000
00000000
00002002
00000000
00000000
00000000
00003003
00000000
00000000
00000000
,
00000001
00000000
00000000
00000010
00000000
00000000
00001000
00000000
00000000
00000000
00010000
00000000
01000000
10000000
01000000
00000000
,
10000000
00010000
10000000
00000000
00200000
00000000
00300000
00000000
,
10000000
00000000
00000000
00100000
00000000
00000000
10000000
01000000
00100000
00010000
01000000
00000000
00100000
00010000
00001000
00000000
,
00000100
00000000
00000001
00000000
00001000
00000100
00000010
00000000
00000001
00000100
00000001
00001000
00000100
00001000
00000100
00000000
,
00010000
00001000
00100000
00001000
00100000
00010000
01000000
00000000
00010000
00100000
01000000
10000000
00010000
01000000
00010000
00000000
,
00100000
00001000
00010000
00001000
00010000
00000100
00001000
00000000
00000010
00000000
00000000
00000001
00000000
00000000
00000010
00000000
,
00001000
00000000
00000001
00000100
00000001
00000000
00001000
00000000
00000001
00000000
00000010
00000000
00000100
00010000
00001000
00000000
,
00100000
00000000
00001000
00000000
00010000
00000000
00100000
00000000
01000000
00000000
00000000
00010000
00000000
00000000
00010000
00000000
,
01000000
00000000
00000000
00100000
00000000
00000000
10000000
00000000
00000000
00000000
10000000
00100000
01000000
00100000
10000000
00000000
,
01000000
00010000
00001000
00000000
00011000
00000000
00000000
00000110
,
00000000
00000000
00011000
00000000
00000000
01100000
00000000
00010000
,
00000000
00000000
10010000
00000000
00000000
00000000
00000000
00000000
10000000
00100000
10000000
00000000
10000000
00000000
01000000
00000000
,
00010000
00000000
00001000
00000000
00000010
00000001
00000010
00000000
00000010
00000000
00000001
00000000
00000100
00000000
00001000
00000000
,
00010000
00001000
00010000
00000000
00010000
00000000
00001000
00000000
00022000
00000000
00000000
00000000
00000000
00000000
00000000
00000000
,
00000000
00000000
00000000
00000000
00033000
00000000
00000000
00000000
00010000
00001000
00010000
00000000
00001000
01000000
00001000
00000000
,
00100000
00001000
00100000
00000000
00001000
00010000
00001000
00000000
00010000
00000100
00010000
00000000
00000010
00001000
00000010
00000000
,
00010000
00001000
00010000
00000000
00001000
01000000
00001000
00000000
00100000
00010000
00100000
00000000
01100000
00000000
00000000
00000000
,
00000000
10010000
00000000
00000000
00000000
00000000
00000000
00000000
,
00000000
00000000
00000000
00000000
;
#NOTES:
     dance-double:
     :
     Challenge:
     18:
     :
00000000
00000000
00000000
00000000
,
00000000
00000000
00000000
00000000
,
00000000
00000000
00000000
00000000
,
00000000
00000000
00000000
00000000
,
00000000
00000000
00000000
00000000
,
00000000
00000000
00000000
00000000
,
00000001
00000010
00000001
00000010
00000100
00001000
00000010
00001000
00000010
00010000
00001000
00010000
,
00001000
01000000
00001000
00100000
00010000
01000000
00100000
10000000
00100000
10000000
01000000
10000000
,
01000000
00100000
00010000
01000000
00001000
01000000
00001000
00010000
00001000
00010000
00000100
00001000
,
00000010
00001000
00000100
00000010
00000001
00000100
00001000
00010000
00100000
10000000
00000000
10100000
,
00000000
00000000
00000000
00000000
11000000
00000000
00000000
00000000
00000000
00000000
00000000
00000000
00010000
00000000
00000000
00000000
00000000
00000000
00000000
00000000
00110000
00000000
00000000
00000000
00000000
00000000
00000000
00000000
00000000
00000000
00100000
00000000
00000000
00001000
00000000
00000000
00010000
00000000
00000000
00001000
00000000
00000000
00010000
00000000
00000000
00001000
00000000
00000000
,
00010000
00001000
00010000
00001000
00010000
00001000
00010000
00001000
00010000
00001000
00010000
00001000
00010000
00000000
00000000
00000000
,
00010000
00000000
00000000
00000100
00000000
00000000
00000001
00000000
00000000
00000100
00000000
00000000
00010000
00000000
00000000
00000000
,
00001000
00010000
00001000
00000010
00000100
00000010
00000001
00001000
00000001
00000100
00000010
00000100
00001000
00010000
00001000
00010000
,
00002000
00000000
00000000
00203000
00000000
00000000
00310000
00000000
,
00100000
00010000
10000000
01000000
00100000
00010000
10000000
00010000
00100000
01000000
00100000
00010000
00100000
00001000
00010000
00001000
,
00010000
00000000
00000000
00000010
00000000
00000000
00000001
00000000
00000000
00000010
00000000
00000000
00010000
00000000
00000000
00001000
,
00000000
00022000
00000000
00000000
,
00000000
00000000
00000000
00033000
,
02200000
00000000
00000000
00000000
,
03300000
00000000
00000000
10000000
00000000
00000000
00010000
00000000
00000000
10000000
00000000
00000000
00010000
00000000
00100000
00000000
00010000
00000000
00001000
00000000
00000100
00000000
00001000
00000000
,
00000100
00000000
00000010
00000001
00000000
00000001
00000010
00000000
00000100
00001000
00000001
00000000
00000100
00000010
00001000
00000000
,
00000010
00010000
00000000
00010000
00000000
00001000
00010000
00000000
02000000
00000000
00000000
23000000
00000000
00000000
30010000
00000000
,
10000000
01000000
00100000
00010000
00000000
00100000
10000000
00100000
00020000
00000000
00000000
00230000
00000000
00000000
00301000
00000000
,
00010000
00000010
00010000
00000010
00000000
00001000
00000010
00000000
00001000
00000100
00000010
00000000
00000001
00001000
00000001
00000000
,
00000100
00000000
00001000
00000100
00000000
00000010
00000100
00000000
00000001
00000010
00000100
00000000
00001000
00000100
00010000
00000000
,
00001000
00010000
00000000
00001000
00000000
00100000
00001000
00000000
00020000
00000000
00000000
00230000
00000000
00000000
10300000
00000000
,
00010000
01000000
00100000
10000000
00000000
01000000
00100000
00010000
00200000
00000000
00000000
02300000
00000000
00000000
03010000
00000000
,
00001000
00010000
00001000
00010000
00000000
00100000
10000000
00000000
00100000
01000000
00010000
00000000
10000000
00000000
00010000
00000000
,
00100000
00000000
01000000
10000000
00000000
10000000
01000000
00000000
00100000
00010000
10000000
00000000
00100000
01000000
00010000
00000000
,
01000000
00001000
00000000
00001000
00000000
00010000
00001000
00000000
00000020
00000000
00000000
00000032
00000000
00000000
00001003
00000000
,
00000001
00000010
00000100
00001000
00000000
00000100
00000001
00000100
00002000
00000000
00000000
00003200
00000000
00000000
00010300
00000000
,
00001000
01000000
00001000
01000000
00000000
00010000
01000000
00000000
00010000
00100000
01000000
00000000
10000000
00010000
10000000
00000000
,
00100000
00000000
00010000
00100000
00000000
01000000
00100000
00000000
10000000
01000000
00100000
00000000
00010000
00100000
00001000
00000000
,
00010000
00001000
00000000
00010000
00000000
00000100
00010000
00000000
00002000
00000000
00000000
00003200
00000000
00000000
00000301
00000000
,
00001000
00000010
00000100
00000001
00000000
00000010
00000100
00001000
00000200
00000000
00000000
00000320
00000000
00000000
00001030
00000000
,
00010000
00001000
00010000
00001000
00000000
00000100
00000001
00000000
00000100
00000010
00001000
00000000
00000001
00001000
00000001
00000000
,
00000011
00000001
00000100
00001000
00010000
00100000
01100000
00000000
,
10000000
01000000
10000000
01000000
00010000
01000000
00000000
00010000
00000000
00001000
00010000
00100000
10000000
00000000
00000000
00000000
,
10100000
10000000
01000000
00010000
00001000
00000010
00000110
00000000
,
00000001
00000010
00000100
00001000
00000010
00000100
00001000
00010000
00100000
10000000
00000000
00000000
,
00010000
00000000
10000000
00000000
01000000
00010000
00000000
00010000
00000000
01000000
10000000
00000000
00100000
00000000
00010000
00000000
,
00001000
00000000
00000100
00000000
00000001
00000010
00000000
00000010
00000000
00000001
00000100
00000000
00000010
00001000
00000010
00010000
,
00001000
00000000
00010000
00100000
00000000
00010000
00001000
00000000
,
00000010
00000000
00001000
00000000
00000000
00000000
00010000
00000000
00001000
00000000
00000000
00000000
00010000
00001000
00010000
00001000
,
00020000
00000000
00000000
00000000
,
00032000
00000000
00000000
00000000
,
00003020
00000000
00000032
00000000
,
00000203
00000000
00000000
00002300
00000000
00000000
00023000
00000000
00000000
00000000
00000000
00000000
00030000
00000000
00000000
00000000
,
01100000
00000000
00000000
10000000
00100000
01000000
00010000
00100000
00001000
00010000
00000100
00001000
,
00000010
00000100
00000001
00000010
00000100
00010000
00001000
00100000
00010000
01000000
00100000
10000000
,
00020000
00000000
00000000
00000000
,
00030000
00000000
00000000
10000000
00100000
00000000
00010000
00000000
00100000
00000000
10000000
00010000
,
00000000
10000000
00000000
01000000
00100000
00010000
00100000
00001000
00010000
00001000
00000010
00000100
,
00001000
00000010
00000100
00000001
00000010
00000000
00001000
00000000
00000010
00000000
00000001
00001000
,
00000000
00000001
00000000
00000100
00000010
00001000
00000010
00010000
00001000
00010000
00100000
01000000
,
00010000
00100000
01000000
10000000
00100000
00000000
00001000
00000000
00100000
00000000
10000000
00010000
,
00000000
01000000
00000000
00100000
10000000
01000000
00100000
00001000
00010000
00000100
00001000
00000010
,
00000100
00000001
00000010
00000001
00000100
00000000
00010000
00000000
00000100
00000000
00000001
00001000
,
00000000
00000010
00000000
00000100
00000001
00000010
00000100
00010000
00001000
00100000
00010000
01000000
,
00100000
10000000
01000000
00100000
00010000
00100000
00010000
00000000
00000000
00001000
00000100
00001000
,
00000100
00000000
00000000
00000010
00000001
00000010
00000100
00000000
00000000
00001000
00000010
00000100
,
00001000
00000000
00000000
00000000
00000000
00000000
00010000
00001000
00010000
00000000
00001000
00000000
01000000
00000000
00010000
00000000
00100000
00010000
00100000
00000000
01000000
00000000
10000000
00000000
,
00010000
00000000
00000000
00000000
00000000
00000000
00000000
00000000
00000000
00000000
00000000
00000000
20020000
00000000
00000000
00000000
00000000
00000000
00000000
00000000
30030000
00000000
00000000
00000000
10000000
00000000
00000000
00100000
00000000
00000000
10000000
00000000
00000000
00100000
00000000
00000000
01000000
00000000
00000000
00010000
00000000
00000000
01000000
00000000
00000000
00010000
00000000
00000000
,
00100000
00001000
00100000
00001000
00010000
00001000
00010000
00001000
00010000
00000010
00010000
00000010
00001000
00000100
00001000
00000100
,
00000010
00000001
00000010
00000001
00000100
00000010
00000100
00000010
00001000
00000100
00010000
00000100
00001000
00000010
00010000
00000010
,
00001000
00000100
00010000
00001000
00010000
00001000
01000000
00010000
01000000
00000000
00000000
00000000
00000000
00000000
00000000
00000000
,
00100000
00100000
10010000
00000000
,
10000000
00000000
00000000
01000000
00000000
00000000
00010000
00000000
00011000
00000000
00000000
00000000
00000000
00000000
00000000
00000000
,
00001000
00000010
00000001
00000010
00001000
00000000
00001000
00010000
,
00001000
00000100
00000010
00000000
00001000
00000100
00000010
00000001
00000100
00000000
00000000
00001000
00000000
00000000
00010000
00000000
,
00000000
00000000
00100000
00000000
01100000
00000000
00000000
00000000
00010000
00000000
00000000
01000000
00000000
00000000
10000000
00000000
,
01000000
00010000
00100000
01000000
00000000
01100000
00000000
00011000
,
00000000
00000110
00000000
00000001
00001000
00000000
00000000
00000000
,
00000001
00000000
00000000
00000100
00000000
00000000
00000010
00000000
00000000
00000000
00000010
00000000
00010000
00001000
00010000
00000000
,
00001000
01000000
00010000
00100000
02000000
00000000
00000000
00000000
,
13000000
00000000
00000000
00010000
00000000
00000000
10000000
00000000
01000000
00100000
01000000
00100000
00010000
00100000
00001000
00010000
,
00001000
00000010
00000100
00000010
00000001
00001000
00000100
00000000
00000010
00000001
00001000
00000001
00000100
00000010
00000100
00000010
,
00001000
00000010
00010000
00001000
00010000
00001000
01000000
00000000
00010000
00100000
01000000
00100000
10000000
00100000
01000000
00100000
,
00010000
00100000
00001000
00010000
00001000
00010000
00000100
00000000
00001000
00000000
00000000
00000010
00000000
00000000
00000001
00000000
,
00000010
00000000
00001000
00000010
00000100
00000000
00001000
00000000
00010000
00000000
00100000
00000000
01000000
00100000
10000000
00000000
,
01000000
00000000
00100000
00000000
00001000
00000000
00010000
00000000
01000000
00000000
00000000
00010000
00000000
00000000
00001000
00000000
,
00000010
00000000
00000000
00000001
00000000
00000000
00002000
00000000
00000000
00000000
00003001
00000100
00000010
00001000
00000010
00010000
,
00001000
00010000
00001000
01000000
00001000
00000000
00000000
00000000
00011000
00000000
00000000
00000000
00000000
00000000
01100000
00000000
,
00000000
00000000
10010000
00000000
00000000
11000000
00000000
00110000
,
00000000
00000000
00011000
00000000
00000000
00000000
00000000
00000000
00001000
00000010
00001000
00000000
00011000
00000000
00010000
00000000
,
00011000
00000000
00001000
00000000
00010000
00100000
00010000
00000000
00011000
00000000
00001000
00000000
00011000
00000000
00010000
00000000
,
00001000
00000000
00000000
00000100
00000000
00000000
00001000
00000000
00000000
00000000
00000000
00000000
00011000
00000000
00000000
00000000
00000000
00000000
00010000
00000000
00000000
00000000
00000000
00000000
00001000
00000000
00000000
00000000
00010000
00000000
00000000
00000000
01000000
00000000
00000000
00000000
00100000
00000000
00000000
00000000
00010000
00000000
00000000
00000000
01000000
00000000
00000000
00000000
,
00100000
00000000
00000000
00000000
00010000
00000000
00000000
00000000
00100000
00000000
00000000
00000000
10000000
00000000
00000000
00000000
00000000
00000000
00000000
00000000
00000000
00000000
00000000
00000000
10010000
00000000
00000000
00000000
00000000
00000000
00000000
00000000
00000000
00000000
00000000
00000000
10000000
00000000
00000000
00100000
00000000
00000000
00010000
00000000
00000000
00000000
00000000
00000000
,
00001000
00010000
01000000
00000000
00100000
00001000
00010000
00000000
00000010
00001000
00000100
00000000
00000010
00001000
00010000
00000000
,
00001000
00000100
00000001
00000000
00000010
00000100
00010000
00000000
00001000
00100000
01000000
00000000
10000000
01000000
00100000
00001000
,
00010000
00011000
00000000
00000000
00000000
00000000
00000000
00000000
,
00000000
00000000
00000000
00000000
;
