
//----- song ID: belu -----//
#TITLE:Beluga;
#ARTIST:BEMANI Sound Team "S-C-U";
#BANNER:Beluga.png;
#BACKGROUND:Beluga-bg.png;
#CDTITLE:./CDTitles/DDR A3.png;
#MUSIC:Beluga.ogg;
#SAMPLESTART:74.546;
#SAMPLELENGTH:15;
#BPMS:0=132;
#STAGE:3;
#NOTES:
     dance-single:
     :
     Beginner:
     1:
     :
0000
0000
0000
0000
,
0000
0000
0000
0000
,
0000
0000
0000
0000
,
0000
0000
0000
0000
,
0000
0000
0000
0000
,
1000
0000
0000
0000
,
0000
0000
0000
0000
,
1000
0000
0000
0000
,
0000
0000
0000
0000
,
0010
0000
0000
0000
,
0000
0000
0000
0000
,
0010
0000
0000
0000
,
0000
0000
0000
0000
,
0010
0000
0000
0000
,
0000
0000
0000
0000
,
0000
0000
0000
0000
,
0000
0000
0000
0000
,
0100
0000
0000
0000
,
0000
0000
0000
0000
,
0100
0000
0000
0000
,
0000
0000
0000
0000
,
0001
0000
0000
0000
,
0000
0000
0000
0000
,
0001
0000
0000
0000
,
0000
0000
0000
0000
,
0001
0000
0000
0000
,
0100
0000
0000
0000
,
0001
0000
0000
0000
,
0000
0000
0000
0000
,
0001
0000
0000
0000
,
0010
0000
0000
0000
,
0001
0000
0000
0000
,
0000
0000
0000
0000
,
0010
0000
0000
0000
,
0000
0000
0000
0000
,
0010
0000
0000
0000
,
0000
0000
0000
0000
,
1000
0000
0000
0000
,
0000
0000
0000
0000
,
0000
0000
0000
0000
,
0000
0000
0000
0000
,
1000
0000
0000
0000
,
0000
0000
0000
0000
,
0100
0000
0000
0000
,
0000
0000
0000
0000
,
1000
0000
0000
0000
,
0000
0000
0000
0000
,
0000
0000
0000
0000
,
0000
0000
0000
0000
,
0001
0000
0000
0000
,
0000
0000
0000
0000
,
0100
0000
0000
0000
,
0000
0000
0000
0000
,
0001
0000
0000
0000
,
0000
0000
0000
0000
,
0000
0000
0000
0000
,
0000
0000
0000
0000
,
1000
0000
0000
0000
,
0000
0000
0000
0000
,
0001
0000
0000
0000
,
0000
0000
0000
0000
;
#NOTES:
     dance-single:
     :
     Easy:
     4:
     :
0000
0000
0000
0000
,
0000
0000
0000
0000
,
0000
0000
0000
0000
,
0000
0000
0000
0000
,
0000
0000
0000
0000
,
0001
1000
0001
0000
,
1000
0001
1000
0000
,
0010
0100
0010
0000
,
0110
0000
0000
0000
,
1000
0000
0010
0000
,
1000
0100
0010
0000
,
0001
0000
0010
0000
,
0001
0100
0010
0000
,
1000
0000
0010
0000
,
1000
0001
0010
0000
,
0002
0000
0000
0003
,
2000
0000
0000
3000
,
0001
1000
0001
1000
,
0100
0000
0000
0000
,
1000
0001
1000
0001
,
0010
0000
0000
0000
,
0001
0100
0001
0100
,
0010
0000
0000
0000
,
1000
0000
0100
0000
,
0010
0000
0000
0000
,
0001
0000
0100
0010
,
0100
0000
0010
1000
,
0010
0000
1000
0000
,
1001
0000
0000
0000
,
1000
0000
0100
0010
,
0100
0000
0010
0001
,
0010
0000
0001
0000
,
1001
0000
0000
0000
,
2000
0000
0000
0000
,
3000
0000
0000
0000
,
0002
0000
0000
0000
,
0003
0000
0000
0000
,
0200
0000
0000
0000
,
0300
0000
0000
0000
,
0020
0000
0000
0000
,
0030
0000
0000
0000
,
1000
0000
0010
0000
,
0100
0001
0100
0000
,
0002
0000
0000
0000
,
0003
0000
0000
0000
,
0001
0000
0010
0000
,
0100
1000
0100
0000
,
2000
0000
0000
0000
,
3000
0000
0000
0000
,
1000
0100
0010
0000
,
0001
0000
0000
0000
,
1001
0000
0000
0000
,
0000
0000
0000
0000
,
0001
0100
0010
0000
,
1000
0000
0000
0000
,
1001
0000
0000
0000
,
0000
0000
0000
0000
,
0020
0000
0000
0000
,
0030
0000
0000
0000
,
0200
0000
0000
0000
,
0000
0000
0000
0000
,
0300
0000
0000
0000
,
0000
0000
0000
0000
;
#NOTES:
     dance-single:
     :
     Medium:
     7:
     :
0000
0000
0000
0000
,
0000
0000
0000
0000
,
0000
0000
0000
0000
,
0000
0000
0000
0000
,
0000
0000
0000
0000
,
0001
0100
0001
0100
,
0010
1000
0010
1000
,
0001
0000
1000
0000
0001
0000
1000
0002
,
0000
0000
0000
0003
,
1000
0000
0000
1010
0000
0000
0000
1001
,
0000
0001
0010
0000
0001
0000
1000
0000
,
0001
0000
0000
0011
0000
0000
0000
1001
,
0000
1000
0010
0000
1000
0000
0001
0000
,
1000
0000
0000
1100
0000
0000
0000
1001
,
0000
0000
0000
0001
0000
0010
0000
0200
,
0000
0000
0000
0000
0000
0000
0300
2000
,
0000
0000
0000
3000
,
1000
0010
0100
0010
,
1000
0100
0010
0000
,
0001
0100
0001
0010
,
0100
1000
0001
0000
,
0001
0100
0010
0100
,
0001
0010
0100
0000
,
1000
0000
0001
0000
,
2002
0000
0000
3003
,
1000
0010
0100
0001
,
0010
0100
0010
0001
,
1000
0100
0010
0001
,
1000
0000
1001
0000
,
0001
0010
0100
1000
,
0010
0100
0001
0100
,
0010
0000
1000
0000
,
0001
0001
1000
0000
,
0020
0000
2030
0000
,
3200
0000
0000
0300
,
0020
0000
0032
0000
,
0203
0000
0000
0300
,
1000
1000
1000
0000
,
0001
0001
0001
0000
,
0100
0000
0010
0000
0100
0010
0100
0000
,
0220
0000
0000
0330
,
0001
0000
0000
0000
1000
0000
0000
0000
0010
0000
0000
0010
0000
0000
0000
0000
,
1000
0100
0010
0001
,
1000
0000
0000
0000
0001
0000
0000
0000
0010
0000
0000
0010
0000
0000
0000
0000
,
0001
0010
0100
1000
,
0010
0000
0000
0000
1000
0000
0000
0000
0001
0000
0000
0001
0000
0000
0000
0000
,
0100
0001
0010
0100
,
1000
0010
0001
0010
,
1000
0100
0001
0100
,
1000
0000
0000
0000
0001
0000
0000
0000
0010
0000
0000
0001
0000
0000
0010
0000
,
0000
0001
0100
0000
0001
0000
0100
0000
,
0001
0000
0000
0000
1000
0000
0000
0000
0010
0000
0000
1000
0000
0000
0010
0000
,
0000
1000
0100
0000
1000
0000
0100
0000
,
1000
0000
0000
0000
0001
0000
0000
0000
0010
0000
0000
0100
0000
0000
0010
0000
,
0000
0001
1000
0001
0000
0100
0000
0010
,
1000
0100
0001
0100
,
1000
0001
0010
0100
,
2000
0000
0100
0000
,
0002
0000
0000
3003
,
0002
0000
0100
0000
,
2000
0000
0000
0000
,
3003
0000
0000
0000
,
0000
0000
0000
0000
;
#NOTES:
     dance-single:
     :
     Hard:
     11:
     :
0000
0000
0000
0000
,
0000
0000
0000
0000
,
0000
0000
0000
0000
,
0000
0000
0000
0000
,
0000
0000
0000
0000
,
1000
0000
0100
0000
0010
0001
0010
0000
,
0001
0000
0100
0000
0010
1000
0010
0000
,
1000
0100
0010
0000
0001
0100
0010
2002
,
0000
0000
0000
3003
,
0001
0000
0000
0101
0000
0000
1000
0000
0000
1100
0000
0000
0001
0000
1001
0000
,
0001
0100
0010
1000
0100
0010
0001
0000
,
1000
0000
0000
1010
0000
0000
0001
0000
0000
0011
0000
0000
1000
0000
1001
0000
,
1000
0010
0100
0001
0010
0100
1000
0000
,
0001
0000
0000
0110
0000
0000
1000
0000
0000
0110
0000
0000
0001
0000
1001
0000
,
1000
0100
0001
0100
0010
0100
1000
0020
,
0001
0000
1000
0000
0001
0000
1030
0200
,
0001
1000
0001
1300
,
1000
0000
0100
0000
0010
0000
0000
0000
0001
0000
0000
0001
0000
0000
0001
0000
,
0100
0000
0010
0000
0100
0000
0010
0000
1000
0000
0000
1000
0000
0000
1000
0000
,
0001
0000
0100
0000
0001
0000
0100
0000
0010
0000
0000
0010
0000
0000
0010
0000
,
1000
0100
1000
0100
0001
0100
1000
0001
,
0000
0000
1000
0000
0010
0000
0100
0000
0010
0000
0000
0010
0000
0000
0010
0000
,
1000
0001
0010
0100
1000
0000
1000
0001
,
0000
1000
0010
1000
0010
0001
0010
1000
,
2002
0000
0000
3003
,
0001
0100
0000
0001
0100
0000
0000
0000
0010
1000
0000
0010
1000
0000
0000
0000
,
1000
0100
0000
1000
0100
0000
0000
0000
0010
0001
0000
0010
0001
0000
0000
0000
,
0001
1000
0000
0001
1000
0000
0000
0000
0010
0100
0000
0010
0100
0000
0001
0000
,
0000
0001
1000
0000
1010
0000
0101
0001
,
1000
0100
0000
1000
0010
0000
0000
0000
0100
0001
0000
0010
0001
0000
0000
0000
,
0001
0100
0000
0010
0100
0000
0000
0000
0001
1000
0000
0100
1000
0000
0000
0000
,
0001
0010
0000
0100
1000
0000
0000
0000
0001
0100
0000
0010
1000
0000
0000
0000
,
1000
0100
0010
0001
1000
0100
0010
0001
,
2000
0000
3020
0000
0031
0010
1000
0002
,
0000
0100
0010
0103
,
0002
0000
0023
0000
1030
0010
0001
2000
,
0000
0100
0010
3100
,
0001
0000
0001
0000
0001
0000
0001
0100
,
0010
0000
1000
0000
1000
0000
1000
0100
,
0010
0001
0100
0010
1000
0100
0010
0001
,
2002
0000
0000
3003
,
0000
0000
1000
0000
0100
0000
0000
0000
0001
0000
0000
0100
0000
0000
1000
0000
,
0000
1000
0001
1000
0010
0100
0010
1000
,
0100
0000
0001
0000
0100
0000
0000
0000
1000
0000
0000
0001
0000
0000
0100
0000
,
0000
1000
0100
0001
0000
0101
0000
1010
,
0000
0000
0001
0000
0100
0000
0000
0000
1000
0000
0000
0100
0000
0000
0001
0000
,
0000
0010
0001
0010
0000
0001
1000
0020
,
0001
0000
1000
0000
0001
0000
1030
0200
,
0001
1000
0001
1300
,
0001
0000
0100
0000
0010
0000
0000
0000
1000
0010
0000
1000
0001
0000
0100
0000
,
0000
0010
1000
0010
0100
0010
1000
0010
,
1000
0000
0100
0000
0010
0000
0000
0000
0001
0010
0000
0100
0010
0000
0001
0000
,
1000
0100
0010
0001
0000
0101
0000
0110
,
0000
0000
0010
0000
1000
0000
0000
0000
0001
0100
0000
0010
1000
0000
0001
0000
,
0010
0100
0001
0100
0010
0001
1000
0100
,
0020
0000
1000
0000
0001
0000
1030
0010
,
0200
0000
0000
0000
0301
0000
0000
0000
1000
0100
1000
0000
0001
0000
0000
0000
,
0200
0000
0000
0320
0000
0000
0000
2000
,
0000
0000
0000
3030
,
2000
0000
0000
3200
0000
0000
2300
0002
,
0000
0000
0000
0000
,
3003
0000
0000
0000
,
0000
0000
0000
0000
;
#NOTES:
     dance-double:
     :
     Easy:
     4:
     :
00000000
00000000
00000000
00000000
,
00000000
00000000
00000000
00000000
,
00000000
00000000
00000000
00000000
,
00000000
00000000
00000000
00000000
,
00000000
00000000
00000000
00000000
,
00000001
00001000
00000001
00000000
,
00001000
00000010
00001000
00000000
,
00000010
00010000
00001000
00000000
,
00011000
00000000
00000000
00000000
,
00010000
00000000
00001000
00000000
,
00100000
00010000
00100000
00000000
,
01000000
00000000
10000000
00000000
,
00100000
01000000
00100000
00000000
,
10000000
00000000
00010000
00000000
,
00100000
00001000
00010000
00000000
,
00002000
00000000
00000000
00003000
,
00020000
00000000
00000000
00030000
,
00001000
00010000
00000100
00001000
,
00000010
00000000
00000000
00000000
,
00001000
00000001
00001000
00000001
,
00000010
00000000
00000000
00000000
,
00000001
00001000
00000100
00010000
,
00001000
00000000
00000000
00000000
,
00010000
00001000
00010000
00001000
,
00010000
00000000
00000000
00000000
,
00001000
00000000
01000000
00010000
,
01000000
00000000
00010000
10000000
,
00010000
00000000
10000000
00000000
,
10010000
00000000
00000000
00000000
,
10000000
00000000
00010000
00100000
,
00010000
00000000
00100000
00001000
,
00100000
00000000
00001000
00000000
,
00011000
00000000
00000000
00000000
,
00020000
00000000
00000000
00000000
,
00030000
00000000
00000000
00000000
,
00000200
00000000
00000000
00000000
,
00000300
00000000
00000000
00000000
,
00002000
00000000
00000000
00000000
,
00003000
00000000
00000000
00000000
,
00000002
00000000
00000000
00000000
,
00000003
00000000
00000000
00000000
,
00000001
00000000
00001000
00000000
,
00000010
00000100
00000010
00000000
,
00010000
00000000
00001000
00000000
,
00010000
00000000
00000000
00000000
,
00001000
00000000
01000000
00000000
,
00010000
00100000
00010000
00000000
,
10000000
00000000
00010000
00000000
,
10000000
00000000
00000000
00000000
,
10000000
01000000
00100000
01000000
,
00100000
00000000
00000000
00000000
,
01100000
00000000
00000000
00000000
,
00000000
00000000
00000000
00000000
,
00001000
00010000
00001000
00010000
,
00001000
00000000
00000000
00000000
,
00011000
00000000
00000000
00000000
,
00000000
00000000
00000000
00000000
,
00000200
00000000
00000000
00000000
,
00000300
00000000
00000000
00000000
,
00000020
00000000
00000000
00000000
,
00000000
00000000
00000000
00000000
,
00000030
00000000
00000000
00000000
,
00000000
00000000
00000000
00000000
;
#NOTES:
     dance-double:
     :
     Medium:
     7:
     :
00000000
00000000
00000000
00000000
,
00000000
00000000
00000000
00000000
,
00000000
00000000
00000000
00000000
,
00000000
00000000
00000000
00000000
,
00000000
00000000
00000000
00000000
,
00000001
00001000
00000001
00001000
,
00000010
00010000
00000010
00010000
,
00001000
00000000
00010000
00000000
00001000
00000000
00010000
00002000
,
00000000
00000000
00000000
00003000
,
00100000
00000000
00000000
00110000
00000000
00000000
00000000
10010000
,
00000000
00010000
01000000
00000000
00100000
00000000
10000000
00000000
,
01000000
00000000
00000000
01100000
00000000
00000000
00000000
00101000
,
00000000
00001000
00010000
00000000
00001000
00000000
00010000
00000000
,
00000100
00000000
00000000
00001100
00000000
00000000
00000000
00001010
,
00000000
00000000
00000000
00001000
00000000
00000100
00000000
00000020
,
00000000
00000000
00000000
00000000
00000000
00000000
00000030
00000002
,
00000000
00000000
00000000
00000003
,
00000001
00000100
00000010
00000100
,
00000010
00001000
00000100
00010000
,
00001000
00010000
00001000
01000000
,
00010000
00100000
00010000
00000000
01000000
00000000
00100000
00000000
,
10000000
01000000
00100000
01000000
,
00100000
00010000
01000000
00001000
,
00010000
00000100
00001000
00000100
,
00000220
00000000
00000000
00000330
,
00000001
00000010
00001000
00000010
,
00000001
00001000
00000100
00010000
,
00001000
00010000
00100000
01000000
,
00010000
10000000
00010000
00000000
00100000
00000000
01000000
00000000
,
10000000
00100000
00010000
00100000
,
10000000
00010000
01000000
00001000
,
00010000
00001000
00000010
00000100
,
00001000
00000001
00001000
00000000
00000010
00000100
00000010
00000000
,
00020000
00000000
00032000
00000000
,
02003000
00000000
00000000
03000000
,
00002000
00000000
00023000
00000000
,
00030200
00000000
00000000
00000300
,
00001000
00000100
00001000
00000100
,
00000010
00000001
00000010
00000001
,
00000100
00000010
00001000
00000100
,
00020000
00000000
00000000
00030000
,
00001000
00000000
00000000
00000000
00100000
00000000
00000000
00000000
00010000
00000000
00000000
00010000
00000000
00000000
00000000
00000000
,
10000000
01000000
00010000
00001000
,
00000010
00000000
00000000
00000000
00000001
00000000
00000000
00000000
00001000
00000000
00000000
00001000
00000000
00000000
00000000
00000000
,
00000001
00000100
00000010
00001000
,
00010000
00000000
00000000
00000000
01000000
00000000
00000000
00000000
00100000
00000000
00000000
00100000
00000000
00000000
00000000
00000000
,
10000000
00100000
00010000
00100000
,
10000000
01000000
00100000
00001000
,
00010000
00001000
00000010
00000100
,
00001000
00000000
00000000
00000000
00000001
00000000
00000000
00000000
00000100
00000000
00000000
00000010
00000000
00000000
00000100
00000000
,
00000000
00000001
00001000
00000000
00000100
00000000
00001000
00000000
,
00000100
00000000
00000000
00000000
00010000
00000000
00000000
00000000
00001000
00000000
00000000
00010000
00000000
00000000
00001000
00000000
,
00000000
00100000
00010000
00000000
01000000
00000000
00010000
00000000
,
00100000
00000000
00000000
00000000
01000000
00000000
00000000
00000000
10000000
00000000
00000000
00010000
00000000
00000000
10000000
00000000
,
00000000
00100000
01000000
00100000
00000000
01000000
00000000
00001000
,
00010000
00000010
00001000
00000100
,
00000010
00000001
00001000
00000100
,
00020000
00000000
00032000
00000000
,
00203000
00000000
00000000
00300000
,
00020000
00000000
20030000
00000000
,
32000000
00000000
00000000
00000000
,
03000000
00000000
00000000
00000000
,
00000000
00000000
00000000
00000000
;
#NOTES:
     dance-double:
     :
     Hard:
     11:
     :
00000000
00000000
00000000
00000000
,
00000000
00000000
00000000
00000000
,
00000000
00000000
00000000
00000000
,
00000000
00000000
00000000
00000000
,
00000000
00000000
00000000
00000000
,
00000001
00000000
00000100
00000000
00000010
00000100
00000010
00000000
,
00000100
00000000
00001000
00000000
00010000
00001000
00010000
00000000
,
00100000
10000000
01000000
00000000
00100000
01000000
20000000
00020000
,
00000000
00000000
00000000
30030000
,
10000000
00000000
00000000
10000000
00000000
00000000
01000000
00000000
00000000
01000000
00000000
00000000
00010000
00000000
00001000
00000000
,
00000010
00000100
00010000
00000100
00000010
00000001
00001000
00000000
,
00000001
00000000
00000000
00000001
00000000
00000000
00000100
00000000
00000000
00000100
00000000
00000000
00001000
00000000
00010000
00000000
,
00100000
01000000
00001000
01000000
00100000
10000000
00010000
00000000
,
10000000
00000000
00000000
10000000
00000000
00000000
00100000
00000000
00000000
00100000
00000000
00000000
00010000
00000000
00001000
00000000
,
00100000
01000000
00010000
00001000
00000010
00001000
00010000
00001000
,
00000200
00000000
00000001
00000000
00001000
00000000
00000301
00000010
,
00002000
00010000
00000100
00013000
,
00001000
00000000
01000000
00000000
00100000
00000000
00000000
00000000
10000000
00000000
00000000
10000000
00000000
00000000
10000000
00000000
,
01000000
00000000
00010000
00000000
01000000
00000000
00000000
00000000
00100000
00000000
00000000
00100000
00000000
00000000
00100000
00000000
,
00001000
00000000
00010000
00000000
00000010
00000000
00000000
00000000
00001000
00000000
00000000
00001000
00000000
00000000
00001000
00000000
,
00000010
00001000
00000100
00000000
00000011
00000000
00001100
00000000
,
00010000
00000000
00000100
00000000
00000010
00000000
00000000
00000000
00000001
00000000
00000000
00000001
00000000
00000000
00000001
00000000
,
00000100
00001000
00000100
00000010
00010000
00000000
00010000
00001000
,
00100000
00010000
00100000
10000000
00100000
00010000
10000000
00000000
,
20020000
00000000
00000000
30030000
,
10000000
00100000
00000000
10000000
00100000
00000000
00000000
00000000
10000000
00000000
01000000
00000000
00100000
00000000
00010000
00000000
,
00100000
00001000
00000000
00100000
00001000
00000000
00000000
00000000
00010000
00000000
00000100
00000000
00000010
00000000
00000001
00000000
,
00000100
00000010
00000000
00000100
00000010
00000000
00000000
00000000
00001000
00000000
00000001
00000000
00000010
00000000
00001000
00000000
,
00000000
00001000
00010000
01000000
10000000
00000000
10010000
00010000
,
10000000
01000000
00000000
10000000
01000000
00000000
00000000
00000000
00100000
00000000
01000000
00000000
00010000
00000000
00001000
00000000
,
00010000
00000100
00000000
00010000
00000100
00000000
00000000
00000000
00001000
00000000
00000010
00000000
00000100
00000000
00001000
00000000
,
00000100
00000001
00000000
00000100
00000001
00000000
00000000
00000000
00001000
00000010
00000000
00001000
00000010
00000000
00000100
00000000
,
00000001
00000100
00000010
00001000
00010000
01000000
00100000
10000000
,
00020000
00000000
02030000
00000000
13000000
01000000
00001000
00010000
,
00002000
00000010
00000000
00103000
,
00002000
00000000
00203000
00000000
01300000
00010000
00001000
00000010
,
00000200
00000001
00000000
00001300
,
00000001
00000000
00000001
00000000
00000001
00000000
00000001
00000100
,
00010000
00000000
00010000
00000000
00010000
00000000
00010000
01000000
,
00100000
10000000
01000000
00100000
00010000
00001000
00000100
00000010
,
00002002
00000000
00000000
00003003
,
00000001
00000010
00000100
00001000
00000010
00000100
00001000
00010000
,
00000100
00000010
00000100
00010000
00000010
00000100
00000010
00010000
,
00001000
00010000
00100000
01000000
00010000
00100000
01000000
10000000
,
01000000
00010000
00001000
00010000
00000000
00001000
00000000
00011000
,
00000000
00010000
00000100
00000010
00000100
00001000
00000010
00000100
,
00000010
00001000
00000001
00000100
00000010
00001000
00000100
00020000
,
00001000
00000000
01000000
00000000
00031000
00000000
00100000
00002000
,
00010000
00000100
00013000
00011000
,
00001000
00000000
00010000
00000000
00100000
00000000
00000000
00000000
10000000
00100000
00000000
10000000
01000000
00000000
10000000
00000000
,
00100000
01000000
00001000
00010000
01000000
00100000
00001000
00010000
,
00100000
00000000
01000000
00000000
00010000
00000000
00000000
00000000
00100000
00001000
00000000
00010000
00001000
00000000
00010000
00000000
,
00000100
00000010
00001000
00010000
00000010
00000100
00001000
00010000
,
00000100
00000000
00000010
00000000
00000001
00000000
00000000
00000000
00000100
00000001
00000000
00000010
00000001
00000000
00000100
00000000
,
00000010
00000100
00001000
00010000
00100000
01000000
00100000
00010000
,
00002000
00000000
00010000
00000000
00000100
00000000
00013000
00001000
,
00000020
00000001
00001000
00000031
,
00000002
00000000
00000000
00000203
00000000
00000000
00000000
00002300
,
00000000
00000000
00000000
00003000
,
00020000
00000000
00000000
00230000
00000000
00000000
20300000
00020000
,
00000000
00000000
00000000
00000000
,
30030000
00000000
00000000
00000000
,
00000000
00000000
00000000
00000000
;
