
//----- song ID: bewi -----//
#TITLE:Be With You (Still Miss you);
#ARTIST:nc ft. Eddie Kay;
#BANNER:Be With You (Still Miss you).png;
#BACKGROUND:Be With You (Still Miss you)-bg.png;
#CDTITLE:./CDTitles/DDR HOTTEST PARTY3.png;
#MUSIC:Be With You (Still Miss you).ogg;
#SAMPLESTART:69.828;
#SAMPLELENGTH:15;
#BPMS:0=116;
#STAGE:2;
#NOTES:
     dance-single:
     :
     Beginner:
     1:
     :
0000
0000
0000
0000
,
0000
0000
0000
0000
,
0000
0000
0000
0000
,
0000
0000
0000
0000
,
0000
0000
0000
0000
,
0000
0000
0000
0000
,
0001
0000
0000
0000
,
0001
0000
0000
0000
,
1000
0000
0000
0000
,
1000
0000
0000
0000
,
0010
0000
0000
0000
,
0000
0000
0000
0000
,
0010
0000
0000
0000
,
0000
0000
0000
0000
,
1000
0000
0000
0000
,
0001
0000
0000
0000
,
0100
0000
0000
0000
,
0001
0000
0000
0000
,
1000
0000
0000
0000
,
1000
0000
0000
0000
,
0001
0000
0000
0000
,
0001
0000
0000
0000
,
0100
0000
0000
0000
,
0010
0000
0000
0000
,
0010
0000
0000
0000
,
0100
0000
0000
0000
,
0001
0000
0000
0000
,
1000
0000
0000
0000
,
0010
0000
0000
0000
,
0000
0000
0000
0000
,
1000
0000
0000
0000
,
0001
0000
0000
0000
,
0100
0000
0000
0000
,
0000
0000
0000
0000
,
0001
0000
0001
0000
,
0001
0000
0000
0000
,
1000
0000
1000
0000
,
1000
0000
0000
0000
,
0010
0000
0010
0000
,
0010
0000
0000
0000
,
0100
0000
0100
0000
,
0100
0000
0000
0000
,
0001
0000
0001
0000
,
0001
0000
0000
0000
,
1000
0000
1000
0000
,
1000
0000
0000
0000
,
0010
0000
0010
0000
,
0010
0000
0000
0000
,
0100
0000
0100
0000
,
0100
0000
0000
0000
,
0002
0000
0000
0000
,
0000
0000
0003
0000
,
0000
0000
0000
0000
;
#NOTES:
     dance-single:
     :
     Easy:
     5:
     :
0000
0000
0000
0000
,
0000
0000
0000
0000
,
0000
0000
0000
0000
,
0000
0000
0000
0000
,
0000
0000
0000
0000
,
0000
0000
0000
0000
,
0001
1000
0010
0000
,
1000
0001
0100
0000
,
0001
0010
0001
0000
,
1000
0100
1000
0000
,
0002
0000
0003
0000
,
0200
0000
0300
0000
,
0020
0000
0030
0000
,
2000
0000
3000
0000
,
0001
0001
1000
0100
,
1000
1000
0001
0100
,
0001
0001
0010
0100
,
1000
1000
0001
0000
,
0001
1000
0100
0000
,
1000
0001
0100
0000
,
0001
1000
0010
0000
,
1000
0001
0010
0000
,
0001
1000
0010
0010
,
1000
0001
0100
0100
,
0001
1000
0100
0100
,
1000
0001
0010
0010
,
0001
1000
0200
0300
,
0010
0001
2000
3000
,
0001
0010
0100
1000
,
0100
0010
0001
0000
,
1000
0010
0200
0300
,
0001
1000
0200
0300
,
1000
0010
0100
0001
,
2000
0000
3001
0000
,
1000
0001
0100
0001
,
0010
0100
1000
0001
,
0100
0010
0100
0001
,
1000
0100
1000
0000
,
2000
0100
3010
0000
,
0002
0100
0013
0000
,
2000
0100
3010
0000
,
0002
0100
0013
0000
,
0001
1000
0010
0100
,
0010
1000
0100
1000
,
0001
0100
0010
1000
,
0100
0010
0001
0000
,
0002
0010
0103
0000
,
2000
0010
3100
0000
,
0002
0010
0103
0000
,
2000
0010
3100
0000
,
0020
0000
0000
0000
,
0000
0000
0030
0000
,
0000
0000
0000
0000
;
#NOTES:
     dance-single:
     :
     Medium:
     8:
     :
0000
0000
0000
0000
,
0000
0000
0000
0000
,
0000
0000
0000
0000
,
0000
0000
0000
0000
,
0000
0000
0000
0000
,
0000
0000
0000
0000
,
1000
0000
0001
0000
0100
0010
1000
0000
,
0001
0000
1000
0000
0001
0010
0100
0000
,
1000
0000
0001
0000
0100
0001
1000
0000
,
0001
0000
1000
0000
0100
0010
0001
0000
,
2000
0010
0000
3010
,
0002
0100
0000
0103
,
2000
0010
0000
3010
,
0002
0100
0000
0103
,
1000
0001
0001
0000
0001
0010
0100
0000
,
1000
0001
0001
0000
0100
0010
1000
0000
,
0001
1000
1000
0000
1000
0100
0010
0000
,
0001
1000
1000
0000
0010
0100
0001
0000
,
1000
0000
0001
0000
0100
0000
0001
0010
,
0100
1000
0001
0000
,
0001
0010
0100
1000
,
0010
0000
1000
0001
0000
0001
0100
0000
,
0001
1000
1000
0000
0010
1000
0001
0000
,
1000
0010
0010
0000
0100
0010
1000
0000
,
0001
0100
0100
0000
0001
0010
0100
0000
,
1000
0001
0001
0000
1000
0010
0100
0000
,
0002
0023
0230
0300
,
2000
3002
0203
0300
,
0002
0023
2030
3020
,
0032
0203
0320
0030
,
2000
3200
0320
0030
,
0002
2003
3020
0030
,
2000
3200
0302
0203
,
2300
0000
3001
0000
,
0001
0000
0100
0001
0010
0000
0001
0000
,
1000
0000
0100
1000
0010
0000
1000
0000
,
0001
0000
0100
0001
0010
0000
0001
0000
,
1000
0000
0100
1000
0010
0000
0000
0000
,
1000
0000
0001
0100
0000
0001
0020
0000
,
0100
0001
0130
0000
,
0001
0000
1000
0010
0000
1000
0200
0000
,
0010
1000
0310
0000
,
1000
0000
0001
0010
0200
0000
0001
0000
,
1300
0000
1000
0010
0200
0000
1000
0000
,
0301
0000
0001
0010
0200
0000
0001
0000
,
1300
0000
1000
0010
0100
0000
0001
0000
,
1000
0000
0001
0100
0000
0100
0010
0000
,
1000
0000
0001
0000
1000
0100
1000
0001
,
0100
0000
0001
0010
0000
0100
1000
0000
,
0001
0100
0001
0010
,
0002
0000
0000
1000
0000
0000
0000
0000
,
0000
0000
0003
0000
,
0000
0000
0000
0000
;
#NOTES:
     dance-single:
     :
     Hard:
     12:
     :
0000
0000
0000
0000
,
0000
0000
0000
0000
,
0000
0000
0000
0000
,
0000
0000
0000
0000
,
0000
0000
0000
0000
,
0000
0000
0000
0000
,
0001
0000
1000
0000
0100
0000
1000
0000
0001
0000
0000
0100
0000
0000
0000
0000
,
0001
0000
0010
0000
0100
0000
1000
0000
0001
0000
0000
0100
0000
0000
0001
0000
,
1000
0000
0100
0000
1000
0000
0001
0000
0100
0000
0000
0010
0000
0000
0000
0000
,
1000
0000
0001
0000
0010
0000
0100
0000
1000
0000
0000
0010
0000
0000
1000
0000
,
0002
0000
0100
0003
1000
0001
0010
0200
,
0000
0000
0000
0300
0000
1000
0001
0100
,
0010
0100
0001
0010
0200
0000
0310
0002
,
0000
0000
0000
0013
0000
0010
0100
1000
,
0001
0000
0100
0000
0010
0000
0100
0100
0001
0010
0000
0001
0000
1000
0000
0010
,
0100
0000
0001
0000
1000
0000
0100
0100
1000
0010
0000
0100
0000
0001
0000
1000
,
0100
0000
1000
0000
0010
0000
0100
0100
0001
1000
0000
0100
0000
1000
0000
0001
,
0010
0000
0001
0000
1000
0000
0001
0001
0100
0010
0000
1000
0000
0001
0000
0100
,
0020
0100
1030
0001
0010
0100
1000
0001
,
0200
0010
0301
1000
0010
0100
0010
1000
,
0002
0010
1003
0001
0100
0001
0010
0100
,
2000
0000
0100
0000
3001
0000
1000
0000
0001
0000
0100
0010
0000
0000
1000
0000
,
0001
0000
0100
0000
0001
0000
1000
1000
0100
0010
0000
0001
0000
0100
0000
0001
,
1000
0000
0100
0000
1000
0000
0010
0010
0100
0001
0000
1000
0000
0100
0000
1000
,
0001
0000
0010
0000
0100
0000
1000
1000
0010
0100
0000
0001
0000
0010
0000
0001
,
1000
0000
0010
0000
0100
0000
0001
0001
0010
0100
0000
1000
0000
0010
0000
1000
,
0002
0023
0230
2300
3002
0203
0300
0010
,
2000
3200
0320
2030
3020
0032
0003
0100
,
0002
2003
3020
0230
0302
0023
0000
2030
,
0000
3020
0032
0000
0003
0000
0100
0000
,
0002
2003
3200
2300
3020
0230
0300
0001
,
2000
3002
0023
0230
2300
3002
0003
0100
,
0002
2003
3020
0230
0320
2030
3200
0320
,
0032
0000
0000
0000
0100
0000
0000
0000
1003
0000
0000
1000
0000
0000
1000
0000
,
0001
0000
0010
0100
1000
0000
0001
0000
0100
0010
0000
0010
0000
0000
0000
0000
,
1000
0000
0001
0100
0010
0000
1000
0000
0001
0010
0000
0010
0000
0000
0000
0000
,
0001
0000
1000
0010
0100
0000
0001
0000
1000
0001
0000
0010
0000
0000
0000
0000
,
0001
0000
1000
0001
0100
0000
0010
0000
1000
0001
0000
0001
0100
0000
0010
0000
,
2000
0000
3002
0023
0000
0032
0203
0000
,
0010
0000
0001
0000
0000
0000
0001
0000
0310
0000
0000
0001
0000
0000
1000
0000
,
0002
0000
2003
3020
0000
2030
3200
0000
,
0010
0000
1000
0000
0000
0000
1000
0000
0310
0000
0000
0001
0000
0000
1000
0000
,
0001
0000
0100
0010
0000
0000
1000
0000
0001
0010
0000
0100
0000
0000
1000
0000
,
0001
0000
0100
0010
0000
0000
0100
0000
0001
0010
0000
0001
0000
0000
1000
0000
,
0001
0000
1000
0010
0000
0000
0100
0000
0001
1000
0000
0100
0000
0000
1000
0000
,
0010
0000
1000
0001
0000
0000
0010
0000
0001
0100
0000
0010
0000
0000
1000
0000
,
0100
0000
1000
0001
0100
0000
0010
0000
1000
0000
0100
0000
1000
0000
0010
0000
,
1000
0000
0001
0010
0100
0000
1000
0000
0010
0000
0100
0000
0010
0000
1000
0000
,
0001
0000
1000
0100
0010
0000
0001
0000
1000
0000
0010
0100
0001
0000
0010
0000
,
0100
0000
1000
0001
0100
0000
0001
0000
0010
0000
0100
1000
0010
0000
1000
0000
,
0002
0000
0000
2000
0000
0000
0000
0000
,
0000
0000
0000
0000
0000
0000
0000
0003
3000
0000
0000
0000
0000
0000
0000
0000
,
0000
0000
0000
0000
;
#NOTES:
     dance-double:
     :
     Easy:
     5:
     :
00000000
00000000
00000000
00000000
,
00000000
00000000
00000000
00000000
,
00000000
00000000
00000000
00000000
,
00000000
00000000
00000000
00000000
,
00000000
00000000
00000000
00000000
,
00000000
00000000
00000000
00000000
,
00010000
00001000
00001000
00000000
,
00010000
00000100
00001000
00000000
,
00000001
00000100
00000010
00000000
,
00001000
00000100
00000010
00000000
,
00000002
00000000
00000003
00000000
,
00000200
00000000
00000300
00000000
,
00020000
00000000
00030000
00000000
,
02000000
00000000
03000000
00000000
,
00100000
00100000
10000000
00010000
,
10000000
10000000
01000000
00100000
,
00010000
00010000
01000000
00001000
,
00010000
00010000
00000100
00000010
,
00000001
00000000
00000100
00000000
,
00010000
00000000
01000000
00000000
,
00001000
00000000
01000000
00000000
,
00010000
00000000
00000100
00000000
,
00000001
00000001
00000010
00000100
,
00001000
00001000
00000010
00010000
,
00001000
00001000
01000000
00100000
,
10000000
10000000
00010000
00000000
,
20000000
32000000
03020000
00030000
,
00000020
00002030
00003200
00000300
,
00010000
00001000
00010000
00000100
,
00000010
00000001
00001000
00000000
,
00000002
00000023
00002030
00003000
,
02000000
03020000
00230000
00300000
,
00001000
00010000
00001000
00010000
,
00002000
00000000
00003000
00000000
,
00010000
00001000
01000000
00000000
,
00100000
00010000
00001000
00000000
,
00010000
00001000
00100000
00000000
,
01000000
00010000
00001000
00000000
,
00010000
00000000
00100000
00000000
,
00010000
00000000
00001000
00000000
,
00000010
00000000
00001000
00000000
,
00010000
00000000
00001000
00000000
,
01000000
00010000
00100000
00000000
,
00001000
00010000
00000100
00000000
,
00010000
00001000
00010000
00000000
,
00000010
00001000
00000100
00000000
,
00010000
00000000
01000000
00000000
,
00010000
00000000
00001000
00000000
,
00000100
00000000
00001000
00000000
,
00010000
00000000
00001000
00000000
,
00020000
00000000
00000000
00000000
,
00000000
00000000
00030000
00000000
,
00000000
00000000
00000000
00000000
;
#NOTES:
     dance-double:
     :
     Medium:
     9:
     :
00000000
00000000
00000000
00000000
,
00000000
00000000
00000000
00000000
,
00000000
00000000
00000000
00000000
,
00000000
00000000
00000000
00000000
,
00000000
00000000
00000000
00000000
,
00000000
00000000
00000000
00000000
,
00001000
00000000
00010000
00000000
00000100
00001000
00000010
00000000
,
00010000
00000000
00001000
00000000
01000000
00010000
00100000
00000000
,
00001000
00000000
00010000
00000000
01000000
00100000
00010000
00000000
,
10000000
00100000
10000000
00000000
,
20000000
00000000
30000000
00000000
,
00020000
00000000
00030000
00000000
,
00000020
00000000
00000030
00000000
,
00000200
00000000
00000300
00000000
,
00010000
00001000
00010000
00000000
00000100
00001000
00000001
00000000
,
00001000
00000010
00010000
00000000
00001000
00010000
00000100
00000000
,
00001000
00000001
00001000
00000000
00000010
00010000
00001000
00000000
,
00010000
00000100
00001000
00000000
00000001
00001000
00000010
00000000
,
00000100
00000001
00000100
00001000
,
00010000
00010000
00001000
01000000
,
00010000
00100000
01000000
10000000
,
00010000
01000000
00100000
10000000
,
00010000
00100000
00001000
00000000
00010000
00001000
01000000
00000000
,
00010000
10000000
00010000
00000000
00100000
00001000
00010000
00000000
,
00001000
01000000
00010000
00000000
10000000
00010000
00100000
00000000
,
00001000
00010000
00001000
00000000
01000000
00010000
10000000
00000000
,
20000000
30200000
00320000
00030000
,
00000020
00002030
00003200
00000300
,
00020000
02030000
23000000
30200000
,
00320000
00032000
00003200
00000300
,
00000002
00000023
00002030
00003000
,
00200000
00320000
02030000
03000000
,
00002000
00003200
00000302
00000023
,
00000230
00000000
00000300
00000000
,
00010000
00000000
00000100
00001000
00000020
00000000
00000001
00000000
,
00001030
00000000
00000100
00010000
00002000
00000000
00000010
00000000
,
00013000
00000000
00000100
00001000
00000020
00000000
00000001
00000000
,
00001030
00000000
00000100
00010000
00002000
00000000
00003010
00000000
,
00000001
00000000
00001000
00000010
00000000
00000010
00000100
00000000
,
00000001
00000010
00000100
00010000
,
00001000
00000000
01000000
00010000
00000000
00010000
00100000
00000000
,
00010000
01000000
00001000
00010000
,
00001000
00000000
00100000
00010000
02000000
00000000
10000000
00000000
,
03010000
00000000
00100000
00001000
00020000
00000000
01000000
00000000
,
00031000
00000000
00100000
00010000
02000000
00000000
10000000
00000000
,
03010000
00000000
00100000
00001000
00020000
00000000
01030000
00000000
,
10000000
00000000
00100000
01000000
00000000
00010000
00100000
00000000
,
00001000
00000000
00010000
00000000
00000010
00001000
00000001
00000010
,
00000100
00000000
00001000
00000100
00000000
00010000
00001000
00000000
,
01000000
00100000
10000000
00010000
,
00200000
00000000
00000000
01000000
00000000
00000000
00000000
00000000
,
00000000
00000000
00300000
00000000
,
00000000
00000000
00000000
00000000
;
#NOTES:
     dance-double:
     :
     Hard:
     12:
     :
00000000
00000000
00000000
00000000
,
00000000
00000000
00000000
00000000
,
00000000
00000000
00000000
00000000
,
00000000
00000000
00000000
00000000
,
00000000
00000000
00000000
00000000
,
00000000
00000000
00000000
00000000
,
00010000
00000000
00001000
00000000
00010000
00000000
00000100
00000000
00001000
00000000
00000000
00000010
00000000
00000000
00000000
00000000
,
00010000
00000000
00001000
00000000
01000000
00000000
00010000
00000000
00100000
00000000
00000000
00001000
00000000
00000000
00000000
00000000
,
00010000
00000000
00001000
00000000
00010000
00000000
00000010
00000000
00001000
00000000
00000000
00000100
00000000
00000000
00000000
00000000
,
00010000
00000000
00001000
00000000
00100000
00000000
00010000
00000000
01000000
00000000
00000000
00001000
00000000
00000000
00010000
00000000
,
00010000
00000000
00001000
00000000
01000000
00010000
10000000
02000000
,
00000000
00000000
00000000
03000000
00000000
00010000
00001000
00000100
,
00000010
00001000
00000001
00000010
00001000
00000000
00010000
00002000
,
00000000
00000000
00000000
01003000
00000000
01000000
00100000
00010000
,
00001000
00000000
00010000
00000000
00000100
00000000
00001000
00001000
00000010
00010000
00000000
00001000
00000000
00000100
00000000
00000010
,
00010000
00000000
00001000
00000000
00100000
00000000
00010000
00010000
01000000
00001000
00000000
00010000
00000000
00100000
00000000
01000000
,
00001000
00000000
00010000
00000000
00000010
00000000
00001000
00001000
00000100
00010000
00000000
00001000
00000000
00000010
00000000
00000100
,
00010000
00000000
00001000
00000000
01000000
00000000
00010000
00010000
00100000
00001000
00000000
00010000
00000000
01000000
00000000
00100000
,
00002000
00000000
00013000
00000100
00000010
00001000
00000010
00000001
,
00000200
00000000
00001300
00010000
00001000
00010000
01000000
00100000
,
00020000
00000000
10030000
00100000
00010000
00001000
00100000
01000000
,
20000000
00000000
30010000
01000000
00100000
00010000
00001000
00010000
,
00000100
00000000
00001000
00000000
00000010
00000000
00010000
00010000
00001000
01000000
00000000
00100000
00000000
00010000
00000000
00001000
,
00100000
00000000
00010000
00000000
01000000
00000000
00001000
00001000
00010000
00000010
00000000
00000100
00000000
00001000
00000000
00010000
,
00000010
00000000
00001000
00000000
00000100
00000000
00010000
00010000
00001000
00100000
00000000
01000000
00000000
00010000
00000000
00001000
,
01000000
00000000
00010000
00000000
00100000
00000000
00001000
00001000
00010000
00000100
00000000
00000010
00000000
00001000
00000000
00010000
,
00000020
00002030
00003002
00000023
00000230
00002300
00003000
00000010
,
00020000
00032000
00003200
00000320
00000032
00000023
00000030
00010000
,
00000200
00020300
00032000
00003020
00000230
00020300
00032000
00003200
,
00000000
00000302
00000023
00000000
00000000
00000030
00000001
00000000
,
00000200
00002300
00023000
00230000
02300000
23000000
30000000
01000000
,
00002000
00203000
00320000
00032000
00003200
00000320
00000030
00001000
,
00020000
00032000
00003200
00000320
00000032
00002003
00023000
00030200
,
00000000
00000000
00000000
00000000
00000000
00000000
00000000
00000000
00010300
00000000
00000000
00010000
00000000
00000000
00010000
00000000
,
00001000
00010000
00100000
01000000
00001000
00010000
01000000
10000000
,
00100000
10000000
01000000
00010000
00001000
00010000
00000010
00000100
,
00001000
00010000
00001000
00000010
00000001
00000100
00000001
00000010
,
00001000
00010000
00001000
00000100
00001000
00010000
00001000
00000000
,
00010000
00000000
00001000
00100000
00000000
00010000
02000000
00000000
,
10000000
00010000
03001000
00010000
,
00001000
00000000
00010000
00000010
00000000
00001000
00000200
00000000
,
00000001
00001000
00010300
00001000
,
00010000
00000000
00001000
00010000
00000100
00000000
00001000
00000000
00000100
00010000
00000000
00001000
00000000
00000000
00010000
00000000
,
00001000
00000000
00010000
00001000
00100000
00000000
00010000
00000000
00100000
00001000
00000000
00010000
00000000
00000000
00001000
00000000
,
00010000
00000000
00001000
00010000
00000010
00000000
00001000
00000000
00000010
00010000
00000000
00001000
00000000
00000000
00010000
00000000
,
00001000
00000000
00010000
00001000
01000000
00000000
00010000
00000000
01000000
00001000
00000000
00010000
00000000
00000000
00001000
00000000
,
00010000
00000000
00000100
00001000
00000100
00000000
00000010
00000000
00000001
00001000
00000000
00001000
00000010
00000000
00010000
00000000
,
00001000
00000000
01000000
00010000
01000000
00000000
00100000
00000000
10000000
00010000
00000000
00010000
00100000
00000000
00001000
00000000
,
00010000
00000000
00000010
00001000
00000010
00000000
00000100
00000000
00000001
00001000
00000000
00001000
00000100
00000000
00010000
00000000
,
00001000
00000000
00100000
00010000
00100000
00000000
01000000
00000000
10000000
00010000
00000000
00010000
01000000
00000000
00001000
00000000
,
00020000
00000000
00000000
00002000
00000000
00000000
00000000
00000000
,
00000000
00000000
00000000
00000000
00000000
00000000
00000000
00030000
00003000
00000000
00000000
00000000
00000000
00000000
00000000
00000000
,
00000000
00000000
00000000
00000000
;
