
//----- song ID: bath -----//
#TITLE:Battle Against a True Hero;
#ARTIST:Toby Fox;
#BANNER:Battle Against a True Hero.png;
#BACKGROUND:Battle Against a True Hero-bg.png;
#CDTITLE:./CDTitles/DDR A3.png;
#MUSIC:Battle Against a True Hero.ogg;
#SAMPLESTART:22.4;
#SAMPLELENGTH:15;
#BPMS:0=75,28=150,156=75,180=150;
#STAGE:30;
#NOTES:
     dance-single:
     :
     Beginner:
     2:
     :
0000
0000
0000
0000
,
0000
0000
0000
0000
,
0000
0000
0000
0000
,
0001
0000
0000
0000
,
0001
0000
0000
0000
,
0010
0000
0000
0000
,
0010
0000
0000
0000
,
0100
0000
0000
0000
,
0100
0000
0000
0000
,
1000
0000
0000
0000
,
0000
0000
0000
0000
,
0100
0000
0000
0000
,
0100
0000
0000
0000
,
0001
0000
0000
0000
,
0000
0000
0000
0000
,
0010
0000
0000
0000
,
0010
0000
0000
0000
,
1000
0000
0000
0000
,
0000
0000
0000
0000
,
0010
0000
0000
0000
,
0010
0000
0000
0000
,
0001
0000
0000
0000
,
0000
0000
0000
0000
,
0002
0000
0000
0000
,
0003
0000
0000
0000
,
0020
0000
0000
0000
,
0030
0000
0000
0000
,
0200
0000
0000
0000
,
0300
0000
0000
0000
,
2000
0000
0000
0000
,
3000
0000
0000
0000
,
1000
0000
0100
0000
,
1000
0000
0000
0000
,
0020
0000
0000
0000
,
0030
0000
0000
0000
,
0001
0000
0010
0000
,
0001
0000
0000
0000
,
0200
0000
0000
0000
,
0300
0000
0000
0000
,
1001
0000
0000
1001
,
0000
0000
0000
0000
0010
0000
0000
0100
,
0000
0010
0000
0000
,
1001
0000
0000
1001
,
0000
0000
0000
0000
0100
0000
0000
0010
,
0000
0100
0000
0000
,
2000
0000
0000
3000
,
0000
0000
1000
0000
,
0000
0010
0000
0000
,
0002
0000
0000
0003
,
0000
0000
0001
0000
,
0000
0100
0000
0000
,
1000
0000
0000
1001
,
0000
0000
0010
0000
,
0000
0100
0000
0000
,
0010
0000
0000
1001
,
0000
0000
0001
0000
,
0000
0200
0000
0000
,
0300
0000
0000
0000
,
0000
0000
0000
0000
;
#NOTES:
     dance-single:
     :
     Easy:
     7:
     :
0000
0000
0000
0000
,
0000
0000
0000
0000
,
0000
0000
0000
0000
,
1000
0100
0010
0010
,
0001
0100
0010
0000
,
0001
0010
0100
0100
,
1000
0010
0100
0000
,
0001
0010
0001
0010
,
0100
1000
0100
0000
,
1000
0010
1000
0010
,
0100
0001
0100
0000
,
0001
0010
0110
0000
,
1000
0010
0110
0000
,
0001
0100
0110
0000
,
1000
0100
0110
0000
,
2000
0000
0010
0000
,
0100
0100
3100
0000
,
0002
0000
0010
0000
,
0100
0100
0103
0000
,
1000
0100
0020
0000
,
0100
0000
0031
0000
,
0001
0100
0020
0000
,
0100
0000
1030
0000
,
1000
0000
0001
0000
0100
0010
0100
0000
,
0001
0010
0100
1000
,
2020
0000
3030
0000
,
0202
0000
0303
0000
,
0001
0000
1000
0000
0100
0010
0100
0000
,
1000
0010
0100
0001
,
0022
0000
0033
0000
,
2200
0000
3300
0000
,
1000
0000
0001
0000
0100
0010
1000
0000
,
0001
1000
0001
0000
,
0010
1000
0100
0000
,
0010
0001
0100
0000
,
0001
0000
1000
0000
0010
0100
0001
0000
,
0010
0100
0010
0000
,
0100
1000
0010
0000
,
0100
0001
0010
0100
,
2000
0000
3000
1000
0000
0000
0100
0000
,
0000
0110
0000
0000
0020
0000
0030
0010
,
0000
0000
0001
0000
0000
1001
0000
0000
,
0001
0000
0001
0100
0000
0000
1000
0000
,
1000
0010
0000
0000
1000
0000
1000
0100
,
0000
0000
0001
0000
0001
0010
0000
0000
,
0002
0010
0013
2000
,
0010
0000
3010
0000
1000
0000
0000
0001
,
0000
0000
2002
0000
0000
3003
0000
0000
,
2000
0100
3100
0002
,
0100
0103
0001
1000
,
0001
2002
0000
3003
,
1000
0100
0010
0001
,
1000
0001
0100
0010
,
1000
0000
0001
0000
0000
0001
0000
0000
,
1000
1000
0100
0010
,
0010
0001
2002
0000
,
3003
0220
0000
0330
,
0000
0000
0000
0000
;
#NOTES:
     dance-single:
     :
     Medium:
     12:
     :
0000
0000
0000
0000
,
0000
0000
0000
0000
,
0000
0000
0000
0000
,
1000
0000
0000
0100
0000
0000
1000
0000
0000
0100
0000
0000
1000
0000
MMMM
0000
0010
0000
0000
0001
0000
0000
0010
0000
0000
0001
0000
0000
0010
0000
0000
0000
,
0001
0000
0000
0100
0000
0000
0001
0000
0000
0100
0000
0000
0001
0000
MMMM
0000
0010
0000
0000
1000
0000
0000
0010
0000
0000
1000
0000
0000
0010
0000
0000
0000
,
1000
0000
0000
1000
0000
0000
0100
0000
0000
0100
0000
0000
0010
0000
0010
0000
0001
0000
0000
0001
0000
0000
0100
0000
0000
0100
0000
0000
0110
0000
MMMM
0000
,
0001
0000
0000
0001
0000
0000
0100
0000
0000
0100
0000
0000
0010
0000
0010
0000
1000
0000
0000
1000
0000
0000
0100
0000
0000
0100
0000
0000
0110
0000
MMMM
0000
,
0001
1000
0000
0001
1000
0000
0010
0100
0000
MMMM
0000
0000
0100
0000
0010
0000
,
1000
0100
0000
1000
0100
0000
0010
0001
0000
MMMM
0000
0000
0001
0000
1000
0000
,
0001
0010
0000
0100
1000
0000
0001
1000
0000
MMMM
0000
0000
1000
0000
0001
0000
,
1000
0100
0000
0010
0001
0000
0100
0010
0000
MMMM
0000
0000
0110
0000
0000
0000
,
1000
0001
0000
1000
0001
0000
0010
0100
0000
MMMM
0000
0000
0100
0000
0010
0000
,
0001
0100
0000
0001
0100
0000
0010
1000
0000
MMMM
0000
0000
1000
0000
0001
0000
,
1000
0010
0000
0100
0001
0000
1000
0001
0000
MMMM
0000
0000
0001
0000
1000
0000
,
0001
0100
0000
0010
1000
0000
0100
0010
0000
MMMM
0000
0000
0110
0000
0000
0000
,
0002
0000
0010
0000
0100
0100
0103
MMMM
,
2000
0000
0010
0000
0100
0100
3100
MMMM
,
0001
0000
0101
MMMM
1000
0000
1100
MMMM
,
0001
0010
0011
MMMM
1000
0010
1010
MMMM
,
0002
0000
0100
0000
0010
0010
0013
MMMM
,
2000
0000
0100
0000
0010
0010
3010
MMMM
,
0001
0000
0011
MMMM
1000
0000
1010
MMMM
,
0001
0100
0101
MMMM
1000
0100
1100
MMMM
,
1000
0000
0000
0001
0000
0000
0100
0000
0020
0000
0000
0000
0001
0000
0000
0000
,
1000
0000
0001
0000
1030
MMMM
1000
0100
,
0010
MMMM
0011
0000
0010
MMMM
1010
0000
,
0001
0010
0001
MMMM
0001
0100
0001
MMMM
,
0001
0010
0100
0010
0001
MMMM
1001
MMMM
,
1000
0010
0100
0010
1000
MMMM
1001
MMMM
,
0001
0100
1000
0000
1000
0100
0001
0000
,
1000
0100
0001
0000
0001
0100
1000
0000
,
0001
0000
0000
1000
0000
0000
0010
0000
0200
0000
0000
0000
1000
0000
0000
0000
,
0001
0000
1000
0000
0301
MMMM
0001
0010
,
0100
MMMM
1100
0000
0100
MMMM
0101
0000
,
1000
0100
1000
MMMM
1000
0010
1000
MMMM
,
1000
0100
0010
0100
1000
MMMM
1001
MMMM
,
0001
0100
0010
0100
0001
MMMM
1001
MMMM
,
1000
0010
0001
0000
0001
0010
1000
0000
,
0001
0010
1000
0000
1000
0010
0001
0000
,
2000
0100
3100
0110
MMMM
MMMM
0001
MMMM
,
0001
0100
MMMM
0100
0002
0010
0013
0110
,
MMMM
MMMM
1000
MMMM
1000
0010
MMMM
0010
,
2000
0001
3001
0200
0010
0310
0110
MMMM
,
MMMM
1001
MMMM
MMMM
0002
1000
1003
0020
,
0100
0130
0110
MMMM
MMMM
1001
MMMM
MMMM
,
1000
0010
0100
0001
0100
0010
1000
0000
,
MMMM
0000
1010
0000
1000
0001
1000
0000
,
MMMM
0000
0001
1000
0001
0000
MMMM
0000
,
0001
0010
0100
1000
0100
0010
0001
0000
,
MMMM
0000
0011
0000
0010
0100
1000
MMMM
,
0010
0100
2000
0000
0010
0000
3001
0000
,
0001
0010
0001
0100
0001
0010
0100
MMMM
,
0100
1000
0100
1000
0100
0000
MMMM
0110
,
0000
MMMM
0011
0000
MMMM
1100
0000
MMMM
,
2001
0000
3001
0010
1000
0010
0002
0000
,
0023
0230
2300
0010
,
0100
0000
3002
0000
0010
0000
0100
0103
,
0000
0000
0000
0000
;
#NOTES:
     dance-single:
     :
     Hard:
     15:
     :
0000
0000
0000
0000
,
0000
0000
0000
0000
,
0000
0000
0000
0000
,
0001
0000
0000
0010
0000
0000
0100
0000
0000
1000
0000
0000
0010
0000
0100
0000
0010
0000
0000
1000
0000
0000
0100
0000
0000
0010
0000
0000
0110
0000
MMMM
0000
,
1000
0000
0000
0100
0000
0000
0010
0000
0000
0001
0000
0000
0100
0000
0010
0000
0100
0000
0000
0001
0000
0000
0010
0000
0000
0100
0000
0000
0110
0000
MMMM
0000
,
0001
0000
0000
0101
0000
0000
0100
0000
0000
0110
0000
0000
1010
0000
1000
0100
1000
0000
0000
1010
0000
0000
0010
0000
0000
0110
0000
0000
0101
0000
MMMM
0000
,
1000
0000
0000
1010
0000
0000
0010
0000
0000
0110
0000
0000
0101
0000
0001
0010
0001
0000
0000
0101
0000
0000
0100
0000
0000
0110
0000
0000
1010
0000
MMMM
0000
,
1000
0100
0000
1000
0100
0000
0010
0001
0000
0010
0001
0000
1000
0010
1000
0010
,
1000
0001
0000
1000
0001
0000
0010
0100
0000
0010
0100
0000
0110
0000
MMMM
0000
,
0001
0010
0000
0001
0010
0000
0100
1000
0000
0100
1000
0000
0001
0100
0001
0100
,
0001
1000
0000
0001
1000
0000
0100
0010
0000
0100
0010
0000
0110
0000
MMMM
0000
,
0001
0010
0001
0000
1000
0100
1000
0100
0000
1000
0001
1000
0001
0000
MMMM
0000
,
0001
0100
0001
0000
1000
0010
1000
0010
0000
1000
0001
1000
0001
0000
MMMM
0000
,
1000
0010
1000
0000
0001
0100
0001
0100
0000
0001
1000
0001
1000
0000
MMMM
0000
,
1000
0100
1000
0000
0001
0010
0001
0010
0000
0001
1000
0001
1000
0000
MMMM
0000
,
2000
0100
0001
0001
0001
0010
3010
MMMM
,
0002
0100
1000
1000
1000
0010
0013
MMMM
,
2000
0010
3020
0100
0001
0100
1030
MMMM
,
0002
0010
0023
0100
1000
0100
0031
MMMM
,
0002
0010
1000
0100
2003
0010
0100
0001
,
3020
0100
0001
1000
0230
1000
0301
MMMM
,
2000
0100
0001
0010
3002
0100
0010
1000
,
0203
0010
1000
0001
0320
0001
1030
MMMM
,
0001
0100
0000
0010
1000
0000
0001
0010
0200
0000
1000
0000
1300
0000
MMMM
0000
,
0020
0000
0001
0000
0031
0000
MMMM
0000
0001
0000
0010
0100
1000
0000
0001
0000
,
0200
0000
0310
1000
0020
0000
0130
0001
0200
0000
0310
1000
0020
0000
0130
0001
,
0020
0000
0130
1000
0020
0000
0130
0001
0020
0000
2030
0000
3020
0000
0032
0000
,
2003
0100
3100
MMMM
0002
0100
0103
MMMM
,
2000
0010
3010
MMMM
0002
0010
0013
MMMM
,
0001
0100
0000
0001
0100
0000
0010
1000
0010
0000
MMMM
0000
0110
0000
MMMM
0000
,
0100
0001
0000
0100
0001
0000
1000
0010
1000
0000
MMMM
0000
1001
0000
MMMM
0000
,
1000
0010
0000
0100
0001
0000
1000
0100
0020
0000
0001
0000
0031
0000
MMMM
0000
,
0200
0000
1000
0000
1300
0000
MMMM
0000
1000
0000
0100
0010
0001
0000
1000
0000
,
0020
0000
0130
0001
0200
0000
0310
1000
0020
0000
0130
0001
0200
0000
0310
1000
,
0200
0000
0310
0001
0200
0000
0310
1000
0200
0000
0302
0000
0203
0000
2300
0000
,
3002
0010
0013
MMMM
2000
0010
3010
MMMM
,
0002
0100
0103
MMMM
2000
0100
3100
MMMM
,
1000
0010
0000
1000
0010
0000
0100
0001
0100
0000
MMMM
0000
0110
0000
MMMM
0000
,
0010
0000
1000
0010
1000
0000
0001
0100
0000
0001
1000
0000
0010
0200
0000
0000
,
0301
0100
1000
MMMM
1000
0100
0001
MMMM
0001
0010
0001
0100
0010
0000
1000
0100
,
0000
0000
0010
0000
0001
0000
0000
MMMM
0000
0000
1000
0000
0000
MMMM
0000
0000
1000
0000
0100
0000
0001
0000
MMMM
0000
0001
0000
0100
0000
1000
0000
MMMM
0000
,
1000
0000
0010
0000
1000
0000
0100
0000
0020
0000
0000
0000
0032
0000
0000
0000
1003
0000
0010
0100
0020
0000
0000
0000
0100
0000
0000
0000
0130
0000
MMMM
0000
,
1000
0000
0100
0000
1000
0000
0100
0000
0010
0000
0001
0000
0010
0000
0000
0000
MMMM
0000
0000
0000
0011
0000
0000
0000
0101
0000
0000
MMMM
0000
0000
1010
0000
,
0000
MMMM
0000
0000
1100
0000
0000
MMMM
0000
0000
0011
0000
0000
MMMM
0000
0000
0001
0000
0100
0000
0001
0000
0100
0000
0010
0000
1000
0000
0010
0000
0000
0000
,
MMMM
1010
1100
0110
0011
1002
1003
MMMM
,
1000
0010
0100
0000
0010
0100
0001
0000
0100
0001
1000
0000
1001
0000
MMMM
0000
,
1001
0000
MMMM
0000
0001
0010
0100
1000
0002
0000
0010
0000
0010
0000
2003
0000
,
0010
3010
1010
MMMM
0011
MMMM
1010
MMMM
,
0001
0100
0010
0000
0100
0010
1000
0000
0010
1000
0001
0000
1001
0000
MMMM
0000
,
1001
0000
MMMM
0000
1000
0100
0010
0001
2000
0000
0100
0000
3200
0000
0010
0000
,
0320
0031
0101
MMMM
1100
MMMM
0101
MMMM
,
0001
1000
0010
0000
1000
0001
0010
0000
0100
1000
0001
1000
0100
0000
MMMM
0000
,
0110
MMMM
1001
MMMM
2000
0100
3100
0002
,
0010
0000
0013
0000
0001
0100
0001
0100
0010
0000
1000
0100
1000
0100
0010
0000
,
0002
0000
0000
0000
0103
0010
0100
0010
1000
0000
MMMM
0000
2000
0000
0000
0000
,
3100
0010
0100
0010
0001
0000
MMMM
0000
0001
0100
0010
0000
0100
0010
1000
0000
,
0001
1000
0001
0000
1000
0100
0010
0000
0100
0010
0001
0000
1000
0001
1000
0001
,
0000
0000
0000
0000
;
#NOTES:
     dance-single:
     :
     Challenge:
     18:
     :
0000
0000
0000
0000
,
0000
0000
0000
0000
,
0000
0000
0000
0000
,
0010
0000
0000
0010
0000
0000
0010
0000
0000
0001
0000
0000
0100
0000
1000
0000
0010
0000
0000
1000
0000
0000
0100
0000
0000
0001
0000
0000
0100
0000
1000
0000
,
1020
0000
0000
0001
0000
0000
1000
0000
0000
1000
0000
0000
0001
0000
0001
0000
1000
0000
0000
0001
0000
0000
0001
0000
0000
1000
0000
0000
0001
0000
1030
0000
,
1010
0000
0000
MMMM
0000
0000
0011
0000
0000
MMMM
0000
0000
0001
0100
0010
1000
0100
0000
0000
MMMM
0000
0000
1100
0000
0000
MMMM
0000
0000
0011
0000
0001
0100
,
1000
0000
0000
MMMM
0000
0000
1001
0000
0000
MMMM
0000
0000
1000
0001
0010
0100
1000
0000
0000
MMMM
0000
0000
0220
0000
0000
0000
0000
0000
0330
0000
0000
0000
,
0001
0010
0001
0100
0001
0100
0010
1000
0010
1000
0100
1000
0001
0000
MMMM
0000
,
1000
0010
1000
0100
1000
0100
0010
0001
0010
0001
0100
0001
1000
0000
MMMM
0000
,
0001
0100
0001
0010
0001
0010
0100
1000
0100
1000
0010
1000
0001
0000
MMMM
0000
,
1000
0100
1000
0010
1000
0010
0100
0001
0100
0001
0010
0001
1000
0000
MMMM
0000
,
0001
0010
MMMM
0010
0100
0000
0100
1000
MMMM
1000
0010
0000
0010
1000
0100
0010
,
0001
0100
MMMM
0100
1000
0000
1000
0100
MMMM
0100
0001
1000
0010
0000
MMMM
0000
,
1000
0010
MMMM
0010
0100
0000
0100
0001
MMMM
0001
0010
0000
0010
0001
0100
0010
,
1000
0100
MMMM
0100
0001
0000
0001
0100
MMMM
0100
1000
0001
0010
0000
MMMM
0000
,
0001
0010
MMMM
1000
0010
0000
1000
0100
MMMM
0001
0100
0000
0001
0010
0100
1000
,
0010
0100
MMMM
0100
0010
0000
1000
0001
MMMM
0001
1000
0000
1001
0000
MMMM
0000
,
1000
0010
MMMM
0001
0010
0000
0001
0100
MMMM
1000
0100
0000
1000
0010
0100
0001
,
0010
0100
MMMM
0100
0010
0000
0001
1000
MMMM
1000
0001
0000
1001
0000
MMMM
0000
,
0001
0100
MMMM
0100
0001
0000
0100
0001
MMMM
0001
0100
0000
0001
0100
0010
1000
,
0100
1000
MMMM
1000
0100
0000
1000
0100
MMMM
0100
1000
0000
0100
0010
0001
0000
,
1000
0010
MMMM
0010
1000
0000
0010
1000
MMMM
1000
0010
0000
1000
0010
0100
0001
,
0010
0001
MMMM
0001
0010
0000
0001
0010
MMMM
0010
0001
0000
0010
0100
1000
0001
,
0010
0010
0010
0010
1000
0000
0010
0010
0010
0010
0001
0000
0010
0010
0010
0010
,
1000
0000
0010
0010
0010
0010
0001
0000
0010
0000
0010
0000
0010
0000
MMMM
0000
,
0010
0010
0010
0010
1000
0000
0010
0010
0010
0010
0001
0000
0010
0010
0010
0010
,
1000
0000
0010
0010
0010
0010
0001
0000
0010
0000
0010
0000
0010
0000
MMMM
0000
,
1000
MMMM
0010
MMMM
1000
MMMM
0010
MMMM
1000
MMMM
0010
MMMM
1000
MMMM
0010
MMMM
,
MMMM
0001
MMMM
0100
MMMM
0001
MMMM
0100
MMMM
0001
MMMM
0100
MMMM
0001
MMMM
0100
,
1000
MMMM
0010
MMMM
1000
MMMM
0010
MMMM
1000
MMMM
0010
MMMM
1000
MMMM
0010
MMMM
,
MMMM
0001
MMMM
0100
MMMM
0001
MMMM
0100
MMMM
0001
MMMM
0100
MMMM
0001
MMMM
0100
,
1000
0100
0010
0000
0011
0000
0001
0100
0010
0000
1010
0000
1000
0001
MMMM
0000
,
1000
0010
0100
0000
0101
0000
0001
0010
0100
0000
1100
0000
1000
0001
MMMM
0000
,
1000
0100
0010
0001
1000
0100
0010
0001
MMMM
0001
0010
1000
0010
0001
1000
0000
,
0001
0100
0010
1000
0001
0100
0010
1000
MMMM
1000
0010
0001
0010
1000
0001
0000
,
1000
0010
MMMM
MMMM
1000
0100
MMMM
MMMM
0000
1000
0100
0001
1000
0010
0001
0000
,
0001
0010
MMMM
MMMM
0001
0100
MMMM
MMMM
0000
0001
0100
1000
0001
0010
1000
0000
,
1000
0010
0100
MMMM
1000
0100
0010
MMMM
1000
0010
0100
0000
0101
0000
MMMM
0000
,
0001
0010
0100
MMMM
0001
0100
0010
MMMM
0001
0010
0100
0000
0220
0000
0330
0000
,
1000
MMMM
0001
MMMM
0010
0010
1000
MMMM
0001
MMMM
0100
0100
1000
MMMM
0001
MMMM
,
0010
0010
1000
MMMM
0001
MMMM
0100
0100
1000
0001
MMMM
0000
0100
0010
MMMM
0000
,
0001
1000
MMMM
0000
0010
0100
MMMM
0000
1000
0001
0100
0010
0001
1000
MMMM
0000
,
0200
0000
1000
0000
0001
1000
1000
0000
0001
0000
0001
1000
0001
0000
0001
0000
,
1000
0001
1000
0000
0001
0000
1000
0000
0320
0000
1000
0000
0001
1000
1000
0000
,
0001
0000
0001
1000
0001
0000
0001
0000
1000
0001
1000
0000
0001
0000
1030
0000
,
1000
0010
0100
0001
0100
0000
MMMM
0000
0110
0000
MMMM
0000
0001
0010
0100
1000
,
0100
0000
MMMM
0000
0110
0000
MMMM
0000
1000
0010
1000
MMMM
1000
0100
1000
MMMM
,
1000
0001
1000
MMMM
1000
MMMM
0010
MMMM
1000
MMMM
0010
MMMM
1000
0000
MMMM
0000
,
0001
0100
0010
1000
0010
0000
MMMM
0000
0110
0000
MMMM
0000
1000
0100
0010
0001
,
0010
0000
MMMM
0000
0110
0000
MMMM
0000
0001
0100
0001
MMMM
0001
0010
0001
MMMM
,
0001
1000
0001
MMMM
0001
MMMM
0100
MMMM
0001
MMMM
0100
MMMM
0001
0000
MMMM
0000
,
0001
0010
0100
1000
0010
MMMM
0001
MMMM
0100
1000
0010
0100
1000
0000
MMMM
0000
,
0001
0010
1000
0010
0001
1000
0100
0000
0110
0000
MMMM
0000
0011
0000
1100
0000
,
MMMM
0000
0110
0000
1000
0001
0100
MMMM
1000
0001
0010
MMMM
1000
0000
MMMM
0000
,
1000
0010
0100
MMMM
0101
0000
MMMM
0000
1010
0000
MMMM
0000
0010
1000
0010
MMMM
,
0010
0001
0010
MMMM
0100
1000
0100
MMMM
0001
0010
0100
1000
0010
1000
0001
0100
,
0001
0010
0100
1000
0100
MMMM
0100
MMMM
0100
MMMM
0100
MMMM
0100
MMMM
0100
MMMM
,
0000
0000
0000
0000
;
#NOTES:
     dance-double:
     :
     Easy:
     7:
     :
00000000
00000000
00000000
00000000
,
00000000
00000000
00000000
00000000
,
00000000
00000000
00000000
00000000
,
10000000
01000000
00100000
01000000
,
00100000
00010000
10000000
00000000
,
10000000
01000000
00100000
00001000
,
00010000
00001000
00010000
00000000
,
00001000
00010000
00001000
00010000
,
00000100
00000000
00000110
00000000
,
00000001
00000100
00000001
00000100
,
00000010
00000000
00000110
00000000
,
00000001
00001000
00000010
00010000
,
00022000
00000000
00033000
00000000
,
00010000
00001000
00100000
00010000
,
20020000
00000000
30030000
00000000
,
20000000
00000000
31000000
00000000
,
00200000
00010000
00310000
00000000
,
10000000
01000000
00020000
00000000
,
00031000
00000010
00000001
00000000
,
00000002
00000000
00000103
00000000
,
00000020
00001000
00001030
00000000
,
00000001
00000100
00002000
00000000
,
00013000
00100000
10000000
00000000
,
10000000
00000000
00010000
00000000
00100000
01000000
00100000
00000000
,
00010000
00100000
00001000
00000000
,
00022000
00000000
00033000
00000000
,
00000220
00000000
00000330
00000000
,
00000001
00000100
00000010
00010000
,
00001000
00010000
00000100
00000000
,
00000220
00000000
00000330
00000000
,
00002002
00000000
00003003
00000000
,
00000001
00000000
00001000
00000000
00000010
00000100
00000010
00000000
,
00001000
00000010
00010000
00000000
,
00022000
00000000
00033000
00000000
,
02200000
00000000
03300000
00000000
,
10000000
01000000
00100000
00001000
,
00010000
00001000
01000000
00000000
,
02200000
00000000
03300000
00000000
,
20020000
00000000
30030000
00000000
,
20000000
00000000
00000000
30100000
00000000
00000000
01000000
00000000
,
00000000
01100000
00000000
00000000
00002000
00000000
00000000
00013000
,
00000000
00000000
00020000
00000000
00000000
00031000
00000000
00000000
,
00001000
00000000
00010000
00000100
00000000
00000000
00001000
00000000
,
00000010
00001000
00000000
00000000
00000001
00000000
00000100
00000010
,
00000000
00000000
00010000
00000000
00001000
00010000
00000000
00000000
,
00001000
00100000
00001000
01000000
,
00010000
00000000
01000000
00000000
01100000
00000000
00000000
00100000
,
00000000
00000000
10000000
00000000
00000000
10010000
00000000
00000000
,
10000000
00100000
01000000
00001000
,
00100000
00010000
00100000
00001000
,
00100000
00002000
00000000
00003000
,
00010000
00000010
00010000
00000100
,
00001000
00000000
00000100
00000000
00000110
00000000
00000000
00000010
,
00000000
00000000
00000001
00000000
00000000
00001001
00000000
00000000
,
00000001
00000010
00000100
00010000
,
00000010
00001000
00000010
00001000
,
00000100
00010000
00001000
00010000
,
00000000
00000000
00000000
00000000
;
#NOTES:
     dance-double:
     :
     Medium:
     12:
     :
00000000
00000000
00000000
00000000
,
00000000
00000000
00000000
00000000
,
00000000
00000000
00000000
00000000
,
10000000
00000000
00000000
01000000
00000000
00000000
10000000
00000000
00000000
01000000
00000000
00000000
10000000
00000000
MMMMMMMM
00000000
00100000
00000000
00000000
00010000
00000000
00000000
00100000
00000000
00000000
00001000
00000000
00000000
00010000
00000000
00000000
00000000
,
00001000
00000000
00000000
00010000
00000000
00000000
00000010
00000000
00000000
00001000
00000000
00000000
00000010
00000000
MMMMMMMM
00000000
00000001
00000000
00000000
00000100
00000000
00000000
00000001
00000000
00000000
00001000
00000000
00000000
00000001
00000000
00000000
00000000
,
00000001
00000000
00000000
00000001
00000000
00000000
00000100
00000000
00000000
00000010
00000000
00000000
00001000
00000000
00000010
00000000
00010000
00000000
00000000
00010000
00000000
00000000
00001000
00000000
MMMMMMMM
00000000
00000000
00000000
MMMMMMMM
00000000
00000000
00000000
,
00010000
00000000
00000000
00010000
00000000
00000000
00001000
00000000
00000000
00001000
00000000
00000000
01000000
00000000
00010000
00000000
00100000
00000000
00000000
00100000
00000000
00000000
01000000
00000000
MMMMMMMM
00000000
00000000
00000000
MMMMMMMM
00000000
00000000
00000000
,
10000000
01000000
00000000
10000000
01000000
00000000
00100000
01000000
00000000
MMMMMMMM
00000000
00000000
10000000
00000000
01000000
00000000
,
00100000
01000000
00000000
00100000
00001000
00000000
00010000
00001000
00000000
MMMMMMMM
00000000
00000000
00011000
00000000
00000000
00000000
,
00010000
00000010
00000000
00010000
00000010
00000000
00001000
00000100
00000000
MMMMMMMM
00000000
00000000
00000001
00000000
00000010
00000000
,
00000100
00001000
00000000
00000100
00001000
00000000
00000001
00000100
00000000
MMMMMMMM
00000000
00000000
00000110
00000000
00000000
00000000
,
00000001
00000100
00000000
00000001
00000100
00000000
00000010
00000100
00000000
MMMMMMMM
00000000
00000000
00000001
00000000
00000100
00000000
,
00000010
00000100
00000000
00000010
00010000
00000000
00001000
00010000
00000000
MMMMMMMM
00000000
00000000
00011000
00000000
00000000
00000000
,
00001000
00100000
00000000
00001000
00100000
00000000
00010000
01000000
00000000
MMMMMMMM
00000000
00000000
10000000
00000000
00100000
00000000
,
01000000
00010000
00000000
01000000
00010000
00000000
10000000
01000000
00000000
MMMMMMMM
00000000
00000000
01100000
00000000
00000000
00000000
,
20000000
00000000
01000000
00000000
00100000
00100000
30100000
MMMMMMMM
,
10000000
01000000
00100000
00000000
00001000
00010000
00001000
MMMMMMMM
,
00001000
00000000
00101000
MMMMMMMM
00001000
00000000
01001000
MMMMMMMM
,
00001000
00010000
00001000
00010000
00000100
MMMMMMMM
00000110
00000000
,
00000002
00000000
00000100
00000000
00000010
00000010
00000013
MMMMMMMM
,
00000001
00000100
00000010
00000000
00010000
00001000
00010000
MMMMMMMM
,
00010000
00000000
00010010
MMMMMMMM
00010000
00000000
00010100
MMMMMMMM
,
00010000
00001000
00010000
00001000
01000000
MMMMMMMM
01100000
00000000
,
10000000
00000000
00000000
00100000
00000000
00000000
00010000
00000000
00200000
00000000
00000000
00000000
01000000
00000000
00000000
00000000
,
10000000
00000000
01000000
00000000
10300000
MMMMMMMM
10000000
01000000
,
00100000
MMMMMMMM
00110000
MMMMMMMM
00100000
00001000
00010000
00000000
,
00000010
MMMMMMMM
00001010
MMMMMMMM
00001000
00000001
00001000
00000000
,
00000001
00000010
00000001
00001000
00000100
MMMMMMMM
00000110
MMMMMMMM
,
00000010
00000100
00001000
00000100
00010000
MMMMMMMM
00011000
MMMMMMMM
,
00001000
00100000
00010000
00000000
01000000
00001000
00010000
00000000
,
00000100
00001000
00000100
00000010
00000001
MMMMMMMM
00001001
MMMMMMMM
,
00000001
00000000
00000000
00000010
00000000
00000000
00001000
00000000
00000020
00000000
00000000
00000000
00000100
00000000
00000000
00000000
,
00000001
00000000
00000100
00000000
00000031
MMMMMMMM
00000001
00000100
,
00000010
MMMMMMMM
00001010
MMMMMMMM
00000010
00010000
00001000
00000000
,
00100000
MMMMMMMM
00110000
MMMMMMMM
00010000
10000000
00010000
00000000
,
10000000
00100000
10000000
00010000
01000000
MMMMMMMM
01100000
MMMMMMMM
,
00100000
01000000
00010000
01000000
00001000
MMMMMMMM
00011000
MMMMMMMM
,
00010000
00000010
00001000
00000000
00000100
00010000
00001000
00000000
,
01000000
00010000
01000000
00100000
10000000
MMMMMMMM
10010000
MMMMMMMM
,
20000000
00100000
30100000
01100000
MMMMMMMM
MMMMMMMM
01000000
MMMMMMMM
,
01000000
00001000
MMMMMMMM
00001000
00020000
00001000
00031000
00011000
,
MMMMMMMM
MMMMMMMM
00010000
00000100
00000010
00000002
00000003
MMMMMMMM
,
00000002
00001000
00001003
00000020
00010000
00010030
00011000
MMMMMMMM
,
MMMMMMMM
00011000
MMMMMMMM
MMMMMMMM
00002000
00100000
00103000
00020000
,
01000000
01030000
01100000
MMMMMMMM
MMMMMMMM
01100000
MMMMMMMM
MMMMMMMM
,
10000000
00100000
10000000
00100000
01000000
00010000
00100000
00000000
,
MMMMMMMM
00000000
01100000
00000000
10000000
01000000
10000000
01000000
,
00100000
MMMMMMMM
00101000
00011000
,
00010000
00000100
00001000
00000100
00010000
00001000
00010000
00000000
,
00001000
00000010
00000001
00000000
00000011
00000000
MMMMMMMM
00000000
,
00000011
00001100
MMMMMMMM
00001100
,
00000001
00000010
00000001
00000010
00000100
00001000
00000010
00000000
,
MMMMMMMM
00000000
00000110
00000000
00000001
00000100
00000001
00000100
,
00000010
MMMMMMMM
00010010
00011000
,
00001000
01000000
00010000
01000000
00001000
00010000
00001000
00000000
,
00010000
00100000
10000000
00000000
10100000
00000000
MMMMMMMM
00000000
,
10100000
01010000
MMMMMMMM
01010000
,
00000000
00000000
00000000
00000000
;
#NOTES:
     dance-double:
     :
     Hard:
     15:
     :
00000000
00000000
00000000
00000000
,
00000000
00000000
00000000
00000000
,
00000000
00000000
00000000
00000000
,
10000000
00000000
00000000
01000000
00000000
00000000
10000000
00000000
00000000
00100000
00000000
00000000
01000000
00000000
00010000
00000000
01000000
00000000
00000000
00001000
00000000
00000000
00010000
00000000
00000000
00001000
00000000
00000000
00011000
00000000
MMMMMMMM
00000000
,
00001000
00000000
00000000
00010000
00000000
00000000
00000010
00000000
00000000
00001000
00000000
00000000
00000100
00000000
00000010
00000000
00000100
00000000
00000000
00001000
00000000
00000000
00000001
00000000
00000000
00000100
00000000
00000000
00000110
00000000
MMMMMMMM
00000000
,
00000001
00000000
00000000
00000101
00000000
00000000
00000001
00000000
00000000
00000010
00000000
00000000
00000100
00000000
00001000
00000100
00001000
00000000
00000000
00001100
00000000
00000000
00000100
00000000
00000000
00010000
00000000
00000000
00011000
00000000
MMMMMMMM
00000000
,
00010000
00000000
00000000
00011000
00000000
00000000
00001000
00000000
00000000
00100000
00000000
00000000
00010000
00000000
01000000
00100000
01000000
00000000
00000000
01010000
00000000
00000000
10000000
00000000
00000000
01000000
00000000
00000000
01100000
00000000
MMMMMMMM
00000000
,
10000000
01000000
00000000
10000000
01000000
00000000
00100000
00010000
00000000
00100000
00001000
00000000
00010000
00001000
00010000
00001000
,
01000000
00001000
00000000
00100000
00010000
00000000
00100000
01000000
00000000
00010000
00001000
00000000
00011000
00000000
MMMMMMMM
00000000
,
00010000
00001000
00000000
00010000
00000010
00000000
00001000
00000100
00000000
00001000
00000100
00000000
00000010
00000001
00000010
00000001
,
00001000
00000010
00000000
00001000
00000100
00000000
00000010
00000001
00000000
00000010
00000001
00000000
00001001
00000000
MMMMMMMM
00000000
,
00000001
00000100
00000000
00000001
00000100
00000000
00000010
00001000
00000000
00000010
00010000
00000000
00001000
00010000
00001000
00010000
,
00000100
00010000
00000000
00000010
00001000
00000000
00000010
00000100
00000000
00001000
00010000
00000000
00011000
00000000
MMMMMMMM
00000000
,
00001000
00010000
00000000
00001000
00100000
00000000
00010000
01000000
00000000
00010000
01000000
00000000
00100000
10000000
00100000
10000000
,
00010000
00100000
00000000
00010000
01000000
00000000
00100000
10000000
00000000
00100000
10000000
00000000
10010000
00000000
MMMMMMMM
00000000
,
00020000
10000000
01000000
01000000
00130000
MMMMMMMM
00101000
MMMMMMMM
,
00002000
01000000
00023000
00000100
00031000
MMMMMMMM
00011000
MMMMMMMM
,
00020000
00001000
00001000
00000100
00030100
MMMMMMMM
00001100
MMMMMMMM
,
00002000
00000010
00000010
00000001
00003001
MMMMMMMM
00001001
MMMMMMMM
,
00002000
00000001
00000010
00000010
00003100
MMMMMMMM
00010100
MMMMMMMM
,
00020000
00000010
00032000
00100000
00013000
MMMMMMMM
00011000
MMMMMMMM
,
00002000
00010000
00010000
00100000
00103000
MMMMMMMM
00110000
MMMMMMMM
,
00020000
01000000
01000000
10000000
10030000
MMMMMMMM
10010000
MMMMMMMM
,
10000000
01000000
00000000
00100000
00010000
00000000
10000000
01000000
00200000
00000000
00010000
00000000
00310000
00000000
MMMMMMMM
00000000
,
00001000
00010000
00001000
01000000
00010000
01000000
00001000
MMMMMMMM
,
00002000
00000000
00103000
00010000
00200000
00000000
00301000
00010000
00002000
00000000
00103000
00010000
00200000
00000000
00301000
00010000
,
00002000
00000000
00013000
00000100
00020000
00000000
00030010
00001000
00000020
00000000
00010030
00001000
00020000
00000000
00030010
00001000
,
00000020
00000100
00000130
MMMMMMMM
00002000
00000001
00003001
MMMMMMMM
,
00000020
00000100
00000130
MMMMMMMM
00002000
00000001
00003001
MMMMMMMM
,
00000001
00000010
00000000
00000001
00000010
00000000
00000001
00000000
00000100
00000000
00001000
00000000
00010000
00000000
00001000
00000000
,
00000010
00000001
00000000
00000010
00000001
00000000
00000100
00000000
00000110
00000000
MMMMMMMM
00000000
00001001
00000000
MMMMMMMM
00000000
,
00000001
00000100
00000000
00000010
00001000
00000000
00000001
00000100
00000020
00000000
00001000
00000000
00001030
00000000
MMMMMMMM
00000000
,
00010000
00001000
00010000
00000100
00001000
00000100
00010000
MMMMMMMM
,
00020000
00000000
00030010
00001000
00000020
00000000
00010030
00001000
00020000
00000000
00030010
00001000
00000020
00000000
00010030
00001000
,
00020000
00000000
00031000
01000000
00002000
00000000
00103000
00010000
00200000
00000000
00301000
00010000
00002000
00000000
00103000
00010000
,
00200000
01000000
01300000
MMMMMMMM
00020000
10000000
10030000
MMMMMMMM
,
00200000
01000000
01300000
MMMMMMMM
00020000
10000000
10030000
MMMMMMMM
,
10000000
00100000
00000000
10000000
00100000
00000000
10000000
00000000
01000000
00000000
00010000
00000000
00001000
00000000
00010000
00000000
,
00100000
00000000
10000000
00100000
10000000
00000000
01000000
00100000
00000000
00010000
10000000
00000000
10010000
00000000
MMMMMMMM
00000000
,
20000000
00000000
31000000
00100000
00010000
MMMMMMMM
00020000
00000000
01030000
00001000
00010000
MMMMMMMM
00010000
00000000
00000100
00000010
,
00000000
00000001
00001000
MMMMMMMM
00000100
MMMMMMMM
00001000
00000000
00000002
00000000
00000103
00000010
00001000
MMMMMMMM
00002000
00000000
,
00003100
00000000
00010000
00000000
00001000
00000000
MMMMMMMM
00000000
00001000
00000000
00000000
00000000
01000000
00000000
00000000
00000000
00100000
00000000
10000000
00010000
20000000
00000000
00000000
00000000
31000000
00000000
00000000
00000000
MMMMMMMM
00000000
00000000
00000000
,
10000000
00000000
00100000
00000000
01000000
00000000
00010000
00000000
01000000
00000000
00100000
00000000
10000000
00000000
00000000
00000000
MMMMMMMM
00000000
00000000
00000000
10100000
00000000
00000000
00000000
01100000
00000000
00000000
MMMMMMMM
00000000
00000000
01001000
00000000
,
00000000
MMMMMMMM
00000000
00000000
00011000
00000000
00000000
MMMMMMMM
00000000
00000000
00010100
00000000
00000000
MMMMMMMM
00000000
00000000
00000100
00000000
00000010
00000000
00000001
00000000
00000010
00000000
00000100
00000000
00001000
00000000
00000001
00000000
00000000
00000000
,
MMMMMMMM
00000000
00000000
00000000
00000101
00000000
00000000
00000000
00000110
00000000
00000000
00000000
00010010
00000000
00000000
00000000
00011000
00000000
00001000
00010000
00002000
00000000
00000000
00000000
00013000
00000000
00000000
00000000
MMMMMMMM
00000000
00000000
00000000
,
00001000
00010000
00001000
00000000
01000000
00010000
01000000
00000000
00100000
01000000
00100000
00000000
10000000
00000000
MMMMMMMM
00000000
,
10000000
00000000
01000000
00000000
00100000
00010000
10000000
00010000
00200000
00000000
00001000
00000000
00001000
00000000
00302000
00000000
,
00010000
00013000
00011000
MMMMMMMM
00011000
MMMMMMMM
00011000
MMMMMMMM
,
00010000
00000100
00010000
00000000
00000010
00001000
00000010
00000000
00000100
00000001
00000100
00000000
00000010
00000000
MMMMMMMM
00000000
,
00000010
00000000
00001000
00000000
00000100
00010000
00000100
00010000
00002000
00000000
00100000
00000000
00203000
00000000
00010000
00000000
,
00320000
01030000
01100000
MMMMMMMM
01100000
MMMMMMMM
01100000
MMMMMMMM
,
10000000
00100000
01000000
00000000
00010000
00100000
01000000
00000000
10000000
01000000
00100000
00010000
00100000
00000000
MMMMMMMM
00000000
,
00101000
00000000
MMMMMMMM
00000000
00001000
00010000
00001000
00010000
00002000
00000000
00010000
00000000
00013000
00000000
00020000
00000000
,
00000010
00000000
00030010
00000000
00001000
00000010
00001000
00000010
00000100
00000000
00000001
00001000
00000001
00000000
00000010
00000100
,
00002000
00000000
00000000
00000000
00003001
00000100
00000001
00000100
00000010
00000000
00010000
00001000
00010000
00000000
MMMMMMMM
00000000
,
00001000
00000000
MMMMMMMM
00000000
00010000
00001000
00010000
00000000
00001000
00100000
00010000
00000000
01000000
00010000
00100000
00000000
,
01000000
10000000
00010000
00000000
10000000
00100000
01000000
00000000
00100000
00010000
00001000
00000000
00010000
00001000
00010000
00001000
,
00000000
00000000
00000000
00000000
;
#NOTES:
     dance-double:
     :
     Challenge:
     18:
     :
00000000
00000000
00000000
00000000
,
00000000
00000000
00000000
00000000
,
00000000
00000000
00000000
00000000
,
10000000
00000000
00000000
00100000
00000000
00000000
00010000
00000000
00000000
00001000
00000000
00000000
MMMMMMMM
00000000
00011000
00000000
00010000
00000000
00000000
00001000
00000000
00000000
00000010
00000000
00000000
00000001
00000000
00000000
00001000
00000000
MMMMMMMM
00000000
,
00000201
00000000
00000000
00000001
00000000
00000000
00000010
00000000
00000000
00000010
00000000
00000000
00001300
00000000
00001000
00000000
00021000
00000000
00000000
00001000
00000000
00000000
01000000
00000000
00000000
01030000
00000000
00000000
01100000
00000000
MMMMMMMM
00000000
,
11000000
00000000
00000000
MMMMMMMM
00000000
00000000
00110000
00000000
00000000
MMMMMMMM
00000000
00000000
10000000
01000000
00100000
00001000
00010000
00000000
00000000
MMMMMMMM
00000000
00000000
00011000
00000000
00000000
MMMMMMMM
00000000
00000000
00011000
00000000
00010000
00001000
,
00000010
00000000
00000000
MMMMMMMM
00000000
00000000
00000011
00000000
00000000
MMMMMMMM
00000000
00000000
00000001
00000010
00000100
00001000
00000100
00000000
00000000
MMMMMMMM
00000000
00000000
00022000
00000000
00000000
00000000
00000000
00000000
00033000
00000000
00000000
00000000
,
00001000
01000000
00001000
01000000
00010000
00100000
00010000
00100000
01000000
10000000
00010000
10000000
00100000
00000000
MMMMMMMM
00000000
,
10000000
01000000
00100000
00010000
01000000
00100000
10000000
00100000
01000000
00010000
00100000
00001000
00010000
00000000
MMMMMMMM
00000000
,
00001000
00010000
00001000
00010000
00000010
00001000
00000010
00000100
00000010
00001000
00000100
00000010
00000001
00000000
MMMMMMMM
00000000
,
00001000
00000010
00000100
00000001
00001000
00000100
00000010
00000100
00001000
00000100
00010000
00001000
00010000
00000000
MMMMMMMM
00000000
,
00001000
00100000
MMMMMMMM
00100000
00010000
00000000
00010000
01000000
MMMMMMMM
01000000
00100000
00000000
00100000
10000000
01000000
00100000
,
00010000
10000000
MMMMMMMM
10000000
01000000
00000000
01000000
00100000
MMMMMMMM
00100000
00001000
00000000
00011000
00000000
MMMMMMMM
00000000
,
00010000
00000010
MMMMMMMM
00000010
00001000
00000000
00001000
00000100
MMMMMMMM
00000100
00000010
00000000
00000010
00000001
00000100
00000010
,
00001000
00000001
MMMMMMMM
00000001
00000100
00000000
00000100
00000010
MMMMMMMM
00000010
00010000
00000000
00011000
00000000
MMMMMMMM
00000000
,
00001000
01000000
MMMMMMMM
01000000
00010000
00000000
00010000
00100000
MMMMMMMM
00100000
01000000
00000000
01000000
10000000
00100000
01000000
,
00010000
10000000
MMMMMMMM
10000000
00100000
00000000
00100000
01000000
MMMMMMMM
01000000
00001000
00000000
00011000
00000000
MMMMMMMM
00000000
,
00010000
00000100
MMMMMMMM
00000100
00001000
00000000
00001000
00000010
MMMMMMMM
00000010
00000100
00000000
00000100
00000001
00000010
00000100
,
00001000
00000001
MMMMMMMM
00000001
00000010
00000000
00000010
00000100
MMMMMMMM
00000100
00010000
00000000
00011000
00000000
MMMMMMMM
00000000
,
00001000
00010000
00001000
00000000
01000000
00010000
00100000
01000000
MMMMMMMM
00000000
01100000
00000000
MMMMMMMM
00000000
10010000
00000000
,
10000000
01000000
00100000
00000000
00010000
01000000
00001000
00010000
MMMMMMMM
00000000
00011000
00000000
MMMMMMMM
00000000
00011000
00000000
,
00010000
00001000
00010000
00000000
00000100
00001000
00000010
00000100
MMMMMMMM
00000000
00000110
00000000
MMMMMMMM
00000000
00001001
00000000
,
00000001
00000100
00000010
00000000
00001000
00000100
00010000
00001000
MMMMMMMM
00000000
00011000
00000000
MMMMMMMM
00000000
00011000
00000000
,
00001000
00100000
00001000
00100000
00010000
01000000
00010000
01000000
MMMMMMMM
01000000
00010000
00100000
01000000
10000000
01000000
00000000
,
10000000
00010000
10000000
00010000
00100000
00010000
00100000
00010000
MMMMMMMM
00010000
01000000
00001000
00010000
00001000
00010000
00000000
,
00001000
00010000
00000100
00010000
00001000
00010000
00000010
00001000
MMMMMMMM
00001000
00000100
00000010
00000001
00000010
00000100
00000000
,
00010000
00001000
00010000
00001000
00010000
00000100
00001000
00000100
MMMMMMMM
00000100
00001000
00000001
00000100
00000000
MMMMMMMM
00000000
,
00001000
MMMMMMMM
00000010
MMMMMMMM
00001000
MMMMMMMM
00000010
MMMMMMMM
00001000
MMMMMMMM
00000010
MMMMMMMM
00001000
MMMMMMMM
00000010
MMMMMMMM
,
MMMMMMMM
00000001
MMMMMMMM
00000100
MMMMMMMM
00000001
MMMMMMMM
00000100
MMMMMMMM
00000001
MMMMMMMM
00000100
MMMMMMMM
00000001
MMMMMMMM
00000100
,
00001000
MMMMMMMM
00010000
MMMMMMMM
00001000
MMMMMMMM
00010000
MMMMMMMM
00001000
MMMMMMMM
00010000
MMMMMMMM
00001000
MMMMMMMM
00010000
MMMMMMMM
,
MMMMMMMM
00100000
MMMMMMMM
10000000
MMMMMMMM
00100000
MMMMMMMM
10000000
MMMMMMMM
00100000
MMMMMMMM
10000000
MMMMMMMM
00100000
MMMMMMMM
10000000
,
00100000
01000000
00100000
00000000
10100000
00000000
10000000
01000000
00100000
00010000
00100000
00001000
00010000
00000000
MMMMMMMM
00000000
,
00001000
00010000
00001000
00000000
00011000
00000000
00010000
00000100
00001000
00000010
00000100
00000010
00001000
00000000
MMMMMMMM
00000000
,
00000001
00000010
00000100
00001000
00000001
00000010
00000100
00001000
MMMMMMMM
00001000
00000010
00000000
00010010
00000000
00011000
00000000
,
00001000
00100000
00010000
01000000
00001000
00100000
00010000
01000000
MMMMMMMM
01000000
00010000
00000000
01010000
00000000
10010000
00000000
,
10000000
01000000
00100000
00010000
10000000
01000000
00100000
00010000
MMMMMMMM
00010000
00100000
00001000
00010000
00000100
00001000
00000000
,
00000001
00000100
00000010
00001000
00000001
00000100
00000010
00001000
MMMMMMMM
00001000
00000010
00010000
00001000
01000000
00010000
00000000
,
01000000
00100000
10000000
MMMMMMMM
01000000
00100000
10000000
MMMMMMMM
10000000
01000000
00010000
00000000
00011000
00000000
00001010
00000000
,
00000001
00000010
00000100
MMMMMMMM
00000001
00000010
00000100
MMMMMMMM
00000001
00000100
00001000
00000000
00022000
00000000
00033000
00000000
,
00001000
01000000
00010000
MMMMMMMM
00010000
01000000
10000000
MMMMMMMM
10000000
01000000
00010000
00100000
01000000
MMMMMMMM
01100000
MMMMMMMM
,
00101000
MMMMMMMM
00011000
MMMMMMMM
00010100
MMMMMMMM
00001100
MMMMMMMM
00010000
00000100
00001000
MMMMMMMM
00001000
00000100
00000001
MMMMMMMM
,
00000001
00000100
00001000
00000010
00000100
MMMMMMMM
00000110
MMMMMMMM
00010010
MMMMMMMM
00011000
MMMMMMMM
01001000
MMMMMMMM
01010000
MMMMMMMM
,
00020000
00000000
00100000
00000000
10000000
10000000
02030000
00000000
10000000
00000000
03010000
00100000
00002000
00000000
00013000
00020000
,
00000000
00030010
00000020
00000000
00001030
00002000
00000000
00003001
00000002
00000000
00000010
00000000
00001000
00001000
00000203
00000000
,
00001000
00000000
00000310
00010000
00002000
00000000
00100000
00000000
00013000
00000000
00022000
00000000
00033000
00000000
MMMMMMMM
00000000
,
00001000
00100000
00010000
00000000
MMMMMMMM
00000000
00110000
00000000
MMMMMMMM
00000000
01100000
00000000
10000000
01000000
00100000
00000000
,
MMMMMMMM
00000000
00110000
00000000
MMMMMMMM
00000000
00101000
00000000
00001000
01000000
00001000
MMMMMMMM
00001000
00010000
00001000
MMMMMMMM
,
00001000
00100000
00001000
MMMMMMMM
00001000
MMMMMMMM
00010000
MMMMMMMM
00001000
MMMMMMMM
00010000
MMMMMMMM
00001000
00000000
MMMMMMMM
00000000
,
00010000
00000010
00001000
00000000
MMMMMMMM
00000000
00001010
00000000
MMMMMMMM
00000000
00000110
00000000
00000001
00000100
00000010
00000000
,
MMMMMMMM
00000000
00001010
00000000
MMMMMMMM
00000000
00010010
00000000
00010000
00000100
00010000
MMMMMMMM
00010000
00001000
00010000
MMMMMMMM
,
00010000
00000010
00010000
MMMMMMMM
00010000
MMMMMMMM
00001000
MMMMMMMM
00010000
MMMMMMMM
00001000
MMMMMMMM
00010000
00000000
MMMMMMMM
00000000
,
00001000
00100000
00001000
00100000
00010000
01000000
00100000
10000000
00100000
00000000
MMMMMMMM
00000000
10000000
01000000
00100000
00010000
,
MMMMMMMM
00001000
00000010
00000001
00001000
00000000
MMMMMMMM
00000000
00002010
00000000
00003010
00000000
MMMMMMMM
00000000
00000012
00000000
,
00000013
00000000
MMMMMMMM
00000000
00000001
00000100
00000001
MMMMMMMM
00000100
00001000
00000100
MMMMMMMM
00001000
00010000
00001000
00000000
,
00011000
00000000
MMMMMMMM
00000000
00001000
00010000
00100000
10000000
00010000
00000000
MMMMMMMM
00000000
00010000
00100000
00010000
MMMMMMMM
,
01000000
10000000
01000000
MMMMMMMM
01000000
00100000
00010000
00000000
00100000
00001000
00010000
00001000
00010000
00000100
00001000
00000010
,
00001000
00000010
00010000
00000000
MMMM1000
0001MMMM
MMMM1000
0001MMMM
MMMM1000
0001MMMM
MMMM1000
0001MMMM
MMMM1000
0001MMMM
MMMM1000
0001MMMM
,
00000000
00000000
00000000
00000000
;
