
//----- song ID: brli -----//
#TITLE:BREDLI;
#ARTIST:BEMANI Sound Team "SYUNN";
#BANNER:BREDLI.png;
#BACKGROUND:BREDLI-bg.png;
#CDTITLE:./CDTitles/DANCERUSH STARDOM.png;
#MUSIC:BREDLI.ogg;
#SAMPLESTART:31.875;
#SAMPLELENGTH:15;
#BPMS:0=128;
#STAGE:4;
#NOTES:
     dance-single:
     :
     Beginner:
     2:
     :
0000
0000
0000
0000
,
0000
0000
0000
0000
,
0000
0000
0000
0000
,
0000
0000
0000
0000
,
0000
0000
0000
0000
,
0001
0000
0000
0000
,
1000
0000
0000
0000
,
0001
0000
0000
0000
,
1000
0000
0000
0000
,
0010
0000
0000
0000
,
0000
0000
0000
0000
,
0100
0000
0000
0000
,
0000
0000
0000
0000
,
0001
0000
0000
0000
,
0001
0000
0000
0000
,
1000
0000
0000
0000
,
1000
0000
0000
0000
,
0010
0000
0010
0000
,
0010
0000
0000
0000
,
0100
0000
0100
0000
,
0100
0000
0000
0000
,
0001
0000
0001
0000
,
0001
0000
0000
0000
,
1000
0000
1000
0000
,
1000
0000
0000
0000
,
0001
0000
0100
0000
,
0001
0000
0000
0000
,
1000
0000
0010
0000
,
1000
0000
0000
0000
,
0001
0000
1000
0000
,
0010
0000
0000
0000
,
1000
0000
0001
0000
,
0100
0000
0000
0000
,
0001
0000
0000
0000
,
0000
0000
0000
0000
,
0001
0000
0000
0000
,
0000
0000
0000
0000
,
0100
0000
0100
0000
,
0100
0000
0100
0000
,
0100
0000
0100
0000
,
0000
0000
0000
0000
,
0001
0000
1000
0000
,
0010
0000
1000
0000
,
0001
0000
0100
0000
,
0001
0000
1000
0000
,
0010
0000
0100
0000
,
0010
0000
1000
0000
,
0001
0000
0000
0000
,
1000
0000
0000
0000
,
0001
0000
1000
0000
,
0001
0000
0100
0000
,
0010
0000
0100
0000
,
0001
0000
1000
0000
,
1001
0000
0000
0000
,
0010
0000
0010
0000
,
0100
0000
0000
0000
,
0001
0000
1000
0000
,
0010
0000
0000
0000
,
0000
0000
0000
0000
;
#NOTES:
     dance-single:
     :
     Easy:
     6:
     :
0000
0000
0000
0000
,
0000
0000
0000
0000
,
0000
0000
0000
0000
,
0000
0000
0000
0000
,
0000
0000
0000
0000
,
0001
0001
1000
1000
,
0001
0001
1000
1000
,
0002
0103
2000
3010
,
0020
0230
0320
0130
,
2002
0000
0000
0000
,
0000
0000
0000
0000
,
0000
0000
0000
0000
,
0000
0000
3003
0000
,
0001
0100
0010
1000
,
0001
0010
0100
1000
,
0020
0230
0320
0130
,
1001
0110
1001
0110
,
0001
2000
3100
0002
,
0013
2000
3100
0002
,
0013
2000
3010
0002
,
0103
2000
3010
0002
,
0103
0200
0320
0230
,
0320
0230
0320
0130
,
1001
0200
0000
0300
,
0020
0230
0301
1000
,
0110
1001
0000
0000
,
0001
1000
0010
0100
,
0110
1001
0000
0000
,
1000
0001
0100
0010
,
0110
1001
0000
0000
,
0001
0010
0100
1000
,
0001
0010
0100
1000
,
0020
0230
0320
0130
,
0110
0001
0000
1000
,
0000
1000
0000
0001
,
0000
0001
0000
1000
,
0000
1000
0000
0001
,
1000
0100
1000
0010
,
0100
0001
0010
0001
,
0100
0010
1000
0100
,
0010
0010
0010
1001
,
0001
0010
0001
0010
,
0001
0010
0001
0010
,
0002
0103
2000
3010
,
0002
0103
2000
3010
,
1000
0100
1000
0100
,
1000
0100
1000
0100
,
2000
3010
0002
0103
,
2000
3010
0002
0103
,
0010
0220
0000
0330
,
1001
1001
1001
0000
,
0002
0013
2000
3100
,
0002
0013
2000
3100
,
1001
0002
0203
0320
,
2030
3002
0023
0230
,
2300
3010
0002
0103
,
2000
3010
0001
0110
,
1002
0000
0000
0000
,
0000
0000
0000
0000
,
0003
0000
0000
0000
,
0000
0000
0000
0000
;
#NOTES:
     dance-single:
     :
     Medium:
     12:
     :
0000
0000
0000
0000
,
0000
0000
0000
0000
,
0000
0000
0000
0000
,
0000
0000
0000
0000
,
0000
0000
0000
0000
,
0001
0100
0010
0000
1000
0100
0010
0000
,
0001
0100
1000
0100
,
0001
0010
0100
1000
0001
0010
0100
1000
,
0020
0230
0320
0130
,
2002
0000
0000
0000
,
0000
0000
0000
3000
,
2000
0000
0000
0003
,
3020
2030
0002
3003
,
0001
0100
0001
1000
0100
1000
0001
0010
,
0001
1000
0010
1000
0001
0100
0010
1000
,
0002
0023
0230
1300
,
1001
0101
1100
1001
,
0002
0000
1000
0203
0010
0302
1000
0203
,
0010
0302
1000
0203
0010
0302
1000
0000
,
2003
0000
0001
3200
0010
2300
0001
3200
,
0010
2300
0001
3200
0010
2300
0001
3200
,
0310
0200
0320
0230
,
0320
0230
0320
0130
,
1001
0220
0000
0330
,
0002
0000
2003
0000
3001
0100
0010
0000
,
1001
0000
0110
0000
0110
0110
0110
0000
,
2000
3200
0302
0103
,
1001
0000
0110
0000
0110
0110
0110
0000
,
0002
0000
0000
0000
0203
0000
0000
0000
0320
0000
0000
0000
1030
0000
0001
1000
,
0001
0000
0002
0000
1000
0203
0010
0302
,
1000
0203
0010
0302
1000
0203
0310
0000
,
1001
0110
2000
3002
,
1003
0100
0010
0000
0002
0000
0200
0000
,
0303
1000
0000
0001
,
0000
0001
0000
1000
,
0000
1000
0000
0010
,
0000
0010
0000
1000
,
0001
0010
0001
0100
0010
1000
0100
1000
,
0001
0010
0001
0100
0010
1000
0100
1000
,
0010
0100
0001
0010
0001
0100
0010
1000
,
0100
0100
0100
1001
,
1000
0000
0002
0010
0203
0010
0302
0010
,
0203
0010
0302
0010
0203
0010
0302
0000
,
1000
0203
0010
0302
1000
0203
0010
0302
,
1000
0203
0010
0301
1000
0100
0010
0000
,
0001
0000
2000
0010
3200
0010
2300
0010
,
3200
0010
2300
0010
3200
0010
2300
0000
,
0001
3200
0010
2300
0001
3200
0010
2300
,
0001
3200
0010
1300
0001
0100
0010
0000
,
1000
0000
0001
0100
1000
0100
0001
0000
,
1001
0000
0110
0000
0110
0110
0110
0000
,
0001
2000
0010
3002
0100
2003
0010
3001
,
1001
0000
0000
0000
0110
0000
0000
0000
0110
0000
0100
0000
0001
1000
0001
0000
,
1001
0000
1000
0002
0100
2003
0100
3002
,
0010
1003
0001
0010
0100
1000
1000
0002
,
1000
0203
0010
0302
1000
0203
0010
0302
,
1000
0203
0010
0301
0110
1001
0110
0000
,
0000
0100
0000
0100
0000
0100
0000
0100
,
0000
0100
0000
0100
0000
0100
0000
0100
,
0000
0000
0000
0000
;
#NOTES:
     dance-single:
     :
     Hard:
     16:
     :
0000
0000
0000
0000
,
0000
0000
0000
0000
,
0000
0000
0000
0000
,
0000
0000
0000
0000
,
0000
0000
0000
0000
,
0001
0000
0100
0000
0001
1000
0001
0010
0100
0000
1000
0000
0001
0000
0100
0000
,
0010
0000
1000
0000
0001
0010
0100
0010
0001
0000
1000
1000
0010
0100
0001
1000
,
0100
0000
1000
0000
0010
1000
0001
0010
0100
0000
1000
0000
0001
0000
0100
0000
,
0010
0000
0000
0010
0000
0000
0010
0000
0000
0010
0000
0000
0100
0001
0010
0002
,
2000
0000
0000
0000
,
0000
0000
0000
0000
0000
0000
0003
3002
,
0200
0000
0000
0000
0000
0000
0000
0003
,
0020
0000
0000
0330
,
0001
0100
0001
0010
0100
1000
0001
0100
0001
0010
0100
1000
0001
0100
0001
0010
,
0100
1000
0001
0100
0001
0010
0001
1000
0100
1000
0010
1000
0001
0010
0100
1000
,
0010
0100
0001
0010
0001
0100
0010
1000
0100
1000
0010
0100
0001
0010
0001
1000
,
0001
0100
0001
1000
0100
0010
0001
1000
0001
0100
0010
1000
0001
0000
0000
1000
0100
0010
0001
0000
0000
0000
0000
0000
,
0011
0000
0000
0000
2000
0010
3002
0100
2003
0010
3001
0010
0100
1000
0001
1000
,
0010
0100
0001
0000
1000
0010
0000
0100
0001
0010
0100
0000
0010
0001
1000
0010
,
0100
0000
0000
0000
0002
0100
2003
0010
3002
0100
1003
0100
0010
0001
1000
0010
,
1000
0001
0010
1000
0100
0001
1000
0001
0100
0001
0010
0100
1000
0010
0100
0001
,
1000
0000
0000
0000
0002
1000
0203
0010
0302
1000
0203
0010
0302
1000
0203
0010
,
0301
1000
0100
0000
0010
0001
0000
0001
1000
0010
0100
0000
0001
0010
0100
0010
,
0001
0000
0000
0000
0002
1000
0203
0010
0302
1000
0203
0010
0302
1000
0203
0010
,
0302
0000
0023
0000
0230
0000
2300
0000
3020
0000
0230
0000
0301
1000
0100
1000
,
1001
0000
0000
0000
0001
0010
0100
0010
0001
1000
0010
0100
0001
0010
0100
1000
,
0001
0100
0001
1000
0100
1000
0010
1000
0001
0100
0001
1000
0100
1000
0010
1000
,
0001
0000
0000
0000
1000
0100
0010
0001
0100
0001
1000
0010
1000
0100
0010
0001
,
1000
0010
0100
0100
0001
1000
0100
1000
0100
0010
0001
0000
1000
1000
0010
0100
,
0001
0000
0000
0000
1000
0010
0100
0010
1000
0001
0010
0100
1000
0010
0100
0001
,
1000
0100
1000
0001
0100
0001
0010
0001
1000
0100
1000
0001
0100
0001
0010
0001
,
1000
0000
0000
0000
0001
0010
0100
1000
0010
1000
0001
0100
0001
1000
0100
0010
,
0001
1000
0001
0100
0010
0100
0001
1000
0100
1000
0001
0100
0020
0000
0000
0000
0000
0000
0000
0000
0000
0000
0000
0000
,
0030
1000
0000
0100
,
0000
0010
0000
0001
,
1000
0000
0000
0000
0001
0100
0000
0001
0010
0000
0000
0100
0000
0000
0000
0000
,
0000
0000
1000
0000
0000
0100
0000
1000
0001
0000
0000
0100
0000
0000
0010
0000
,
1000
0001
0100
0001
0010
0001
0100
0010
,
1000
0100
1000
0010
0100
0001
0010
0001
,
1000
0100
1000
0010
0100
0001
0010
0001
1000
0100
1000
0010
0100
0001
0010
0001
,
1000
0000
1000
0000
1000
0001
1001
0000
,
0001
0000
0000
0000
1000
0100
1000
0001
0100
0010
1000
0001
0010
0100
0010
0001
,
1000
0010
0100
0001
0010
0001
1000
0001
0010
0100
1000
0001
1000
0010
0100
0001
,
2000
0010
3002
0100
2003
0010
3002
0100
2003
0010
3002
0100
2003
0010
3002
0100
,
1003
0001
0010
0100
1000
0001
0100
0010
1000
0100
1000
0001
0100
0001
0010
0001
,
1000
0000
0000
0000
0001
0100
0010
0100
0001
1000
0100
1000
0001
0100
0010
0100
,
0001
1000
0100
0010
0001
1000
0100
1000
0010
0100
0001
1000
0100
0010
0001
1000
,
0020
0100
1030
0001
0200
0010
0301
1000
0020
0100
1030
0001
0200
0010
0301
1000
,
0001
0100
0001
0010
0001
1000
0100
1000
0001
0100
0001
0010
0100
0000
0000
0000
,
1000
0001
0100
0010
0100
0001
1000
0100
0010
0100
1000
0001
0100
0010
1000
0001
,
0010
0100
0010
0001
1000
0010
0100
0001
0010
0100
1000
0100
0010
0001
1000
0010
,
0100
0001
0010
0100
2000
0010
3001
0100
0010
1000
0001
0010
0100
1000
0001
0100
,
0002
0010
1003
0100
0010
0001
0100
0001
0010
0100
1000
0001
0100
0100
0010
1000
,
0001
0000
0000
0000
0200
0010
0301
1000
0100
0010
0001
1000
0020
0100
1030
0001
,
0010
0001
1000
0100
2000
0010
3001
0100
0001
1000
0100
0010
0002
0100
1003
0001
,
1000
0100
1000
0010
0100
0001
0010
0001
1000
0100
1000
0010
0100
0001
0010
0001
,
1000
0100
1000
0010
0100
0001
1000
0000
0100
0000
0010
0000
0001
0000
0000
0000
0000
0000
1001
0000
0000
0000
0000
0000
,
0200
0010
0000
0010
0000
0010
0000
0010
,
0000
0010
0000
0010
0000
0010
0000
0010
,
0300
0000
0000
0000
,
0000
0000
0000
0000
;
#NOTES:
     dance-double:
     :
     Easy:
     6:
     :
00000000
00000000
00000000
00000000
,
00000000
00000000
00000000
00000000
,
00000000
00000000
00000000
00000000
,
00000000
00000000
00000000
00000000
,
00000000
00000000
00000000
00000000
,
00001000
00001000
00010000
00010000
,
00001000
00001000
00010000
00010000
,
00000020
00001000
00020030
00001000
,
00030200
00002300
00003200
00010300
,
00022000
00000000
00000000
00000000
,
00000000
00000000
00000000
00000000
,
00003000
00000000
00000000
00000000
,
00000000
00000000
00030000
00000000
,
00001000
01000000
00010000
00100000
,
01000000
10000000
00010000
01000000
,
00200000
02300000
03200000
01300000
,
10010000
01100000
10010000
01100000
,
00010000
20000000
31000000
00020000
,
00130000
20000000
31000000
00020000
,
00130000
20000000
30100000
00020000
,
01030000
20000000
30100000
00020000
,
01030000
00002000
00023000
00032000
,
00023000
00032000
00023000
00031000
,
00011000
00020000
00000000
00030000
,
00000020
00000230
00000301
00001000
,
00000110
00001001
00000000
00000000
,
00000001
00000010
00000100
00010000
,
00011000
00101000
00000000
00000000
,
00100000
00010000
10000000
00100000
,
01100000
10010000
00000000
00000000
,
10000000
01000000
00100000
00010000
,
10000000
01000000
00100000
00001000
,
00020000
00032000
00023000
00030000
,
00000000
00001000
00000000
00010000
,
00000000
00010000
00000000
00001000
,
00000000
00001000
00000000
00100000
,
00000000
00100000
00000000
00010000
,
10000000
01000000
10000000
00100000
,
01000000
00010000
00100000
00001000
,
00010000
00000100
00001000
00000010
,
00000100
00000100
00000100
00001001
,
00000001
00000010
00000100
00001000
,
00000001
00000010
00000100
00010000
,
00002000
00013000
00200000
00310000
,
00002000
00013000
00200000
00310000
,
10000000
01000000
00100000
00010000
,
10000000
01000000
00100000
00001000
,
00020000
00031000
00000020
00001030
,
00020000
00031000
00000020
00001030
,
00000010
00000220
00000000
00000330
,
00001001
00001001
00001001
00000000
,
00000002
00000103
00002000
00003010
,
00000002
00000103
00002000
00003010
,
00001001
00000002
00000023
00000230
,
00020300
00032000
02003000
03020000
,
20030000
30100000
00020000
01030000
,
20000000
30100000
00010000
01100000
,
00002000
00000000
00000000
00000000
,
00000000
00000000
00000000
00000000
,
00003000
00000000
00000000
00000000
,
00000000
00000000
00000000
00000000
;
#NOTES:
     dance-double:
     :
     Medium:
     12:
     :
00000000
00000000
00000000
00000000
,
00000000
00000000
00000000
00000000
,
00000000
00000000
00000000
00000000
,
00000000
00000000
00000000
00000000
,
00000000
00000000
00000000
00000000
,
00001000
00010000
00000100
00000000
00001000
00000001
00000100
00000000
,
00000001
00000010
00000100
00001000
,
00000001
00000100
00000010
00001000
00000001
00000100
00000010
00010000
,
00002000
00023000
00032000
00013000
,
00022000
00000000
00000000
00000000
,
00000000
00000000
00000000
00030000
,
00020000
00000000
00000000
00003000
,
00030020
00002030
00000002
00003003
,
00000001
00000100
00000010
00001000
00000100
00010000
00001000
00010000
,
00000010
00001000
00000100
00001000
00000001
00000100
00000010
00001000
,
00000200
00020300
00032000
00103000
,
10010000
01010000
11000000
10010000
,
00020000
00000000
10000000
02030000
00100000
03020000
10000000
02030000
,
00100000
03020000
10000000
02030000
03100000
00010000
00001000
00000010
,
00000002
00000000
00001000
00000203
00000010
00000302
00001000
00000203
,
00000010
00000302
00001000
00000203
00000010
00000302
00001000
00000203
,
00000310
00000000
00000100
00000001
00000010
00001000
00010000
00001000
,
00200000
00010000
00302000
00010000
00103000
00010000
01000000
00000000
,
10010000
02200000
00000000
03300000
,
00020000
00000000
20030000
00000000
31000000
00100000
00010000
00000000
,
10010000
00000000
01100000
00000000
01010000
00100000
10100000
00000000
,
10000000
01000000
00100000
00010000
01000000
00100000
00010000
00001000
,
00010000
00000000
00010100
00000000
00001100
00000010
00000011
00000000
,
00001000
00000000
00000001
00000000
00000010
00000000
00000100
00000000
00001000
00000000
00000010
00000000
00010000
00000000
00001000
00010000
,
00001000
00000000
02000000
00100000
03020000
10000000
02030000
00100000
,
03020000
10000000
02030000
00100000
03020000
10000000
01030000
00000000
,
10010000
01100000
20000000
30020000
,
10030000
01000000
00100000
00000000
00002000
00000000
00020000
00000000
,
00033000
00001000
00000000
00010000
,
00000000
00010000
00000000
00000010
,
00000000
00000010
00000000
00001000
,
00000000
00001000
00000000
00000001
,
00000010
00000001
00000100
00000010
00001000
00000100
00010000
00001000
,
00010000
00001000
01000000
00010000
00100000
00001000
00010000
00000100
,
00001000
00000010
00010000
00001000
01000000
00010000
00100000
00001000
,
00010000
00010000
00010000
00011000
,
00001000
00000000
00020000
00001000
00030200
00001000
00020300
00001000
,
00030020
00001000
00020030
00001000
00030200
00001000
00020300
00001000
,
00030020
00001000
00000230
00000010
00000302
00001000
00000203
00000010
,
00000302
00001000
00000203
00000010
00000301
00001000
00000020
00000000
,
00010030
00000000
00002000
00010000
02003000
00010000
03002000
00010000
,
00203000
00010000
00302000
00010000
02003000
00010000
03002000
00010000
,
00203000
00010000
02300000
00100000
23000000
00010000
32000000
00100000
,
23000000
00010000
32000000
00100000
23000000
00010000
32000000
00000000
,
03100000
00000000
00002000
00010000
00103000
00010000
02000000
00100000
,
03010000
00100000
00002000
00010000
00103000
00010000
02000000
00100000
,
03010000
10000000
00200000
01000000
10300000
00010000
02000000
00100000
,
03010000
00000000
10000000
00000000
10000000
01000000
00010000
00000000
,
00011000
00000000
00020000
00001000
00030100
00001000
00000020
00000100
,
00001030
00000100
00020000
00001000
00030100
00001000
00000020
00000100
,
00001030
00000001
00000100
00000010
00000100
00000001
00000010
00001000
,
00010000
00100000
10000000
01000000
00010000
00000000
01100000
00000000
,
00001000
00010000
00000000
00010000
00000000
00010000
00000000
00010000
,
00000000
00010000
00000000
00010000
00000000
00010000
00000000
00010000
,
00000000
00000000
00000000
00000000
;
#NOTES:
     dance-double:
     :
     Hard:
     16:
     :
00000000
00000000
00000000
00000000
,
00000000
00000000
00000000
00000000
,
00000000
00000000
00000000
00000000
,
00000000
00000000
00000000
00000000
,
00000000
00000000
00000000
00000000
,
00010000
00000000
00001000
00000000
01000000
00010000
00000000
00010000
00100000
00000000
00001000
00000000
00010000
00000000
00001000
00000000
,
00000100
00000000
00000010
00000000
00001000
00000001
00000000
00000001
00000010
00000000
00000100
00001000
00000100
00010000
00001000
01000000
,
00100000
00000000
10000000
00000000
00010000
10000000
00000000
10000000
01000000
00000000
00100000
00000000
00001000
00000000
00010000
00000000
,
00001000
00000000
00000000
00001000
00000000
00000000
00001000
00000000
00000000
00001000
00000000
00000000
00001000
00010000
00000100
00000010
,
00000002
00000000
00000000
00000000
,
00000000
00000000
00000000
00000000
00000000
00000000
00000000
00002003
,
00003020
00000000
00000000
00000000
,
00000200
00000000
00000000
00000000
00000000
00000330
00000000
00000000
,
00000010
00001000
00000010
00001000
00000010
00001000
00000001
00000100
00000001
00000100
00000001
00000100
00001000
00010000
00001000
00010000
,
00001000
00010000
00100000
10000000
00100000
10000000
00010000
10000000
00010000
10000000
00010000
10000000
01000000
00100000
01000000
00100000
,
00010000
10000000
00100000
00000000
01000000
00010000
10000000
00000000
00010000
00100000
01000000
00000000
10000000
00010000
10000000
00000000
,
00100000
00000000
00000000
01000000
00000000
00000000
00010000
00000000
00000000
10000000
00000000
00000000
01000000
00000000
00000000
00010000
00000000
00000000
00001000
00000000
00000000
00000010
00000000
00000000
00000001
00000000
00000000
00000000
00000000
00000000
00001000
00000000
00000100
00000000
00000010
00000000
00000001
00000000
00000000
00000000
00000000
00000000
00000000
00000000
00000000
00000000
00000000
00000000
,
00001000
00000000
00000000
00000000
00000100
00001000
00000010
00010000
00001000
00010000
00000100
00001000
00000010
00010000
00001000
00010000
,
00000100
00000000
00001000
00000000
00000001
00000100
00000000
00000010
00010000
00000000
00001000
00000000
00010000
00100000
01000000
00000000
,
00001000
00000000
00000000
00000000
01000000
00010000
00100000
00001000
00010000
00001000
01000000
00010000
00100000
00001000
00010000
00001000
,
01000000
00010000
00100000
00000000
01000000
10000000
00100000
00000000
10000000
01000000
00010000
00000000
00001000
00000010
00000002
00000000
,
00000003
00000000
00000000
00000000
00001000
00000100
00000010
00000000
00000001
00000100
00001000
00000000
00010000
00001000
00100000
00000000
,
01000000
10000000
00010000
00000000
01000000
00100000
00000000
00010000
00001000
00000000
00100000
00000000
00001000
00010000
00000100
00000010
,
00000001
00000000
00000002
00002003
00003020
00000230
00000320
00002030
,
00003001
00000010
00000100
00001000
00000001
00000100
00001000
00010000
00100000
10000000
00010000
00100000
01000000
10000000
00010000
00000000
,
10010000
00000000
00000000
00000000
10000000
00010000
01000000
00010000
01000000
00000000
00100000
00000000
01000000
00000000
00010000
00000000
,
10000000
01000000
00100000
00010000
01000000
00100000
00010000
00001000
00010000
00000010
00001000
00000001
00000010
00000100
00001000
00000000
,
00000010
00000000
00001000
00000000
00000001
00000100
00000001
00000100
00000010
00000000
00001000
00000000
00000100
00000000
00001000
00000000
,
00000001
00000100
00000010
00001000
00000001
00000100
00001000
00010000
00001000
00010000
01000000
10000000
00010000
01000000
00100000
10000000
,
00010000
00000000
00000000
00000000
10000000
00010000
10000000
00010000
01000000
00000000
00100000
00000000
00010000
00000000
00001000
00000000
,
00010000
00000100
00000010
00000000
00000001
00000100
00000000
00001000
00010000
00000000
00100000
00000000
10000000
00000000
00010000
00000000
,
10000000
01000000
10000000
00100000
01000000
00010000
00100000
00001000
00010000
00000100
00001000
00000010
00010000
00001000
00010000
00001000
,
00010000
00001000
00010000
00001000
00010000
00001000
00010000
00001000
00010000
00001000
00010000
00001000
00020000
00000000
00000000
00000000
00000000
00000000
00000000
00000000
00000000
00000000
00000000
00000000
,
00030000
00000010
00000000
00000010
,
00000000
00001000
00000000
00001000
,
00000000
00000001
00000000
00000001
,
00000000
00000100
00000000
00000100
,
00000001
00000010
00000100
00001000
00000010
00000100
00001000
00010000
,
01000000
10000000
00010000
01000000
00100000
01000000
00010000
10000000
,
01000000
00100000
00010000
10000000
01000000
00010000
00001000
00000010
00000001
00001000
00000001
00000100
00001000
00010000
00100000
10000000
,
00010000
00000000
01000000
00000000
01000000
00100000
10010000
00000000
,
20000000
30200000
00320000
00032000
00003200
00000320
00002030
00003200
,
00000320
00002030
00023000
02030000
03200000
00302000
00023000
00032000
,
01003000
00010000
10000000
01000000
00100000
00010000
01000000
00100000
00010000
00001000
00010000
00000010
00001000
00000100
00000010
00001000
,
00010000
00001000
00010000
00001000
00000100
00000001
00000010
00000100
00001000
00000010
00010000
00001000
00010000
00001000
01000000
00100000
,
10000000
00000000
02000000
23000000
30200000
00320000
00032000
00003200
,
00000320
00020030
00032000
00003020
00000032
00000203
00002300
00023000
,
00031000
00010000
00000100
00001000
00000001
00000100
00000010
00001000
00000100
00000010
00000001
00000100
00001000
00010000
00001000
00010000
,
01000000
10000000
00010000
01000000
00100000
10000000
00010000
10000000
01000000
00010000
00001000
00010000
00001000
00000010
00000001
00000100
,
00000010
00000000
00000000
00000000
00001000
00000001
00001000
00000001
00000100
00000000
00001000
00000000
00010000
00000000
00001000
00000000
,
00100000
01000000
10000000
00000000
00010000
01000000
00000000
00100000
10000000
00000000
00010000
00000000
00100000
01000000
10000000
00100000
,
00010000
00000000
00000000
00000000
00001000
00010000
00001000
00010000
00001000
00000000
00010000
00000000
00000100
00000000
00000010
00000000
,
00001000
00000000
00000010
00000001
00000100
00001000
00000000
00010000
00001000
00000000
00000010
00000000
00000100
00010000
00001000
01000000
,
00100000
00000000
00000000
00000000
10100000
00000000
00100000
01000000
00010000
00000000
10000000
00000000
01000000
00000000
00100000
00000000
,
00001000
00000000
00010000
00000000
01000000
00000000
10000000
00000000
00100000
01000000
00100000
00000000
10000000
00000000
00010000
00000000
,
10000000
00100000
01000000
00010000
10000000
01000000
00010000
00001000
00000010
00000001
00001000
00000010
00000100
00000001
00001000
00000001
,
00000010
00000100
00001000
00000001
00000100
00001000
00010000
00100000
10000000
00010000
00100000
01000000
10000000
00000000
00010000
00000000
,
02000000
00100000
00000000
00100000
00000000
00100000
00000000
00100000
,
00000000
00100000
00000000
00100000
00000000
00100000
00000000
00100000
,
03000000
00000000
00000000
00000000
,
00000000
00000000
00000000
00000000
;
