
//----- song ID: brfu -----//
#TITLE:BREAKING THE FUTURE;
#ARTIST:ARM (IOSYS) x BEMANI Sound Team "U1" ft. Kradness x TRIΔNGLE;
#BANNER:BREAKING THE FUTURE.png;
#BACKGROUND:BREAKING THE FUTURE-bg.png;
#CDTITLE:./CDTitles/DDR A3.png;
#MUSIC:BREAKING THE FUTURE.ogg;
#SAMPLESTART:90.667;
#SAMPLELENGTH:15;
#DISPLAYBPM:45:360;
#BPMS:0=90,5.5=180,6=90,9.5=180,10=90,20=180,36=360,60=180,64=360,172=90,176=180,232=90,252=180,268=360,300=45,301=90,302=180,304=360,354=180,355=360,357=180,360=360,410=180,411=360,413=180,414=360,416=180,417=360,429.5=720,435.5=360,438=90;
#STOPS:5.5=0.167,9.5=0.167,91=0.167,92=0.167,121=0.167,122=0.167,352=0.125,352.75=0.125,353.5=0.083,355=0.125,355.75=0.125,356.5=0.083,408=0.125,408.75=0.125,409.5=0.083,411=0.125,411.75=0.125,412.5=0.083,414=0.125,414.75=0.125,415.5=0.083,417.5=0.083,418.5=0.083,419.5=0.083,420.5=0.083,421.5=0.083,422.5=0.083,423.5=0.083,424.5=0.083,425.5=0.083,426.5=0.083,427.5=0.083,428.5=0.083;
#STAGE:30;
#NOTES:
     dance-single:
     :
     Beginner:
     6:
     :
0000
0000
0000
0000
,
0000
0000
0000
0000
,
0000
0000
0000
0000
,
1000
0000
0001
0000
,
0100
0000
0010
0000
,
1000
0000
0010
0000
,
1000
0000
0000
0000
,
0001
0000
0100
0000
,
0001
0000
0000
0000
,
0100
0000
0000
0000
,
0010
0000
0000
0000
,
1000
0000
0000
0000
,
0001
0000
0000
0000
,
0100
0000
0000
0000
,
0010
0000
0000
0000
,
0110
0000
0000
0000
,
0001
0000
0000
0000
,
0100
0000
0000
0000
,
0001
0000
0000
0000
,
0100
0000
0000
0000
,
0010
0000
0100
0000
,
0010
0000
0100
0000
,
0010
0000
0000
0000
,
0000
0000
1000
0000
,
0000
0000
0001
0000
,
0000
0000
1000
0000
,
0000
0000
0001
0000
,
0000
0000
0010
0000
,
0100
0000
0010
0000
,
0100
0000
0010
0000
,
0000
0000
0000
0000
,
0001
0000
0001
0000
,
0001
0000
0000
0000
,
1000
0000
0000
0000
,
1000
0000
0000
0000
,
0010
0000
0010
0000
,
0010
0000
0000
0000
,
0100
0000
0000
0000
,
0100
0000
0000
0000
,
0001
0000
0000
0000
,
0010
0000
0000
0000
,
0100
0000
0100
0000
,
0100
0000
0000
0000
,
2002
0000
3003
0000
,
0220
0000
0330
0000
,
1000
0000
0001
0000
,
2002
0000
3003
0000
,
0001
0000
1000
0000
,
0220
0000
0330
0000
,
0010
0000
0100
0000
,
2002
0000
0000
0000
,
3003
0000
0000
0000
,
0010
0000
0100
0000
,
0010
0000
0010
0000
,
1000
0000
0001
0000
,
1000
0000
1000
0000
,
0010
0010
0010
0000
,
0100
0100
0100
0000
,
0001
0000
1000
0000
,
0200
0000
0000
0300
,
0020
0000
0000
0030
,
0001
0000
2002
0000
,
0000
0000
3003
0000
,
0001
0100
0001
0000
,
0100
0010
0100
0000
,
0010
1000
0010
0000
,
1000
0001
1000
0000
,
0001
0000
0001
0000
,
1000
0000
0000
0000
,
1000
0000
0001
0000
,
0001
0000
0000
0000
,
0100
0000
0010
0000
,
0100
0000
0010
0000
,
0100
0000
0000
0000
,
0110
0000
0000
0000
,
2002
0000
0000
3003
,
0001
0000
0100
0000
,
0001
0000
0100
0000
,
0001
0000
0100
0000
,
0001
0000
0000
0000
,
1000
0000
0100
0000
,
1000
0000
0100
0000
,
1000
0000
0100
0000
,
1000
0000
0000
0000
,
0010
0000
0100
0000
,
0010
0000
0100
0000
,
0010
0000
0100
0000
,
0010
0000
0100
0000
,
0020
0000
0000
0000
,
0000
0030
0000
0000
,
1000
0000
0100
0000
,
1000
0000
1000
0000
,
0001
0000
0100
0000
,
0001
0000
0000
0000
,
0001
0000
0100
0000
,
0001
0000
0001
0000
,
1000
0000
0100
0000
,
1000
0000
0000
0000
,
1000
0000
0001
0000
,
1000
0000
0001
0000
,
0010
0000
0100
0000
,
0010
0000
0000
0000
,
1001
0000
0000
1001
,
0000
0000
1001
0000
,
0000
0220
0000
0000
,
0000
0000
0000
0000
,
0000
0000
0000
0000
,
0000
0000
0000
0000
,
0000
0000
0000
0000
,
0000
0000
0000
0000
,
0000
0000
0000
0000
,
0330
0000
0000
0000
,
0000
0000
0000
0000
;
#NOTES:
     dance-single:
     :
     Easy:
     10:
     :
0000
0000
0000
0000
,
0000
0000
0000
0000
,
0000
0000
0000
0000
,
1000
0000
0001
0000
0010
0100
0010
0000
,
0001
0000
1000
0000
0100
0010
0100
0000
,
1000
1000
0010
0010
,
0100
0000
0001
0000
0100
0001
0000
0000
,
0010
0010
0100
0100
,
1000
0000
0001
0000
1000
0001
0000
0000
,
1000
0010
1000
0000
,
0001
0010
0001
0000
,
0010
0100
0010
0000
,
0100
0010
0100
0000
,
1000
0010
1000
0010
,
0100
0001
0100
0001
,
1000
0001
0010
0100
,
1000
0000
0010
0000
,
1000
0000
0100
0000
,
1000
0000
0010
0000
,
1000
0000
0100
0000
,
0010
0001
0010
0000
,
0001
0100
0001
0000
,
0100
0010
0100
0002
,
0000
2003
0000
3001
,
1000
0000
0010
0100
,
0010
0000
1000
0001
,
1000
0000
0100
0010
,
0100
0000
1000
0100
,
1000
0100
0010
0001
,
0010
0001
1000
0010
,
0100
0002
0000
0003
,
1000
0001
1000
0001
,
1000
0000
0010
0010
,
0000
0100
0100
0000
,
0110
0000
0000
0000
,
0001
1000
0001
1000
,
0001
0000
0100
0100
,
0000
0010
0010
0000
,
0110
0000
0000
0000
,
1000
0000
0010
0100
,
0010
0000
1000
0000
,
0001
0000
0010
0001
,
0010
0000
0001
0000
,
2002
0000
0000
3003
1000
0100
0010
0001
,
1000
0000
0000
0000
1001
0000
0000
0220
,
0000
0330
1000
0100
,
0010
0000
0000
0000
0110
0000
0000
2002
,
0000
3003
0001
1000
,
0100
0000
0000
0000
0110
0000
0000
2002
,
0000
3003
0001
0010
,
0100
0000
0000
0220
0000
0000
0000
0000
,
0330
0001
0010
0100
,
1000
0000
0100
0000
1000
0000
0001
0002
,
0000
0003
0100
0010
,
0100
0000
0001
0000
1000
0000
0100
0200
,
0000
0300
1000
1000
,
0001
0100
0010
0010
,
1000
0100
1000
0000
0001
0000
0100
0000
,
0010
0000
2000
0000
3000
0000
1000
0000
0200
0000
0000
0300
0000
0000
0000
0000
,
2000
3002
0000
0203
,
0000
0320
0000
2030
,
0000
0000
0000
0000
0000
0000
0000
0000
0000
3001
0000
0000
0001
0000
0000
0100
,
0000
0000
0100
0000
0000
0010
0000
0000
2000
0000
0000
3002
0000
0000
0000
0000
,
1003
0000
0100
0000
1000
0100
1000
0000
,
0001
0000
0010
0000
0001
0010
0001
0000
,
0100
0000
0010
0000
0100
0010
0100
0000
,
0010
0000
1000
0000
0010
1000
0010
0000
,
1000
0001
1000
0001
,
0100
0010
0100
0000
,
0001
1000
0001
1000
,
0100
0010
0100
0000
,
1000
0000
0010
0100
,
0000
0001
0000
2000
,
0000
3100
0100
0000
,
0110
0000
1001
0000
,
2000
3002
2003
3002
0203
0000
0320
0000
0130
0000
0000
0000
0010
0000
0000
0000
,
1000
0000
0100
0000
,
1000
0010
0100
0000
,
0002
0000
0013
0000
,
0100
0010
0100
0000
,
2000
0000
3010
0000
,
0100
0010
0100
0000
,
0001
1000
0100
0000
,
1000
0001
0100
0000
,
0001
0000
0001
0000
,
1000
0100
0010
0000
,
0100
0000
0100
0000
,
1000
0001
0100
0000
,
0110
0000
0001
1001
,
0000
1000
0100
0010
,
0001
0000
0100
0000
,
0001
0010
0100
0000
,
2000
0000
3010
0000
,
0100
0010
0100
0000
,
0002
0000
0013
0000
,
0100
0010
0100
0000
,
1000
0001
0100
0000
,
0001
1000
0100
0000
,
1000
1000
0010
1000
,
0001
0100
0001
0000
,
0010
0010
0001
0010
,
0100
1000
0100
0000
,
0110
0000
1000
1001
,
0000
0100
0110
0000
,
0001
1000
0000
1000
,
0000
0010
0000
0010
,
0000
0100
0000
0001
,
0000
1000
0000
0000
,
0000
0000
0000
0000
,
0000
0000
2002
0000
,
0000
0000
0000
0000
,
3003
0000
0000
0000
,
0000
0000
0000
0000
;
#NOTES:
     dance-single:
     :
     Medium:
     15:
     :
0000
0000
0000
0000
,
0000
0000
0000
0000
,
0000
0000
0000
0000
,
1000
0000
0010
0000
1000
0010
0100
0000
0001
0100
0001
0000
0010
0010
0000
0000
,
0001
0000
0010
0000
0001
0010
0100
0000
1000
0010
1000
0000
0001
0010
0001
0000
,
1000
0100
1000
0100
0000
0010
0100
0010
,
0001
0000
0100
0010
0100
0100
0000
0000
,
1010
0000
0011
0000
1000
0100
0010
0001
,
1000
0010
0100
0001
1000
1000
0000
0000
,
0001
0000
0001
0000
0100
0010
0100
0000
,
0001
0000
0001
0000
0010
0100
0010
0000
,
0100
0000
0100
0000
1000
0001
1000
0000
,
0010
0000
0010
0000
1000
0001
1000
0000
,
0001
0010
0001
0000
1000
0100
1000
0000
,
0001
0100
0001
0000
1000
0010
1000
0000
,
0001
0010
0100
1000
0001
0100
0010
0010
,
1000
0000
0000
0100
0010
0000
0100
0000
,
1000
0000
0000
0001
0100
0000
0001
0000
,
0010
0000
0000
0100
1000
0000
0100
0000
,
1000
0000
0000
0010
0100
0000
0010
0000
,
1000
0100
1000
0000
0001
0000
0010
0000
,
0001
0010
0001
0000
1000
0000
0100
0000
,
0010
0100
0010
0000
0100
0000
2000
0000
,
3002
0203
0000
0310
,
1000
0010
0001
0010
,
1000
0001
1000
0100
,
0001
0100
1000
0100
,
0001
0000
0100
0000
0010
0100
0010
0000
,
0001
0000
1000
0000
0010
0100
0010
0000
,
1000
0000
0001
0000
0010
0100
0010
0000
,
0001
2000
3002
1003
,
0100
0010
0100
0010
,
0100
0000
1000
0010
,
0000
1000
0100
0000
,
1000
0000
1001
0000
0000
0011
0000
0000
,
0010
0100
0010
0100
,
0010
0000
0001
0100
,
0000
0001
0010
0000
,
0001
0000
1001
0000
0000
1100
0000
0000
,
0001
0010
0100
0100
,
0010
0000
0001
1000
0100
0000
1000
0000
,
0001
0010
0100
1000
,
0010
0100
0010
0000
1000
0000
0100
0000
,
0020
0000
0001
0001
0001
0000
0100
0100
0030
0001
0002
0000
1003
0010
1000
0010
,
0100
0000
0000
0010
0000
0000
1000
0000
1001
0000
0000
0000
0001
0000
0201
0000
,
0000
0310
1100
0101
,
1000
0000
0000
0100
0000
0000
0010
0000
0011
0000
0000
0000
0001
0000
0102
0000
,
0000
0000
1003
0000
0010
1000
0010
1000
,
0001
0000
0000
0100
0000
0000
0010
0000
1010
0000
0000
0000
1000
0000
2100
0000
,
0000
3001
0012
0103
,
1000
0000
0000
0001
0000
0000
1001
0000
1000
0000
0000
0000
0100
0000
0020
0000
,
0000
0031
1001
1100
,
0110
0000
0010
0001
0100
0000
0010
1020
,
0000
0130
0101
1000
,
1010
0000
0010
1000
0100
0000
0010
0012
,
0000
0000
1003
0000
0001
0100
0001
0100
,
0010
0000
1000
0010
1000
0000
0100
0000
0010
0001
0010
0000
0100
0000
1000
0000
,
0001
0000
0100
0010
0100
0000
0001
0000
1000
0001
1000
0000
0010
0000
0100
0000
,
0001
0000
1000
0002
0000
0000
1003
0000
0010
0200
0000
0000
0000
0000
0300
0000
,
0002
0000
0000
0000
1003
0000
0100
2000
0000
0000
0000
0000
3001
0000
0010
0002
,
0000
0000
0000
0000
0000
0000
0000
0000
0000
0000
0000
0000
1003
0000
0000
0000
0000
0000
0010
0000
0000
0200
0000
0000
0000
0000
0000
0000
0000
0000
0000
0000
0000
0000
0000
0000
0301
0000
0000
0000
0000
0000
0010
0000
0000
0000
0200
0000
,
0000
0000
0000
0000
0000
0000
0000
0000
0000
2300
0000
0000
3002
0000
0000
0203
,
0000
0000
0302
0000
0000
0023
0000
0000
0230
0000
0000
2300
0000
0000
0000
0000
,
3001
0100
0001
0100
0010
1000
1010
0000
,
1000
0100
1000
0100
0010
0001
0011
0000
,
0001
0100
0010
1000
0001
0100
0101
0000
,
1000
0100
0010
0001
1000
0100
1100
0000
,
0001
0000
0100
0000
0001
0100
0001
0000
,
1000
0000
0010
0000
1000
0010
1000
0000
,
0001
0000
0010
0000
0001
0010
0001
0000
,
1000
0000
0100
0000
1000
0100
1000
0000
,
0001
0100
0010
1000
,
1000
0001
0001
2000
,
0010
3010
1000
0100
,
0010
0001
0100
0010
,
2000
3200
0320
0032
2003
3200
0320
0032
2003
0000
3002
0000
0023
0000
0230
0000
1300
0000
0000
0000
0001
0000
0000
0000
0010
0000
0000
0000
0100
0000
0000
0000
,
1000
0000
0010
0100
0010
0000
0100
0000
,
0001
0010
0100
2000
,
0001
3001
1000
0100
,
0010
0100
0010
0002
,
1000
1003
0001
0100
,
0010
1000
0001
1000
,
0001
0010
0100
0010
,
0001
1000
0010
1000
,
0010
1000
0010
0000
1000
0000
0100
0000
,
0010
0001
0010
0000
0001
0000
0100
0000
,
0001
0010
0001
0100
,
0010
1000
0100
0010
,
0001
0000
0000
0001
0000
0000
0010
0000
0100
0000
0010
0000
0001
0000
0000
0001
,
0000
1000
0010
1000
0001
0000
0100
0000
,
0001
0000
0010
0100
0010
0000
0100
0000
,
1000
0010
0100
0002
,
1000
1003
0001
0100
,
0010
0100
0010
1000
,
0001
0010
0001
0000
0100
0000
0010
0000
,
1000
0100
1000
0000
0010
0000
0100
0000
,
0010
1000
0010
0000
1000
0001
1000
0000
,
0100
0010
0100
0000
0010
0001
0010
0000
,
0001
0100
0001
0000
1000
0000
0100
0000
,
1000
0010
1000
0000
0001
0000
0100
0000
,
0010
1000
0010
0000
1000
0100
1000
0000
,
0100
0010
0100
0000
0010
0001
0010
0000
,
0001
0000
0000
0001
0000
0000
0010
0000
0001
0000
1000
0000
0010
0000
0000
0010
,
0000
0000
0100
0000
0001
0000
1000
0000
0100
0000
0000
0100
0000
0000
1000
0000
,
0010
0100
0001
0000
0010
0000
1000
0000
,
0010
0001
1000
0100
,
0001
0100
1000
0001
,
0010
1000
0000
0000
,
0000
0000
0000
0000
,
0000
0000
0220
0000
,
0000
0000
0000
0000
,
0330
0000
0000
0000
,
0000
0000
0000
0000
;
#NOTES:
     dance-single:
     :
     Hard:
     18:
     :
0000
0000
0000
0000
,
0000
0000
0000
0000
,
0000
0000
0000
0000
0000
0000
0000
0000
0000
0000
0000
0000
0000
0000
0000
1000
,
0001
0010
0001
0010
0100
1000
0100
1000
0001
0100
0010
1000
0100
0100
0000
1000
,
0010
0100
0010
0100
0001
0010
0001
0010
0001
0100
0010
1000
0100
0010
0001
1000
,
0001
0000
0100
0000
0001
0000
0010
0000
0100
1000
0100
0000
1000
0000
0010
0000
,
0100
0001
0100
0000
0001
0000
0010
0000
0100
0000
0100
0000
1000
0000
0001
0000
,
1001
0001
1000
0100
0110
0010
0001
0100
,
0010
1000
0100
0000
0010
0001
0100
0000
0001
0010
0100
0010
0001
0010
0100
0000
,
1000
0010
1000
0000
0010
0100
0010
0000
,
0100
0001
0100
0000
0001
0010
0001
0000
,
0010
0100
0010
0000
0100
1000
0100
0000
,
1000
0010
1000
0000
0010
0100
0010
0000
,
1000
0010
1000
0010
0100
0001
0100
0001
,
1000
0100
0010
0001
1000
0100
0010
0000
,
0001
0000
0001
0000
0001
0000
0100
0001
0010
0000
0010
0000
0100
1000
0100
1000
,
0100
0000
0000
1000
0010
0100
0001
0010
,
0100
0000
0000
1000
0010
0100
0001
0010
,
0100
0000
0000
1000
0010
0100
0001
0010
,
0100
0000
0000
1000
0010
0100
0001
0010
,
0100
1000
0100
1000
0001
0010
0100
1000
,
0001
0100
0001
0100
0010
1000
0001
0100
,
0010
1000
0100
0010
0001
0100
0002
0000
,
2003
0000
3020
0000
0000
0000
0130
0001
,
0100
0000
0001
0010
0001
0000
1000
0100
,
1000
0000
0010
1000
0100
0000
0010
0001
,
0100
0000
0010
1000
0100
0000
0010
0100
,
1000
0001
0010
0100
1000
0001
0100
0001
,
0100
0010
1000
0100
0010
0001
0010
0001
,
0010
0001
0100
0010
1000
0100
0010
0001
,
0100
0020
2030
3001
,
0100
0001
0100
0001
0100
0001
0100
0001
,
0010
0000
0000
0000
0100
1000
0100
1000
,
0000
0000
0001
0010
0001
0010
0000
0000
,
0011
0000
1001
0000
0000
1100
0000
0000
,
0100
1000
0100
1000
0100
1000
0100
1000
,
0010
0000
0000
0000
0100
0001
0100
0001
,
0000
0000
1000
0010
1000
0010
0000
0000
,
1010
0000
1001
0000
0000
0101
0000
0000
,
0001
1000
0100
1000
0001
1000
0010
1000
,
0001
0100
0001
0010
0001
1000
0001
0100
,
0001
0010
0100
0010
0001
0000
1000
0010
,
0100
0010
1000
0100
0010
0001
0010
0000
,
0200
0000
1000
1000
1000
0000
0010
0010
0300
1000
2000
0000
3001
0100
0010
1000
,
0001
0000
0000
0010
0000
0000
0011
0000
1001
0000
0000
1000
0010
0000
0120
0000
,
0000
0000
1030
0000
0100
0000
0010
0000
0110
0000
0000
1000
0001
0010
0100
1000
,
0001
0000
0000
0100
0000
0000
0101
0000
1001
0000
0000
1000
0100
0000
0120
0000
,
0000
0000
0031
0000
0100
0000
0010
0000
1000
0100
0010
0000
0001
0010
0100
0000
,
1000
0000
0000
0010
0000
0000
1010
0000
1001
0000
0000
0001
0010
0000
0120
0000
,
0000
0000
0031
0000
0100
0000
0010
0000
0110
0000
0000
0001
1000
0100
0010
0001
,
1000
0000
0000
0100
0000
0000
1100
0000
1001
0000
0000
1000
0010
0000
0120
0000
,
0000
0000
0000
1030
0000
0000
0001
0000
0010
0000
1000
0000
0001
0000
0100
0000
1000
0000
0001
0000
0010
0000
0100
0000
,
1000
0000
0000
0010
0001
0000
1000
0000
0100
0000
0001
0010
1000
0000
0020
0000
,
0000
0000
0031
0000
0100
0000
0010
0000
0110
0000
0000
1000
0100
0010
0001
0000
,
1000
0000
0000
0100
0001
0000
1000
0000
0010
0000
0001
0100
1000
0000
0200
0000
,
0000
0000
0310
0000
1000
0000
0100
0000
0010
0001
0010
0001
0100
0000
0001
0010
,
0100
0000
0010
0001
0100
0000
0001
0000
1000
0100
0000
0010
0001
0000
0100
0001
,
0010
0000
0100
1000
0010
0000
1000
0001
0100
0000
0001
0000
0010
0100
0010
0000
,
0001
0100
0010
2000
0000
0000
3001
0100
0010
2000
0000
0000
0000
0000
3000
0000
,
0002
0000
0000
0000
0103
0000
0010
2000
0000
0000
0000
0000
3100
0000
0010
0002
,
0000
0000
0000
0000
0000
0000
0000
0000
0000
0000
0000
0000
0103
0000
0000
0000
0000
0000
1000
0000
0000
0200
0000
0000
0000
0000
0000
0000
0000
0000
0000
0000
0000
0000
0000
0000
0301
0000
0000
0000
0000
0000
0010
0000
0000
0000
2000
0000
,
0000
0000
0000
0000
0000
0000
0000
3010
0001
1000
0001
0100
0010
1000
0100
0010
,
0001
0100
0001
0010
1000
0001
0100
1000
0002
0000
0103
0020
0000
1030
0000
0000
,
1010
1000
0100
0010
0110
0100
1000
0001
,
1001
1000
0010
0100
0110
0010
1000
0001
,
1001
1001
0100
0010
0110
0110
0001
0100
,
0101
0101
1000
0010
1010
1010
0001
1000
,
0100
0010
0100
0000
0010
0001
0010
0100
,
1000
0010
1000
0000
0010
0100
0010
1000
,
0001
0010
0001
0000
0100
0001
0100
0010
,
1000
0100
1000
0000
1100
0000
1001
0000
,
1000
0100
0010
0001
0100
0000
1100
0000
,
1100
0000
0011
0000
0110
0000
0001
0100
,
0010
1000
0100
0010
0001
1000
0100
0010
,
0001
0010
1000
0010
0001
1000
0001
0000
,
2000
3200
0320
0032
2003
3020
0230
0302
2003
0000
3200
0000
0302
0000
2003
0000
3010
0000
0000
0000
0001
0000
0000
0000
0100
0000
0000
0000
1000
0000
0000
0000
,
0100
0000
0010
1000
0100
0000
1000
0000
,
1100
0000
0001
0000
0100
0000
0001
0010
,
0100
0010
0001
0100
,
0010
0100
0010
0100
0010
0000
1000
0100
,
0010
0100
1000
0001
,
0100
0010
0100
0010
0100
0000
0001
0000
,
1000
0010
0100
0001
0010
0001
0100
0000
,
0001
0010
0100
1000
0010
1000
0100
0000
,
1000
0010
1000
0001
0100
0010
0100
0001
,
1000
0001
0010
0100
1000
0000
0001
0000
,
1000
0100
0010
0000
0100
0010
0001
0000
,
0010
0001
1000
0000
1001
0000
0011
0000
,
0110
0000
0000
1100
0000
0000
1001
0000
0011
0000
1000
0000
1010
0000
0000
0110
,
0000
0000
0101
0000
1001
0000
0001
0010
0100
0000
1000
0010
0100
0010
0100
0000
,
0001
0000
0010
0001
0100
0000
0001
0000
,
0101
0000
1000
0000
0100
0000
1000
0010
,
0100
0010
1000
0100
,
0010
0100
0010
0100
0010
0000
0001
0100
,
0010
1000
0100
1000
0001
0010
0100
1000
,
0001
0010
0001
0010
0100
1000
0010
0000
,
1000
0100
0010
0100
1000
0010
0100
0001
,
0010
0100
1000
0001
0100
0010
1000
0000
,
0001
0100
0001
0100
0010
1000
0100
0010
,
0001
0010
0001
0010
0100
1000
0010
0100
,
0010
1000
0100
0010
0001
0100
0010
1000
,
0100
0010
0001
0100
0010
1000
0001
0000
,
0110
0000
0000
1100
0000
0000
1010
0000
0110
0000
0100
0000
1001
0000
0000
0101
,
0000
0000
1010
0000
1001
0000
0001
0000
0101
0000
0000
1010
0000
0000
1100
0000
,
1001
0011
1000
0010
0100
0001
0010
0100
,
1000
0001
1000
0010
0100
0001
0010
1000
,
0001
0100
1000
0010
0100
0001
1000
0010
,
0100
0100
0010
0010
0000
0000
0000
0000
,
0000
0000
0000
0000
,
0000
0000
2002
0000
,
0000
0000
0000
0000
,
3003
0000
0000
0000
,
0000
0000
0000
0000
;
#NOTES:
     dance-single:
     :
     Challenge:
     19:
     :
0000
0000
0000
0000
,
0000
0000
0000
0000
,
0000
0000
0000
0000
0000
0000
0000
0000
0000
0000
0000
0000
0000
0000
0000
0001
,
1000
0100
1000
0001
0010
0001
0100
0010
1000
0100
0010
0001
0101
1010
0000
1000
,
0001
0000
0100
0000
0001
0000
1000
0000
0010
0000
1000
0000
0100
0000
0010
0000
0001
0000
0100
0000
0010
0000
1000
0000
0001
0010
0100
1000
0010
0100
0001
1000
,
1100
0000
0100
0000
1001
0000
1000
0000
0100
0001
0100
1000
0010
0000
0100
0000
,
1000
0100
0001
0010
1000
0010
0100
0000
0210
0000
0001
0000
0310
0001
0100
0000
,
1020
1000
0100
0130
2001
0100
0010
3010
,
0001
0100
0010
0100
1000
0100
0010
0100
0001
0010
0100
0010
1000
0010
0100
0010
,
0001
1000
0100
0100
0001
1000
0001
1000
,
0001
1000
0100
0100
0001
1000
0001
1000
,
0001
1000
0010
0010
0001
1000
0001
1000
,
0001
1000
0010
0010
0001
1000
0001
1000
,
0001
0010
0100
1000
0001
0010
0100
1000
,
0001
0100
0010
1000
0001
0100
0010
1000
,
1010
0000
0110
0000
0101
0000
0001
0010
0100
1000
0100
1000
0010
0100
0010
0100
,
0010
1000
0010
1000
0001
0100
0001
1000
,
0010
0100
0010
0100
0001
1000
0010
1000
,
0100
0010
0100
0010
0001
1000
0100
0010
,
0001
1000
0001
1000
0010
0100
0001
1000
,
0100
0000
1000
0000
0001
0000
0010
0000
0000
0001
0000
0000
1000
0000
0010
0000
0100
0000
0001
0000
0000
0100
0000
0000
,
0010
0000
1000
0000
0001
0000
0100
0000
0000
0001
0000
0000
1000
0000
0100
0000
0010
0000
0001
0000
0000
0010
0000
0000
,
0100
0000
1000
0000
0001
0000
0010
0000
0000
0001
0000
0000
1000
0000
0100
0000
0010
0000
0200
0000
0000
0000
0000
0000
,
0320
0000
0130
0000
1000
0100
0010
0001
,
1000
0100
0010
0001
1000
0010
0100
0001
,
1000
0010
0100
0001
0100
0010
1000
0010
,
0100
0001
1000
0100
0010
0001
0010
0100
,
1000
0000
0000
0001
0000
0000
0100
0000
0000
0010
0000
0000
0100
0000
0001
0000
1000
0000
0100
0000
0000
1000
0000
0000
,
0001
0000
0100
0000
0010
0000
1000
0000
0000
0010
0000
0000
0100
0000
0001
0000
1000
0000
0010
0000
0000
1000
0000
0000
,
0001
0000
0010
0000
0100
0000
1000
0000
0000
0100
0000
0000
0010
0000
0001
0000
1000
0000
0100
0000
0000
1000
0000
0000
,
0001
0100
0010
2000
0000
0000
3002
0000
0000
1003
0000
0000
,
0100
0010
0100
0010
0100
0010
0100
0010
,
0110
0000
0000
0000
1000
0001
1000
0001
,
0000
0000
0010
0100
0010
0100
0000
0000
,
1001
0000
0100
0010
0000
0010
0100
0000
,
0001
1000
0001
1000
0001
1000
0001
1000
,
1001
0000
0000
0000
0100
0010
0100
0010
,
0000
0000
1000
0001
1000
0001
0000
0000
,
0110
0000
1000
0001
0000
0001
1000
0000
,
0001
0100
0001
0100
0001
0100
0001
1000
0001
1000
0001
1000
,
0100
1000
0100
1000
0100
1000
0001
0100
0010
1000
0001
1000
,
0100
0000
0010
0000
0001
0000
1000
0000
0010
0000
0100
0000
0001
0000
0000
0000
0000
0000
1000
0000
0000
0010
0000
0000
,
0100
0010
1000
1000
0001
0010
0100
0010
,
0020
0000
1000
1000
1000
0000
0100
0100
0030
0001
1001
0100
1000
0010
0100
0001
,
0101
0000
0000
1010
0000
0000
1100
0000
0010
0001
0010
0100
1000
0100
2000
0000
,
0000
0000
0001
0000
0010
0000
3100
0000
1001
0000
0000
1000
0001
0010
0100
1000
,
0100
0000
0000
1001
0000
0000
0011
0000
0001
0100
1000
0100
0001
0010
0002
0000
,
0000
0000
1000
0000
0100
0000
0013
0000
0001
0100
0010
1000
0100
0010
0001
0100
,
0010
0000
0000
1010
0000
0000
0101
0000
0010
1000
0100
0010
0001
0100
0020
0000
,
0000
0000
0001
0000
0100
0000
1030
0000
1001
0000
0000
0001
1000
0100
0010
0001
,
0100
0000
0000
1010
0000
0000
0011
0000
1000
0100
0001
0100
1000
0000
1020
0000
,
0000
0000
0000
0130
0000
0000
1001
0000
0100
0000
0010
0000
1001
0000
0010
0000
0100
0000
1001
0000
0100
0000
0010
0000
,
1001
0000
0000
1000
0010
0000
0110
0000
0101
0000
1000
0100
0001
0000
0210
0000
,
0000
0000
1000
0000
0010
0000
1300
0000
1100
0000
0000
0001
1000
0010
0001
0010
,
0100
0000
0000
0001
0010
0000
0011
0000
1000
0100
0001
0100
0010
0000
0021
0000
,
0000
0000
0100
0000
0001
0000
0130
0000
0001
1000
0001
0100
1000
0100
0010
0100
,
1001
0000
0100
0100
0010
0000
1001
0000
0001
0010
0000
1000
0010
0000
0001
0010
,
1000
0000
1000
0010
0001
0000
0100
0010
0100
0000
1001
0000
0100
0010
0100
0000
,
0001
0010
0100
2000
0000
0000
3001
0010
0100
2000
0000
0000
0000
0000
3000
0000
,
0102
0000
0000
0000
1003
0000
0100
0020
0000
0000
0000
0000
0031
0000
0100
0020
,
0000
0000
0000
0000
0000
0000
0000
0000
0000
0000
0000
0000
1030
0000
0000
0000
0000
0000
0100
0000
0000
0020
0000
0000
0000
0000
0000
0000
0000
0000
0000
0000
0000
0000
0000
0000
0031
0000
0000
0000
0000
0000
1000
0000
0000
0000
0200
0000
,
0000
0000
0000
0000
0000
0000
0000
0310
0001
0010
0100
1000
0001
0010
1000
0001
,
0100
1000
0001
0100
1000
0001
0010
1000
0001
0001
0100
0010
0000
0100
0000
0101
,
0110
0000
1010
0000
0100
0001
0010
0000
0011
0000
0110
0000
0010
0001
0100
0000
,
0110
0000
1010
0000
0010
1000
0100
0000
1100
0000
1001
0000
1000
0100
0010
0000
,
0011
0000
0110
0000
1000
0100
0001
0000
0101
0000
0110
0000
0001
0100
1000
0000
,
1100
0000
0110
0000
1000
0010
0001
0000
0011
0000
0110
0000
0001
0010
1000
0010
,
0110
0001
1000
0000
0010
1000
0100
0010
,
0001
0100
0001
0000
1000
0100
0001
0100
,
1000
0010
1000
0000
0001
0100
0010
1000
,
0100
0010
0100
0000
1000
0010
0001
0010
,
0100
0001
0100
0001
0010
0001
0010
0001
,
1000
0010
1000
0010
1000
0100
1000
0100
,
1000
0100
0010
0001
0100
0010
1000
0100
,
1000
0010
0100
0001
0010
0100
1000
0010
,
2000
3002
0023
0230
2300
3002
0203
0320
0230
0000
2000
3000
0020
0030
0002
0003
0310
0000
0000
0000
1000
0000
0000
0000
1100
0000
0000
0000
0011
0000
0000
0000
,
1000
0100
0010
0001
0100
0000
0010
0000
,
1020
0000
0130
0000
2001
0000
3010
0100
,
1000
0100
0001
0010
1000
0000
0010
0010
,
1000
0010
0001
0010
1000
0000
0001
0001
,
0100
1000
0001
0100
0010
0000
1000
1000
,
0001
0010
0100
1000
0010
0000
0110
0000
,
1000
0100
0010
0001
0100
0100
0010
1000
,
0001
0001
1000
0100
0010
0010
0010
0000
,
0001
0010
0100
1000
0010
0100
0001
1000
,
0100
0010
0001
0100
0201
0300
1020
0030
,
0001
0010
1000
0100
0001
0000
0120
0030
,
1000
0010
0001
0000
0110
0000
0101
0000
,
1100
0000
0000
1001
0000
0000
0011
0000
1001
0000
1000
0010
0110
0000
0000
0101
,
0000
0000
1010
0000
1001
0000
0001
0100
0001
0010
1000
0001
0100
1000
0010
0100
,
0001
0010
0100
1000
0010
0000
0100
0000
,
0201
0000
0310
0000
1002
0000
0103
0010
,
0001
0010
1000
0100
0001
0000
0110
0000
,
0010
0001
1000
0100
0010
0001
1000
0001
,
0100
0001
0100
0001
1000
0001
0010
0100
1000
0100
1000
0001
,
1000
0010
0100
0001
1000
0001
0010
0100
1000
0001
1000
0010
,
0100
0010
1000
0001
1000
0100
0010
0001
1000
0010
0000
0000
,
1000
0000
0001
0010
0100
1000
1001
0000
,
1000
0100
1000
0100
0010
0001
1000
0001
1000
0010
1000
0001
,
0010
0100
1000
0001
0100
0001
0100
0010
1000
0001
0100
0001
,
1000
0100
0010
0100
1000
0001
0100
0001
1000
0100
1000
0001
,
0100
0001
1000
0001
1000
0100
0010
0001
0010
0100
1000
0001
,
1000
0000
0000
1010
0000
0000
1100
0000
0110
0000
0010
0001
1001
0000
0000
0011
,
0000
0000
1100
0000
1001
0000
1000
0010
0110
0000
0000
1001
0000
0000
0110
0000
,
0001
0100
0001
0100
0010
0000
1000
0000
1000
0000
0100
0000
0100
0000
0001
0000
,
0001
0100
0100
1000
1000
0001
0001
0100
,
0100
1000
1000
0010
0010
0001
0001
1000
,
1000
0001
1001
1001
0000
0000
0000
0000
,
0000
0000
0000
0000
,
0000
0000
2002
0000
,
0000
0000
0000
0000
,
3003
0000
0000
0000
,
0000
0000
0000
0000
;
#NOTES:
     dance-double:
     :
     Easy:
     10:
     :
00000000
00000000
00000000
00000000
,
00000000
00000000
00000000
00000000
,
00000000
00000000
00000000
00000000
,
10000000
00000000
00010000
00000000
00100000
00001000
00100000
00000000
,
00001000
00000000
00010000
00000000
00000010
00001000
00000010
00000000
,
00001000
00001000
00000001
00000001
,
00000010
00000100
00001000
00000000
,
00000010
00000010
00010000
00010000
,
00001000
00100000
00010000
00000000
,
10000000
00100000
10000000
00000000
,
00010000
00100000
00010000
00000000
,
00100000
00001000
00100000
00000000
,
00001000
00010000
00001000
00000000
,
00010000
00000100
00010000
00000100
,
00001000
00000010
00001000
00000001
,
00001000
00000001
00000010
00000100
,
00001000
00000000
00000100
00000000
,
00010000
00000000
00001000
00000000
,
00100000
00000000
00010000
00000000
,
10000000
00000000
00100000
00000000
,
01000000
00010000
01000000
00000000
,
00001000
00010000
00001000
00000000
,
00010000
00000100
00001000
00000002
,
00000000
00002003
00000000
00003000
,
00000001
00000000
00000100
00000010
,
00000100
00000000
00000010
00001000
,
00000010
00000000
00010000
00001000
,
00010000
00000000
00001000
00100000
,
00001000
00100000
00010000
01000000
,
00010000
10000000
01000000
00100000
,
00010000
00200000
00000000
00300000
,
00001000
00010000
00001000
00010000
,
00001000
00000000
00000100
00000100
,
00000000
00000001
00000001
00000000
,
00001100
00000000
00000000
00000000
,
00010000
00001000
00010000
00001000
,
00010000
00000000
00100000
00100000
,
00000000
10000000
10000000
00000000
,
01010000
00000000
00000000
00000000
,
10000000
00000000
00100000
01000000
,
00100000
00000000
10000000
00000000
,
01000000
00000000
00010000
00001000
,
00010000
00000000
00000010
00000000
,
00000220
00000000
00000000
00000330
00000001
00000010
00000100
00001000
,
00000100
00000000
00000000
00000000
00010000
00000000
00000000
00022000
,
00000000
00033000
00001000
01000000
,
00010000
00000000
00000000
00000000
10000000
00000000
00000000
20020000
,
00000000
30030000
10000000
01000000
,
00010000
00000000
00000000
00000000
00001000
00000000
00000000
00022000
,
00000000
00033000
00010000
00000010
,
00001000
00000000
00000000
00002002
00000000
00000000
00000000
00000000
,
00003003
00000001
00000100
00000010
,
00001000
00000000
00000010
00000000
00010000
00000000
00001000
00002000
,
00000000
00003000
01000000
00010000
,
01000000
00000000
00100000
00000000
10000000
00000000
00010000
00020000
,
00000000
00030000
01000000
01000000
,
00001000
00010000
00000010
00000010
,
00001000
00001000
00000001
00000100
,
00001000
00010000
00000000
00010000
01000000
00000000
00000000
00000000
,
20000000
30020000
00000000
00230000
,
00000000
00302000
00000000
00023000
,
00000000
00000000
00000000
00000000
00000000
00000000
00000000
00000000
00000000
00030010
00000000
00000000
00000010
00000000
00000000
00001000
,
00000000
00000000
00001000
00000000
00000000
00000001
00000000
00000000
00000200
00000000
00000000
00002300
00000000
00000000
00000000
00000000
,
00013000
00000000
00001000
00000000
01000000
00010000
01000000
00000000
,
00010000
00000000
00100000
00000000
01000000
10000000
01000000
00000000
,
10000000
00000000
00100000
00000000
01000000
00100000
01000000
00000000
,
00010000
00000000
00100000
00000000
00001000
00010000
00001000
00000000
,
00010000
00000100
00010000
00000100
,
00001000
00000100
00000010
00000000
,
00000001
00000100
00000001
00000100
,
00000010
00001000
00000100
00000000
,
00010000
00000000
00001000
00010000
,
00000000
00100000
00000000
20000000
,
00000000
30010000
00010000
00000000
,
01000000
00000000
00001000
00000000
,
00020000
00032000
00003200
00000302
00002003
00000000
00003020
00000000
00010030
00000000
00000000
00000000
00001000
00000000
00000000
00000000
,
00100000
00000000
00010000
00000000
,
10000000
01000000
00100000
00000000
,
00020000
00000000
01030000
00000000
,
00001000
00010000
00001000
00000000
,
00020000
00000000
00030010
00000000
,
00001000
00000001
00001000
00000000
,
00000001
00000010
00000100
00000000
,
00001000
00000100
00010000
00000000
,
00001000
00000000
00001000
00000000
,
00100000
00010000
10000000
00000000
,
00100000
00000000
00100000
00000000
,
01000000
00001000
00010000
00000000
,
00011000
00000000
00000100
00001100
,
00000000
00000001
00001000
00000100
,
00010000
00000000
00001000
00000000
,
01000000
00010000
10000000
00000000
,
02000000
00000000
03010000
00000000
,
00001000
00010000
00001000
00000000
,
00000200
00000000
00000301
00000000
,
00000010
00000001
00000010
00000000
,
00000001
00001000
00000100
00000000
,
00010000
00001000
00100000
00000000
,
00010000
00010000
10000000
00100000
,
01000000
00010000
01000000
00000000
,
00001000
00001000
00010000
00000010
,
00001000
00000010
00001000
00000000
,
00001010
00000000
00010000
00011000
,
00000000
01000000
01010000
00000000
,
00001000
00010000
00000000
00000010
,
00000000
00000001
00000000
00000100
,
00000000
00001000
00000000
00010000
,
00000000
00100000
00000000
00000000
,
00000000
00000000
00000000
00000000
,
00000000
00000000
20020000
00000000
,
00000000
00000000
00000000
00000000
,
30030000
00000000
00000000
00000000
,
00000000
00000000
00000000
00000000
;
#NOTES:
     dance-double:
     :
     Medium:
     15:
     :
00000000
00000000
00000000
00000000
,
00000000
00000000
00000000
00000000
,
00000000
00000000
00000000
00000000
,
00001000
00000000
00010000
00000000
00001000
00100000
00010000
00000000
00100000
01000000
00100000
00000000
00010000
00010000
00000000
00000000
,
10000000
00000000
00010000
00000000
00100000
00001000
00010000
00000000
00000010
00001000
00000010
00000000
00001000
00000100
00001000
00000000
,
00000001
00000100
00000001
00000100
00000000
00000010
00001000
00000010
,
00010000
00000000
00001000
01000000
00010000
00010000
00000000
00000000
,
10010000
00000000
11000000
00000000
01000000
00100000
00010000
00100000
,
00001000
00010000
00001000
00010000
00000010
00000010
00000000
00000000
,
00001000
00000000
00001000
00000000
00000001
00000100
00000001
00000000
,
00000100
00000000
00000100
00000000
00000010
00001000
00000010
00000000
,
00001000
00000000
00001000
00000000
00000100
00010000
00000100
00000000
,
00010000
00000000
00010000
00000000
00001000
00100000
00001000
00000000
,
00100000
00010000
00100000
00000000
00010000
00100000
00010000
00000000
,
10000000
00100000
10000000
00000000
00100000
10000000
00100000
00000000
,
10000000
01000000
00100000
00010000
00001000
00000100
00000010
00000010
,
00000001
00000000
00000000
00000100
00000010
00000000
00000100
00000000
,
00000010
00000000
00000000
00010000
00001000
00000000
00010000
00000000
,
00001000
00000000
00000000
01000000
00100000
00000000
01000000
00000000
,
00010000
00000000
00000000
10000000
00010000
00000000
10000000
00000000
,
01000000
00010000
00001000
00010000
,
00001000
00000010
00000001
00000010
,
00000001
00000100
00001000
00020000
,
00032000
00203000
00000000
00301000
,
00010000
01000000
00010000
00001000
,
00000100
00001000
00010000
01000000
,
10000000
01000000
00010000
00001000
,
00000100
00000000
00000001
00000000
00001000
00000010
00001000
00000000
,
00000100
00000000
00010000
00000000
00001000
00010000
00001000
00000000
,
01000000
00000000
00100000
00000000
10000000
01000000
10000000
00000000
,
00100000
00020000
00032000
00013000
,
00000010
00000100
00000010
00000100
,
00000010
00000000
00001000
00000100
,
00000000
00001000
00000010
00000000
,
00010000
00000000
00010010
00000000
00000000
00011000
00000000
00000000
,
00100000
01000000
00100000
01000000
,
00100000
00000000
00010000
01000000
,
00000000
00010000
00100000
00000000
,
00001000
00000000
00101000
00000000
00000000
00011000
00000000
00000000
,
00010000
00000010
00001000
00001000
,
00000001
00000000
00000010
00000100
00001000
00000000
00000100
00000000
,
00010000
00001000
00100000
00010000
,
10000000
01000000
10000000
00000000
00010000
00000000
00100000
00000000
,
00002000
00000000
00010000
00010000
00010000
00000000
00100000
00100000
00003000
00010000
00020000
00000000
00030010
00001000
00000010
00001000
,
00000001
00000000
00000100
00000000
00001000
00000000
00010000
00012000
,
00000000
00103000
00110000
10010000
,
10000000
00000000
01000000
00000000
00010000
00000000
00001000
00021000
,
00000000
00000000
00030010
00000000
00001000
00000100
00001000
00000000
,
00000001
00000000
00000010
00000000
00001000
00000000
00010000
00012000
,
00000000
01003000
01010000
10010000
,
10000000
00000000
00000000
00100000
00000000
00000000
00010000
00000000
00001000
00000000
00000000
00000000
00000010
00000000
00000002
00000000
,
00000000
00001003
00001010
00000110
,
00000001
00000000
00000100
00001000
00010000
00000000
00100000
02100000
,
00000000
03010000
00110000
01100000
,
10000000
00000000
01000000
00010000
00001000
00000000
00000010
00000210
,
00000000
00000000
00001300
00000000
00000100
00000010
00000100
00000010
,
00000001
00000000
00000100
00000001
00000100
00000000
00000010
00000000
00001000
00000000
00000100
00000000
00010000
00000000
00000000
00000000
,
00001000
00000000
00100000
00010000
00100000
00000000
00001000
00000000
00010000
00000000
01000000
00000000
10000000
00000000
00000000
00000000
,
00010000
00000000
01000000
00010000
00000000
00000000
00100000
00000000
00001000
00010000
00000000
00000000
00000000
00000000
00000000
00000000
,
00002000
00000000
00000000
00000000
00003010
00000000
00000001
00000020
00000000
00000000
00000000
00000000
00000130
00000000
00001000
00000200
,
00000000
00000000
00000000
00000000
00000000
00000000
00000000
00000000
00000000
00000000
00000000
00000000
00010300
00000000
00000000
00000000
00000000
00000000
00001000
00000000
00000000
00020000
00000000
00000000
00000000
00000000
00000000
00000000
00000000
00000000
00000000
00000000
00000000
00000000
00000000
00000000
00031000
00000000
00000000
00000000
00000000
00000000
00010000
00000000
00000000
00000000
00200000
00000000
,
00000000
00000000
00000000
00000000
00000000
00000000
00000000
00000000
00000000
10300000
00000000
00000000
00010000
00000000
00000000
01000000
,
00000000
00000000
00001000
00000000
00000000
00010000
00000000
00000000
00000200
00000000
00000000
00002300
00000000
00000000
00000000
00000000
,
00003001
00000010
00000001
00000010
00001000
00010000
00001000
00000000
,
00010000
01000000
00010000
01000000
10000000
00100000
10000000
00000000
,
00010000
00100000
00001000
00010000
00000100
00001000
00000010
00000000
,
00000100
00000001
00000010
00000100
00001000
00000010
00010000
00000000
,
00001000
00000000
00100000
00000000
00010000
00100000
00010000
00000000
,
10000000
00000000
01000000
00000000
10000000
01000000
10000000
00000000
,
00010000
00000000
01000000
00000000
00001000
01000000
00001000
00000000
,
00010000
00000000
00000100
00000000
00010000
00000100
00010000
00000000
,
00001000
00000100
00000010
00001000
,
00001000
00000001
00000001
00000200
,
00001000
00001300
00010000
00001000
,
00010000
00100000
01000000
00100000
,
20000000
32000000
03200000
00320000
00032000
00003200
00000320
00000032
00000203
00000000
00002300
00000000
00023000
00000000
00032000
00000000
00013000
00000000
00000000
00000000
00100000
00000000
00000000
00000000
10000000
00000000
00000000
00000000
00100000
00000000
00000000
00000000
,
00010000
00000000
00001000
00010000
00001000
00000000
00010000
00000000
,
00000100
00001000
00000001
00002000
,
00000010
00003010
00001000
00000100
,
00010000
00001000
00100000
00020000
,
10000000
10030000
00010000
01000000
,
00100000
01000000
00010000
01000000
,
00001000
00010000
00001000
00000010
,
00001000
00010000
01000000
10000000
,
00010000
01000000
00010000
00000000
01000000
00000000
00001000
00000000
,
00010000
00000010
00010000
00000000
00000010
00000000
00001000
00000000
,
00000001
00000010
00000100
00001000
,
00000100
00010000
00001000
01000000
,
00010000
00000000
00000000
00010000
00000000
00000000
10000000
00000000
00100000
00000000
00010000
00000000
00001000
00000000
00000000
00001000
,
00000000
00010000
00001000
00010000
00000010
00000000
00001000
00000000
,
00000100
00000000
00010000
00001000
00010000
00000000
00001000
00000000
,
01000000
00010000
10000000
00020000
,
00100000
00130000
00010000
01000000
,
00001000
00010000
00000010
00002000
,
00000001
00003001
00001000
00000100
,
00000010
00000100
00001000
00000100
,
00010000
00001000
00010000
00100000
,
00010000
00001000
00000100
00000001
,
00001000
00000100
00001000
00000000
00000100
00000000
00010000
00000000
,
00001000
00100000
00001000
00000000
00100000
00000000
00010000
00000000
,
10000000
01000000
10000000
00000000
00010000
00100000
00010000
00000000
,
00100000
00001000
00100000
00000000
00001000
00010000
00001000
00000000
,
00010000
00000000
00000000
00010000
00000000
00000000
00001000
00000000
00000100
00000000
00000001
00000000
00001000
00000000
00000000
00001000
,
00000000
00000000
00000001
00000000
00000010
00000000
00001000
00000000
00010000
00000000
00000000
00010000
00000000
00000000
00100000
00000000
,
10000000
00010000
10000000
00000000
01000000
00000000
00010000
00000000
,
00001000
00000100
00000001
00000100
,
00001000
00010000
00100000
00010000
,
00001000
00000010
00000000
00000000
,
00000000
00000000
00000000
00000000
,
00000000
00000000
00022000
00000000
,
00000000
00000000
00000000
00000000
,
00033000
00000000
00000000
00000000
,
00000000
00000000
00000000
00000000
;
#NOTES:
     dance-double:
     :
     Hard:
     18:
     :
00000000
00000000
00000000
00000000
,
00000000
00000000
00000000
00000000
,
00000000
00000000
00000000
00000000
00000000
00000000
00000000
00000000
00000000
00000000
00000000
00000000
00000000
00000000
00000000
00000001
,
00001000
00000100
00001000
00000100
00010000
00001000
00010000
00001000
00100000
00010000
10000000
00100000
01000000
01000000
00000000
00010000
,
10000000
01000000
10000000
00010000
01000000
00100000
01000000
00010000
10000000
01000000
00100000
00010000
00001000
00000100
00000010
00000001
,
00000010
00000000
00000001
00000000
00001000
00000000
00000100
00000000
00010000
00001000
00010000
00000000
00001000
00000000
01000000
00000000
,
00010000
01000000
00010000
00000000
10000000
00000000
00100000
00000000
01000000
00000000
01000000
00000000
00000000
00000000
00000000
00000000
,
10010000
10000000
01000000
00010000
00011000
00001000
00000010
00000001
,
00001000
00000100
00010000
00000000
00001000
00100000
00010000
00000000
10000000
01000000
00100000
00000000
00010000
01000000
00001000
00000000
,
00010000
00000100
00010000
00000000
00000100
00001000
00000100
00000000
,
00001000
00000001
00001000
00000000
00000001
00000100
00000001
00000000
,
00000100
00000010
00000100
00000000
00000010
00010000
00000010
00000000
,
00010000
00001000
00010000
00000000
00001000
00100000
00001000
00000000
,
00100000
00010000
00100000
00010000
10000000
01000000
10000000
01000000
,
00100000
00010000
00001000
00000100
00001000
00000100
00000010
00000000
,
00000001
00000000
00000001
00000000
00000001
00000000
00000100
00001000
00010000
00000000
00010000
00000000
00100000
01000000
00100000
01000000
,
00100000
00000000
00000000
10000000
00100000
01000000
00010000
00100000
,
01000000
00000000
00000000
00010000
00001000
00000010
00000001
00000100
,
00000010
00000000
00000000
00010000
00001000
00100000
00010000
01000000
,
00100000
00000000
00000000
10000000
00100000
01000000
00010000
00100000
,
00001000
00010000
00001000
00010000
00000010
00001000
00000010
00000000
,
00000100
00000001
00000100
00000001
00000010
00000100
00001000
00000000
,
00010000
01000000
00100000
10000000
01000000
00100000
00020000
00000000
,
20030000
00000000
32000000
00000000
00000000
00000000
03010000
00001000
,
00010000
00000000
00001000
00000010
00001000
00000000
00000010
00000001
,
00000010
00000000
00000001
00000100
00000001
00000000
00000100
00001000
,
00000100
00000000
00001000
00010000
00001000
00000000
00010000
00100000
,
00010000
00100000
10000000
01000000
00100000
01000000
00100000
01000000
,
00010000
00001000
00010000
00001000
00000100
00000010
00000100
00000010
,
00000100
00000001
00000010
00000100
00001000
00000010
00000100
00001000
,
00010000
00002000
00023000
01030000
,
10000000
00100000
10000000
00100000
10000000
00100000
10000000
00100000
,
00010000
00000000
00000000
00000000
00001000
00010000
00001000
00010000
,
00000000
00000000
00001000
00000010
00001000
00000010
00000000
00000000
,
00000011
00000000
00001001
00000000
00000000
00001100
00000000
00000000
,
00000001
00000010
00000001
00000010
00000001
00000010
00000001
00000010
,
00001000
00000000
00000000
00000000
00010000
00001000
00010000
00001000
,
00000000
00000000
00010000
00100000
00010000
00100000
00000000
00000000
,
10100000
00000000
10010000
00000000
00000000
01010000
00000000
00000000
,
10000000
00100000
01000000
00000000
00010000
00000000
00100000
00000000
,
00001000
00010000
00000100
00001000
00000001
00000000
00001000
00000000
,
00000001
00000010
00000100
00000000
00001000
00000000
00000001
00000100
,
00001000
00010000
00100000
00000000
10000000
00000000
00100000
00000000
,
00020000
00000000
00001000
00001000
00001000
00000000
00000010
00000010
00030000
00001000
00002000
00000000
00003010
00000001
00000100
00000010
,
00001000
00000000
00000000
00000100
00000000
00000000
00010100
00000000
00011000
00000000
00000000
00001000
01000000
00000000
01020000
00000000
,
00000000
00000000
10030000
00000000
01000000
00000000
00100000
00000000
01100000
00000000
00000000
10000000
00010000
00100000
01000000
10000000
,
00010000
00000000
00000000
00100000
00000000
00000000
00101000
00000000
00011000
00000000
00000000
00010000
00000010
00000000
00002010
00000000
,
00000000
00000000
00003001
00000000
00000100
00000000
00000010
00000000
00001000
00000100
00000010
00000000
00000001
00000010
00000100
00000000
,
00001000
00000000
00000000
00000010
00000000
00000000
00010010
00000000
00011000
00000000
00000000
00001000
00100000
00000000
00120000
00000000
,
00000000
00000000
10030000
00000000
00100000
00000000
01000000
00000000
01100000
00000000
00000000
10000000
00010000
01000000
00100000
10000000
,
00010000
00000000
00000000
01000000
00000000
00000000
01001000
00000000
00011000
00000000
00000000
00010000
00000100
00000000
00002100
00000000
,
00000000
00000000
00000000
00003001
00000000
00000000
00001000
00000000
00000010
00000000
00010000
00000000
00001000
00000000
00100000
00000000
00010000
00000000
10000000
00000000
01000000
00000000
00100000
00000000
,
00010000
00000000
00000000
10000000
00100000
00000000
00010000
00000000
00001000
00000000
00000010
00001000
00010000
00000000
00002000
00000000
,
00000000
00000000
00003100
00000000
00000001
00000000
00000010
00000000
00000011
00000000
00000000
00001000
00000100
00000010
00000001
00000000
,
00001000
00000000
00000000
00000001
00000100
00000000
00001000
00000000
00010000
00000000
01000000
00010000
00001000
00000000
00020000
00000000
,
00000000
00000000
00130000
00000000
10000000
00000000
01000000
00000000
10000000
01000000
00100000
00000000
00010000
00100000
00001000
00000000
,
00010000
00000000
00000010
00001000
00000100
00000000
00000010
00000000
00000001
00000100
00000000
00001000
00010000
00000000
00001000
00100000
,
00010000
00000000
01000000
00010000
00100000
00000000
01000000
00000000
10000000
00000000
00010000
00000000
00100000
00001000
00010000
00000000
,
00001000
00000100
00000001
00000100
00000000
00000000
00001000
00010000
01000000
00010000
00000000
00000000
00000000
00000000
00000000
00000000
,
00002000
00000000
00000000
00000000
00013000
00000000
00100000
20000000
00000000
00000000
00000000
00000000
31000000
00000000
00010000
00002000
,
00000000
00000000
00000000
00000000
00000000
00000000
00000000
00000000
00000000
00000000
00000000
00000000
00013000
00000000
00000000
00000000
00000000
00000000
00001000
00000000
00000000
00000200
00000000
00000000
00000000
00000000
00000000
00000000
00000000
00000000
00000000
00000000
00000000
00000000
00000000
00000000
00000301
00000000
00000000
00000000
00000000
00000000
00001000
00000000
00000000
00000000
00000020
00000000
,
00000000
00000000
00000000
00000000
00000000
00000000
00000000
00001030
00000001
00000100
00000001
00000010
00001000
00010000
01000000
10000000
,
00010000
00100000
00001000
00000010
00000100
00000001
00000100
00001000
00000002
00000000
00000013
00002000
00000000
00013000
00000000
00000000
,
00011000
00001000
00100000
00010000
00110000
10000000
00100000
01000000
,
01100000
00100000
01000000
00001000
00011000
00010000
00000100
00001000
,
00001001
00000001
00000100
00000010
00000110
00000100
00001000
00010000
,
00011000
00001000
00100000
00010000
00110000
00100000
01000000
10000000
,
00010000
01000000
00010000
00000000
01000000
00001000
01000000
00000000
,
00001000
00010000
00001000
00000000
00010000
00000100
00010000
00000000
,
00000100
00001000
00000100
00000000
00001000
00000010
00001000
00000000
,
00000010
00000100
00000010
00000000
00001000
00000000
00000100
00000000
,
00000001
00000100
00001000
00000001
00000100
00000000
00000001
00000000
,
00000010
00000000
00001000
00000000
00010000
00000000
00001000
00100000
,
00010000
00000000
01000000
00010000
00100000
00000000
01000000
00000000
,
00010000
01000000
10000000
00100000
00010000
00001000
00010000
00000000
,
00002000
00003200
00000302
00002003
00003002
00000023
00002030
00023000
00030200
00000000
00020300
00000000
00032000
00000000
02003000
00000000
03010000
00000000
00000000
00000000
10000000
00000000
00000000
00000000
00100000
00000000
00000000
00000000
00010000
00000000
00000000
00000000
,
00001000
00000000
00010000
00000100
00001000
00000000
00000001
00000000
,
00000010
00000000
00000001
00000000
00000100
00000000
00000010
00010000
,
00001000
00010000
00001000
00100000
,
00010000
01000000
00010000
01000000
00010000
00000000
10000000
00100000
,
01000000
00010000
00100000
00001000
,
00010000
00001000
00010000
00001000
00010000
00000000
00001000
00000000
,
00010000
00000100
00001000
00000000
00000001
00000010
00000100
00000000
,
00001000
00000100
00000010
00000001
00001000
00000000
00001001
00000000
,
00001000
00000100
00001000
00000000
00000100
00010000
00000100
00000000
,
00010000
00001000
00010000
00000000
00001000
00000000
01000000
00000000
,
00010000
00100000
01000000
00000000
10000000
00100000
01000000
00000000
,
00010000
00100000
00001000
00000000
00010000
00000000
00011000
00000000
,
01001000
00000000
00000000
00011000
00000000
00000000
00010100
00000000
00001100
00000000
00000001
00000000
00001001
00000000
00000000
00001010
,
00000000
00000000
00010010
00000000
00011000
00000000
00001000
00010000
00000100
00000000
00001000
00000000
00000100
00010000
00000100
00000000
,
00010000
00000000
00001000
00100000
00010000
00000000
10000000
00000000
,
01000000
00000000
10000000
00000000
00100000
00000000
01000000
00001000
,
00010000
00001000
00010000
00000100
,
00001000
00000010
00001000
00000010
00001000
00000000
00000001
00000100
,
00000010
00001000
00000100
00010000
,
00001000
00010000
00001000
00010000
00001000
00000000
00010000
00000000
,
00001000
00100000
00010000
00000000
10000000
01000000
00100000
00000000
,
00010000
00100000
01000000
10000000
00010000
00000000
10010000
00000000
,
00010000
00100000
00010000
00100000
00001000
00010000
00001000
00000000
,
00010000
00001000
00010000
00001000
00010000
00000010
00001000
00000000
,
00000001
00000100
00000010
00001000
00000100
00010000
00001000
00100000
,
00010000
10000000
01000000
00100000
00010000
01000000
00001000
00000000
,
00011000
00000000
00000000
00010010
00000000
00000000
00011000
00000000
00001000
00000000
00100000
00000000
00110000
00000000
00000000
10010000
,
00000000
00000000
11000000
00000000
01000000
00000000
00010000
00000000
00011000
00000000
00000000
00101000
00000000
00000000
00011000
00000000
,
00010000
00000100
00001000
00001000
00000001
00000001
00000100
00000100
,
00001000
00001000
00010000
00010000
00100000
00100000
10000000
10000000
,
00010000
00010000
01000000
01000000
00001000
00001000
00010000
00010000
,
00000100
00000100
00010000
00010000
00000000
00000000
00000000
00000000
,
00000000
00000000
00000000
00000000
,
00000000
00000000
00000220
00000000
,
00000000
00000000
00000000
00000000
,
00000330
00000000
00000000
00000000
,
00000000
00000000
00000000
00000000
;
#NOTES:
     dance-double:
     :
     Challenge:
     19:
     :
00000000
00000000
00000000
00000000
,
00000000
00000000
00000000
00000000
,
00000000
00000000
00000000
00000000
00000000
00000000
00000000
00000000
00000000
00000000
00000000
00000000
00000000
00000000
00000000
00010000
,
10000000
01000000
10000000
00100000
00010000
00001000
00010000
00000100
00000010
00000001
00001000
00000001
00000100
00000101
00000000
00001000
,
00000010
00000000
00000100
00000000
00000010
00000000
00001000
00000000
00000001
00000000
00000100
00000000
00001000
00000000
00010000
00000000
01000000
00000000
10000000
00000000
00100000
00000000
01000000
00000000
00001000
00010000
01000000
00010000
00001000
00000100
00000010
00000100
,
00000001
00000000
00000100
00000000
00000010
00000000
00001000
00000000
00000100
00000001
00000100
00001000
00000001
00000000
00000010
00000000
,
00001000
00010000
01000000
00010000
00001000
00010000
00100000
00000000
10000000
00000000
00010000
00000000
01000000
00100000
00010000
00000000
,
00011000
00001000
00010100
00010000
00000100
00000010
00000001
00000010
,
00000100
00001000
00000001
00001000
00000010
00000100
00001000
00010000
00001000
01000000
00001000
00010000
00100000
10000000
00010000
00000000
,
10000000
01000000
00100000
00000000
00001000
00010000
00001000
00010000
,
00000100
00001000
00000001
00000000
00000010
00000100
00000010
00000100
,
00010000
00001000
00100000
00000000
00010000
10000000
00010000
10000000
,
01000000
00010000
00001000
00000000
00000010
00000001
00000010
00000001
,
00000100
00001000
00010000
00001000
00010000
00100000
01000000
00100000
,
01000000
00010000
00100000
01000000
10000000
00010000
00100000
00001000
,
00011000
00000000
00010100
00000000
00001100
00000000
00000001
00000010
00000100
00001000
00000100
00010000
00001000
00100000
00010000
01000000
,
00100000
10000000
00100000
10000000
00010000
01000000
00001000
00000000
,
00010000
00000010
00010000
00000010
00001000
00000001
00000010
00000000
,
00000100
00001000
00000100
00001000
00000010
00010000
00001000
00000000
,
01000000
00010000
01000000
00010000
00100000
01000000
10000000
00000000
,
01000000
00010000
00001000
00000010
00001000
00010000
00100000
00010000
,
00001000
00000100
00000001
00000100
00001000
00010000
01000000
10000000
,
01000000
00010000
00001000
00010000
00001000
00000010
00000002
00000000
,
00000203
00000000
00000301
00000000
00000010
00000001
00000010
00000001
,
00001000
00000100
00010000
00000000
00001000
00100000
00001000
00100000
,
00010000
10000000
00100000
00000000
01000000
00010000
01000000
00010000
,
00100000
00001000
00010000
00000000
00000100
00001000
00000100
00001000
,
00000010
00000100
00000001
00000000
00000100
00001000
00010000
00100000
,
01000000
00010000
00001000
00000010
00000100
00001000
00010000
01000000
,
10000000
00010000
00100000
01000000
00010000
00001000
00000100
00000001
,
00001000
00020000
20030000
30010000
,
10000000
01000000
10000000
01000000
10000000
01000000
00010000
00001000
,
00011000
00000000
00000000
00000000
00010000
00000100
00010000
00000100
,
00000000
00000000
00000010
00000001
00000010
00000001
00000000
00000000
,
00000100
00000000
00001000
00010000
00000000
00001000
00000100
00000000
,
00000001
00000010
00000001
00000010
00000001
00000010
00001000
00010000
,
00011000
00000000
00000000
00000000
00001000
00100000
00001000
00100000
,
00000000
00000000
01000000
10000000
01000000
10000000
00000000
00000000
,
00100000
00000000
00010000
00001000
00000000
00010000
00100000
00000000
,
10000000
01000000
10000000
01000000
10000000
01000000
10000000
00000000
00000000
01000000
00000000
00000000
,
00100000
00010000
00100000
00010000
00100000
00010000
00100000
00000000
00000000
00001000
00000000
00000000
,
00010000
00000000
00000100
00000000
00001000
00000000
00000100
00000000
00000010
00000000
00000001
00000000
00000010
00000000
00000000
00000000
00000000
00000000
00000100
00000000
00000000
00000001
00000000
00000000
,
00000100
00000010
00001000
00010000
01000000
10000000
01000000
00000000
,
00020000
00000000
00001000
00001000
00001000
00000000
00000100
00000100
00030000
00001000
00000010
00000001
00000010
00001000
00010000
00000000
,
00011000
00000000
00000000
01010000
00000000
00000000
10100000
00000000
00010000
00100000
10000000
00100000
00010000
00000000
00210000
00000000
,
00000000
00000000
00301000
00000000
00010000
00000000
00000100
00000000
00011000
00000000
00000000
00010000
00000010
00001000
00000100
00000001
,
00000100
00000000
00000000
00001100
00000000
00000000
00000011
00000000
00000001
00000100
00001000
00000100
00000010
00000000
00001020
00000000
,
00000000
00000000
00010030
00000000
00001000
00000000
01000000
00000000
00001000
00100000
00010000
10000000
01000000
00010000
00001000
00000010
,
00000001
00000000
00000000
00001010
00000000
00000000
00010100
00000000
00000100
00010000
01000000
10000000
01000000
00010000
00002000
00000000
,
00000000
00000000
00013000
00000000
00000100
00000000
00000010
00000000
00000011
00000000
00000000
00001000
00000100
00010000
00001000
00000100
,
00000001
00000000
00000000
00000011
00000000
00000000
00001100
00000000
00000001
00000100
00001000
00010000
00100000
00000000
20000000
00000000
,
00000000
00000000
00000000
30010000
00000000
00000000
10000000
00000000
01000000
00000000
00010000
00000000
10000000
00000000
00100000
00000000
00010000
00000000
00001000
00000000
00000100
00000000
00000010
00000000
,
00000001
00000000
00000000
00001000
00000010
00000000
00000110
00000000
00000001
00000000
00000100
00001000
00010000
00000000
02100000
00000000
,
00000000
00000000
00010000
00000000
00010000
00000000
03010000
00000000
01010000
00000000
00000000
10000000
01000000
00100000
00010000
00001000
,
00000100
00000000
00000000
00000010
00000001
00000000
00000110
00000000
00001000
00000010
00000001
00000010
00001000
00000000
00021000
00000000
,
00000000
00000000
01000000
00000000
01000000
00000000
01030000
00000000
10000000
00100000
10000000
00010000
01000000
00001000
00010000
00001000
,
00010000
00000000
00001000
00000100
00000001
00000000
00001001
00000000
00000001
00000010
00000000
00001000
00000010
00000000
00000001
00000100
,
00001000
00000000
00010000
00100000
10000000
00000000
00100000
00010000
00001000
00000000
00011000
00000000
00000010
00001000
00010000
00000000
,
00001000
00000100
00000010
00000002
00000000
00000000
00000013
00000100
00001000
00010000
00100000
20000000
00000000
00000000
30000000
00000000
,
00020000
00000000
00000000
00000000
01030000
00000000
00001000
00020000
00000000
00000000
00000000
00000000
00031000
00000000
00000010
00000002
,
00000000
00000000
00000000
00000000
00001003
00000000
00000100
00020000
00000000
00000000
00000000
00000000
00031000
00000000
01000000
20000000
,
00000000
00000000
00000000
00000000
00000000
00000000
00000000
31000000
00010000
00100000
00001000
00000010
00000001
00000100
00001000
00000001
,
00000010
00001000
00100000
00010000
00001000
01000000
00010000
00000100
00000010
00001000
00000100
00010000
00000000
00001000
00000000
00000000
,
00011000
00000000
00010000
00000000
00000100
00001000
00000010
00000000
00011000
00000000
00001000
00000000
01000000
00010000
00100000
00000000
,
00011000
00000000
00010000
00000000
00000010
00001000
00000100
00000000
00011000
00000000
00001000
00000000
00100000
00010000
01000000
00000000
,
01100000
00000000
10000000
00000000
01000000
00010000
00001000
00000000
00000110
00000000
00000001
00000000
00000100
00001000
00010000
00000000
,
01100000
00000000
10000000
00000000
00100000
00010000
00001000
00000000
00000110
00000000
00000001
00000000
00000010
00001000
00010000
00000000
,
00001000
00100000
00010000
00000000
01000000
00010000
00100000
01000000
,
10000000
00010000
00100000
00000000
00001000
00010000
00000010
00001000
,
00000100
00000010
00000001
00000000
00001000
00000100
00010000
00001000
,
00010000
00100000
10000000
00000000
00100000
00010000
00001000
00000010
,
00000001
00000100
00000001
00000100
00000010
00001000
00000010
00000000
,
00010000
00001000
00010000
00001000
00100000
00010000
00100000
00000000
,
00010000
10000000
01000000
00100000
00010000
00100000
00001000
00010000
,
00000100
00001000
00000100
00000010
00000001
00000100
00000010
00001000
,
00000002
00000023
00002030
00023000
02030000
23000000
30020000
00230000
00302000
00003000
00000020
00000030
00000002
00000003
00002000
00000000
00003100
00000000
00000000
00000000
00010000
00000000
00000000
00000000
01000000
00000000
00000000
00000000
00010000
00000000
00000000
00000000
,
00001000
00000100
00000001
00000010
00001000
00000000
00010000
00000000
,
00012000
00000000
00103000
00000000
00210000
00000000
01300000
10000000
,
00100000
01000000
00001000
00010000
00001000
00000000
01000000
00000000
,
00010000
01000000
10000000
01000000
00010000
00000000
10000000
00000000
,
01000000
00010000
00001000
00000010
00000001
00000000
00001000
00000000
,
00000001
00000100
00001000
00010000
00100000
00000000
10000000
00000000
,
01000000
00100000
01000000
00100000
00010000
00100000
00001000
00010000
,
00000010
00000100
00000010
00000100
00000001
00001000
00000100
00000000
,
00000010
00000001
00000100
00000010
00001000
00000100
00010000
00000000
,
00001000
01000000
00010000
00100000
02000000
03000000
20000000
30000000
,
00010000
00100000
10000000
00100000
00010000
00000000
02010000
03000000
,
00100000
00010000
00001000
00000000
00000110
00000000
00000101
00000000
,
00001001
00000000
00000000
00001100
00000000
00000000
00010100
00000000
00010010
00000000
01001000
00000000
10010000
00000000
00000000
11000000
,
00000000
00000000
01010000
00000000
00101000
00000000
00010100
00000000
00010000
00001000
00000010
00000001
00000010
00000100
00000001
00000100
,
00001000
00000001
00000100
00001000
00010000
00000000
00100000
00000000
,
20010000
00000000
31000000
00000000
00020000
00000000
10030000
01000000
,
00010000
01000000
10000000
01000000
00100000
00000000
00101000
00000000
,
00001000
00010000
00000100
00001000
00000100
00000010
00000001
00000010
,
00000001
00001000
00000001
00001000
00000001
00000100
00000001
00000100
00000001
00001000
00000000
00000000
,
00000100
00010000
00000100
00010000
00001000
00010000
00001000
00010000
00001000
01000000
00000000
00000000
,
00010000
01000000
00010000
01000000
00010000
01000000
00010000
10000000
00010000
10000000
00000000
00000000
,
00010000
00000000
01000000
00001000
00010000
00000000
00011000
00000000
,
00010000
00001000
00010000
00001000
00010000
00000100
00010000
00000100
00001000
00000100
00000000
00000000
,
00001000
00000100
00000010
00000001
00001000
00000100
00001000
00000100
00001000
00000100
00000000
00000000
,
00010000
00001000
00010000
00001000
00100000
00010000
10000000
01000000
00100000
00010000
00100000
00001000
,
00010000
00001000
00010000
00000100
00001000
00000100
00001000
00000100
00000010
00000001
00000000
00000000
,
00000011
00000000
00000000
00001010
00000000
00000000
00001100
00000000
00000101
00000000
00000100
00001000
00010000
00000000
00000000
01010000
,
00000000
00000000
11000000
00000000
10100000
00000000
00100000
00010000
00001000
00000000
00000000
00001100
00000000
00000000
00000101
00000000
,
00000001
00000100
00001000
00010000
00001000
00000000
00100000
00000000
00100000
00000000
00001000
00000000
00001000
00000000
00000100
00000000
,
00000100
00010000
00010000
01000000
01000000
00001000
00001000
00000010
,
00000010
00000001
00000001
00001000
00001000
00010000
00010000
10000000
,
10000000
00010000
00010000
00001000
00000000
00000000
00000000
00000000
,
00000000
00000000
00000000
00000000
,
00000000
00000000
00000220
00000000
,
00000000
00000000
00000000
00000000
,
00000330
00000000
00000000
00000000
,
00000000
00000000
00000000
00000000
;
