
//----- song ID: bone -----//
#TITLE:BONE BORN;
#ARTIST:MARON (IOSYS);
#BANNER:BONE BORN.png;
#BACKGROUND:BONE BORN-bg.png;
#CDTITLE:./CDTitles/DANCERUSH STARDOM.png;
#MUSIC:BONE BORN.ogg;
#SAMPLESTART:16.889;
#SAMPLELENGTH:15;
#BPMS:0=135;
#STAGE:5;
#NOTES:
     dance-single:
     :
     Beginner:
     2:
     :
0000
0000
0000
0000
,
0000
0000
0000
0000
,
0000
0000
0000
0000
,
0000
0000
0000
0000
,
0000
0000
0000
0000
,
0000
0000
0000
0000
,
1000
0000
0000
0000
,
0100
0000
0000
0000
,
0010
0000
0000
0000
,
0000
0000
0000
0000
,
0001
0000
0000
0000
,
0100
0000
0000
0000
,
0010
0000
0000
0000
,
0010
0000
0000
0000
,
1000
0000
0000
0000
,
0010
0000
0000
0000
,
1000
0000
0000
0000
,
0000
0000
0000
0000
,
1000
0000
0000
0000
,
0010
0000
0000
0000
,
0100
0000
0000
0000
,
0100
0000
0000
0000
,
0001
0000
0000
0000
,
0100
0000
0000
0000
,
0001
0000
0000
0000
,
0000
0000
0000
0000
,
0002
0000
0000
0000
,
0003
0000
0000
0000
,
0200
0000
0000
0000
,
0300
0000
0000
0000
,
0020
0000
0000
0000
,
0030
0000
0000
0000
,
2000
0000
0000
0000
,
3000
0000
0000
0000
,
1000
0000
0000
0000
,
1000
0000
0000
0000
,
0100
0000
0000
0000
,
0000
0000
0000
0000
,
0001
0000
0001
0000
,
0010
0000
0000
0000
,
0100
0000
0100
0000
,
0010
0000
0000
0000
,
0001
0000
0100
0000
,
0010
0000
0000
0000
,
0010
0000
1000
0000
,
0010
0000
0000
0000
,
1000
0000
0000
0000
,
1000
0000
0000
0000
,
0100
0000
0100
0000
,
0010
0000
0000
0000
,
0100
0000
0000
0000
,
0100
0000
0000
0000
,
0010
0000
0010
0000
,
0001
0000
0000
0000
,
0001
0000
0000
0000
,
0000
0000
0000
0000
,
1001
0000
0000
0000
,
0001
0000
0000
0000
,
0010
0000
0000
0000
,
0000
0000
0000
0000
,
0100
0000
0100
0000
,
0010
0000
0000
0000
,
0010
0000
0010
0000
,
0100
0000
0000
0000
,
0010
0000
0000
0000
,
1001
0000
0000
0000
,
0000
0000
0000
0000
;
#NOTES:
     dance-single:
     :
     Easy:
     5:
     :
0000
0000
0000
0000
,
0000
0000
0000
0000
,
0000
0000
0000
0000
,
0000
0000
0000
0000
,
0000
0000
0000
0000
,
0000
0000
0000
0000
,
1000
0100
1000
0100
,
0010
0001
1000
0001
,
0100
0001
0100
0001
,
1000
0010
1000
0000
,
0001
0100
0001
0010
,
0100
0100
0100
0000
,
1000
0010
1000
0100
,
0010
0010
0010
0000
,
0001
0100
0010
1000
,
0100
0010
0001
0000
,
1000
0100
0010
0001
,
0100
0010
0110
0000
,
1000
0010
1000
0010
,
0100
0001
0010
0001
,
0100
0010
1000
0010
,
0100
0100
0001
0000
,
0001
0100
0001
0100
,
0010
1000
0100
1000
,
0010
0100
0001
0100
,
0010
0010
1000
0000
,
0002
0003
0200
0300
,
0010
1000
0001
0000
,
1000
0010
0100
0010
,
2000
3000
0100
0010
,
0002
0003
1000
0010
,
0100
0001
0010
0001
,
0200
0000
0000
0300
,
0020
0000
0000
0030
,
1001
0000
1001
0000
,
1000
0100
0010
0000
,
1001
0000
1001
0000
,
0001
0100
0010
0000
,
1000
0100
0110
0000
,
0001
0100
0110
0000
,
1000
0010
0110
0000
,
0001
0010
0110
0000
,
0001
1000
1001
0000
,
0100
0010
0110
0000
,
1000
0100
0010
0001
,
0000
0000
0000
0000
,
0001
0000
0010
0000
,
0100
1000
0010
0000
,
1000
0000
0100
0000
,
0010
0001
0100
0000
,
0001
0000
1000
0000
,
0100
0010
0100
0000
,
1000
0000
0001
0000
,
0100
0010
0100
0000
,
0001
1000
0001
1000
,
0002
0000
0000
0003
,
1001
0000
0000
0000
,
1000
0100
0010
0010
,
0001
0100
0001
1000
,
0100
0010
0001
0001
,
1000
0010
0100
0100
,
0001
1000
0100
0100
,
1000
0010
0100
0001
,
1000
0100
0010
0001
,
2000
0000
0000
3000
,
1001
0000
0000
0000
,
0000
0000
0000
0000
;
#NOTES:
     dance-single:
     :
     Medium:
     10:
     :
0000
0000
0000
0000
,
0000
0000
0000
0000
,
0000
0000
0000
0000
,
0000
0000
0000
0000
,
0000
0000
0000
0000
,
0000
0000
0000
0000
,
1000
0000
0100
0000
0001
0100
1000
0000
,
0001
0000
0100
0000
1000
0100
0001
0000
,
1000
0100
0010
0000
0001
0100
0010
0000
,
1000
0001
1000
0001
1000
0000
0000
0000
,
0001
0000
1010
0000
1000
0010
1000
0000
,
0001
0010
1000
0010
0001
0000
0001
0000
,
1000
0000
0011
0000
0001
0010
0001
0000
,
1000
0010
0001
0010
0001
0010
1000
0000
,
0001
0000
1100
0000
1000
0100
1000
0000
,
0001
0100
1000
0100
0001
0000
0001
0000
,
1000
0000
0101
0000
0001
0100
0001
0000
,
1000
0100
0001
0100
0001
0100
1000
0000
,
0001
0000
0110
0000
1000
1000
1000
0000
,
0001
0010
0001
0100
0001
0000
0001
0000
,
1000
0000
0110
0000
0001
0001
0001
0000
,
1000
0010
1000
0100
0010
0001
1000
0000
,
0010
0000
1001
0000
0100
0100
0100
0000
,
1000
0010
1000
0100
1000
0000
1000
0000
,
0010
0000
1001
0000
0100
0100
0100
0000
,
0001
1000
0001
1000
0002
0000
2003
0000
,
3001
0000
0100
0010
0100
0000
0000
0000
,
1000
0000
0100
0010
0100
0000
0000
0000
,
0001
0000
0010
0100
0010
0000
0000
0000
,
1000
0000
0010
0100
0010
0000
0000
0000
,
0002
0103
2000
3200
,
0320
0130
0002
2003
,
3020
0100
1000
0130
,
0200
0010
0001
0310
,
0001
0000
1100
0000
0001
0010
0001
0000
,
1000
0100
1000
0100
1000
0000
0001
0000
,
1000
0000
0101
0000
1000
0010
1000
0000
,
0001
0100
0001
0100
0000
0000
0000
0000
,
0001
0001
0001
0000
1000
1000
1000
0000
,
0010
0010
0010
0000
0100
0100
0100
0000
,
0001
0001
0001
0000
1000
1000
1000
0000
,
0010
0010
0010
0010
0000
0000
0000
0000
,
1000
0100
0010
0001
1000
0100
0010
0001
,
1000
0010
0100
0001
1000
0010
0100
0001
,
1000
0100
0001
0100
1000
0010
0001
0010
,
0000
0000
0000
0000
,
1000
0000
0000
0100
0000
0000
0010
0000
0001
1000
0000
0000
,
0001
0000
0100
0001
0000
0010
0001
0000
0000
0000
0000
0000
,
1000
0000
0000
0110
0000
0000
0001
0000
1000
0001
0000
0000
,
1000
0000
0100
1000
0000
0010
1000
0000
0000
0000
0000
0000
,
0001
0000
0000
0100
0000
0000
0010
0000
1000
0010
0000
0000
,
1000
0000
0100
0010
0000
0001
1000
0000
1000
0001
0000
0000
,
1000
0000
1000
0010
0000
0010
1000
0000
1000
0010
0000
0000
,
0100
0000
0100
0001
0000
0001
0100
0000
0100
0001
0000
0000
,
1000
0000
1000
0100
0000
0100
0010
0000
0010
0001
0000
0001
,
1000
0010
1000
0000
0001
0010
0001
0000
,
1000
0000
0000
1000
0000
0000
0001
0000
0000
0001
0000
0000
0110
0000
0000
0000
,
1000
0010
0001
0010
1000
0000
1000
0000
,
0001
0000
0100
0000
0010
1000
0100
0000
,
0010
0001
1000
0001
0100
0000
0110
0000
,
0010
1000
0010
1000
0100
0010
0100
0010
,
0001
1000
0001
0100
0010
1000
0010
0000
,
1000
0100
0001
0100
1000
0100
0010
0000
,
0001
0100
1000
0100
0001
0100
0010
0000
,
2000
0000
0000
0000
,
3001
0000
0000
0000
,
0000
0000
0000
0000
;
#NOTES:
     dance-single:
     :
     Hard:
     13:
     :
0000
0000
0000
0000
,
0000
0000
0000
0000
,
0000
0000
0000
0000
,
0000
0000
0000
0000
,
0000
0000
0000
0000
,
0000
0000
0000
0000
,
1000
0100
0001
0100
0010
0100
1000
0000
,
0001
0100
1000
0100
0010
0100
0001
0000
,
1000
0100
0010
0010
0001
0100
0010
0010
,
1000
0010
0001
0010
1000
0000
1001
0000
,
0011
0000
0101
0000
1010
0100
1100
0000
,
1010
0010
0001
0010
1010
0000
0011
0000
,
1010
0000
1100
0000
0011
0100
0101
0000
,
0011
0010
1000
0001
0100
0100
1000
1000
,
1100
0000
1010
0000
0101
0010
0011
0000
,
0101
0100
1000
0100
0101
0000
1100
0000
,
0101
0000
0011
0000
1100
0010
1010
0000
,
1000
0000
1000
0000
0001
0100
0001
0000
0010
0000
0010
0000
0100
0000
0100
0000
,
1100
0000
0011
0000
0101
0010
1010
0000
,
1100
0100
0010
0001
0101
0000
1010
0000
,
0101
0000
1010
0000
1100
0010
0011
0000
,
0101
0100
0010
1000
0010
0100
0001
0010
,
0011
0000
1100
0000
1010
0100
0101
0000
,
0011
0010
0100
1000
1010
0000
0101
0000
,
1010
0000
0101
0000
0011
0100
1100
0000
,
1000
0100
0001
0100
2000
0000
3020
0000
,
1030
0010
1000
0010
0100
0001
0010
0001
,
0100
0010
0100
0010
1000
0001
1000
1000
,
0001
0100
0001
0100
0010
1000
0100
1000
,
0010
0100
0010
0100
0001
1000
0001
0000
,
2000
0000
3010
0100
0002
0000
0013
1000
,
0010
0001
2000
0000
3100
0001
0200
0000
,
2300
0000
3010
0100
0010
0001
1000
0100
,
0020
0000
1030
0100
0001
0100
1000
0000
,
1010
0000
0011
0000
0101
1000
1100
0000
,
1010
0010
0001
0010
1010
0000
1001
0000
,
1100
0000
0101
0000
0011
1000
1010
0000
,
1100
0100
0001
0100
0000
0000
0000
0000
,
1010
0101
1010
0000
0011
1100
0011
0000
,
0101
1010
0101
0000
1100
0011
1100
0000
,
1001
0110
1001
0000
0110
1001
0110
0000
,
1010
1001
0011
0110
0000
0000
0000
0000
,
1000
0100
0010
0001
0020
0000
0000
0000
0031
0100
0010
1000
0020
0000
0000
0000
,
1030
0001
0100
0010
2000
0000
0000
0000
3001
1000
0100
0010
0002
0000
0000
0000
,
1003
0100
0010
0000
0001
0100
0010
0000
1000
0100
0010
0000
0001
0100
0010
1000
,
0000
0000
0000
0000
,
1000
0000
1000
0001
0000
0001
0010
0000
0010
0001
0000
0001
,
1000
0000
1000
0010
0000
0010
1000
0000
1000
0001
0000
0000
,
1000
0100
0010
0011
0000
0000
0001
1000
0001
0100
0000
0000
,
0001
0010
0100
1000
0001
1000
0010
0000
0010
1000
0000
0000
,
1000
0100
0010
0100
0000
0000
1000
0001
0100
0010
0000
0000
,
1000
0000
1000
0100
0000
0100
0010
0001
1000
0001
0000
0000
,
1000
0000
0001
0100
0000
0001
0010
0000
0001
1000
0000
0001
,
0100
0010
1000
0100
0010
0001
1000
0000
1000
0001
0000
0000
,
0001
0000
1000
0100
0000
1000
0010
0000
1000
0001
0000
1000
,
0100
0100
0010
0010
0001
0001
1000
1000
,
1010
0000
0000
0011
0000
0000
1100
0000
0000
0101
0000
0000
1000
0000
0010
0000
,
0001
0010
1010
0001
0100
0000
1010
0000
,
1100
0000
0011
0000
0101
0100
1010
0000
,
1001
0000
0001
0000
0100
0000
0010
0000
1000
0010
0000
0010
0000
0100
0010
0000
,
1000
0000
0100
0000
0010
0001
0010
0000
0001
0000
0100
0010
0000
0010
0100
0000
,
0001
0000
0010
0000
0100
1000
0000
0010
0000
0010
0000
0010
1000
0001
0100
0001
,
1000
0000
0001
0000
0100
0010
0000
0010
1000
0100
1000
0000
0100
0000
0010
0000
,
0001
0000
0100
0000
1000
0100
0000
0001
0000
0000
0000
0000
1000
0010
0100
0001
,
2000
0000
0000
0000
,
3001
0000
0000
0000
,
0000
0000
0000
0000
;
#NOTES:
     dance-double:
     :
     Easy:
     5:
     :
00000000
00000000
00000000
00000000
,
00000000
00000000
00000000
00000000
,
00000000
00000000
00000000
00000000
,
00000000
00000000
00000000
00000000
,
00000000
00000000
00000000
00000000
,
00000000
00000000
00000000
00000000
,
10000000
00010000
10000000
00010000
,
01000000
00001000
01000000
00000000
,
00001000
00010000
00001000
00010000
,
00000010
00001000
00000010
00000000
,
00001000
00000100
00000010
00000001
,
00001000
00000000
00001001
00000000
,
00000001
00000100
00000010
00010000
,
00001000
00000000
00011000
00000000
,
00001000
00100000
00010000
00100000
,
01000000
00000000
01100000
00000000
,
10000000
01000000
00100000
00010000
,
01000000
00000000
10010000
00000000
,
10000000
01000000
10000000
00100000
,
01000000
00010000
00100000
00000000
,
00001000
00010000
00001000
00000010
,
00000100
00000010
00000001
00000000
,
00000001
00000100
00000001
00000010
,
00000100
00001000
00000010
00000000
,
00010000
00001000
00010000
00100000
,
01000000
00100000
10000000
00000000
,
00020000
00030000
20000000
30000000
,
01000000
00100000
01000000
00000000
,
00200000
00300000
00001000
00010000
,
00002000
00003000
00000010
00000100
,
00000020
00000030
00000001
00001000
,
00000002
00000003
00000200
00000300
,
00002000
00000000
00000000
00003000
,
00020000
00000000
00000000
00030000
,
00011000
00000000
00011000
00000000
,
00001000
00100000
00001000
00000000
,
00011000
00000000
00011000
00000000
,
00010000
00000010
00010000
00000000
,
00001000
00010000
00100000
01000000
,
00100000
00010000
00001000
00000000
,
00010000
00001000
00000010
00000100
,
00000010
00001000
00010000
00000000
,
00001000
00010000
00100000
00000000
,
10000000
01000000
00010000
00000000
,
00001000
00000010
00000001
00001000
,
00000000
00000000
00000000
00000000
,
00000001
00000000
00000100
00000000
,
00001000
00010000
00001000
00000000
,
00000000
00011000
00001000
00010000
,
00100000
01000000
00100000
00000000
,
10000000
00000000
00010000
00000000
,
10000000
01000000
00100000
00000000
,
00001000
00000000
00010000
00000000
,
00000100
00001000
00000100
00000000
,
00001000
00000010
00000100
00000001
,
00002000
00000000
00000000
00003000
,
00001001
00000000
00000000
00000000
,
00000001
00000100
00000001
00000001
,
00000010
00000100
00001000
00000010
,
00000100
00001000
00000100
00000100
,
00000010
00010000
00001000
00001000
,
00100000
00001000
00010000
00010000
,
00001000
01000000
00010000
00100000
,
01000000
10000000
00010000
00000000
,
20020000
00000000
00000000
30030000
,
10010000
00000000
00000000
00000000
,
00000000
00000000
00000000
00000000
;
#NOTES:
     dance-double:
     :
     Medium:
     11:
     :
00000000
00000000
00000000
00000000
,
00000000
00000000
00000000
00000000
,
00000000
00000000
00000000
00000000
,
00000000
00000000
00000000
00000000
,
00000000
00000000
00000000
00000000
,
00000000
00000000
00000000
00000000
,
10000000
00000000
00100000
00000000
01000000
00010000
10000000
00000000
,
01000000
00000000
00010000
00000000
00001000
00010000
00001000
00000000
,
00000010
00000001
00001000
00000000
00000100
00000010
00000001
00000000
,
00000100
00001000
00010000
00001000
00010000
00000000
00000000
00000000
,
00001000
00000000
00011000
00000000
00010000
00100000
10000000
00000000
,
00010000
01000000
00100000
10000000
00100000
00000000
00100000
00000000
,
10000000
00000000
01100000
00000000
10000000
01000000
00100000
00000000
,
00001000
00010000
00100000
00010000
00001000
00100000
00001000
00000000
,
00010000
00000000
00011000
00000000
00001000
00000010
00000001
00000000
,
00001000
00000100
00000010
00000001
00000010
00000000
00000010
00000000
,
00000001
00000000
00000110
00000000
00000001
00000100
00000010
00000000
,
00010000
00001000
00000010
00001000
00010000
00000010
00010000
00000000
,
00001000
00000000
00101000
00000000
00100000
00010000
01000000
00000000
,
00100000
10000000
00100000
01000000
00010000
00100000
00001000
00000000
,
00010000
00000000
00011000
00000000
00001000
00000010
00001000
00000000
,
00010000
00100000
01000000
00010000
00100000
01000000
00010000
00001000
,
00010000
00000000
00010010
00000000
00000010
00001000
00000100
00000000
,
00000010
00000001
00000010
00000100
00001000
00000010
00010000
00000000
,
00001000
00000000
00011000
00000000
00010000
00100000
00010000
00000000
,
00001000
00000010
00000100
00001000
00000010
00000100
00001000
00000000
,
00010000
00000000
00100000
01000000
00100000
00000000
00000000
00000000
,
10000000
00000000
01000000
00100000
01000000
00000000
00000000
00000000
,
00001000
00000000
00000010
00000100
00000010
00000000
00000000
00000000
,
00000001
00000000
00000100
00000010
00000100
00000000
00000000
00000000
,
00000002
00000000
00000203
00000320
,
00002030
00023000
02030000
03200000
,
20300000
00000000
00000000
00000000
00000000
00000000
31000000
00010000
,
00002000
00000000
00000000
00003000
,
00000110
00000000
00000110
00000000
00000001
00000010
00001000
00000000
,
00010000
00100000
01000000
00100000
10000000
00000000
00000000
00000000
,
01100000
00000000
01100000
00000000
10000000
01000000
00010000
00000000
,
00001000
00000100
00000010
00000100
00000000
00000000
00000000
00000000
,
00000001
00000001
00000001
00000000
00001000
00001000
00001000
00000000
,
00000100
00000100
00000100
00000000
00010000
00010000
00010000
00000000
,
00001000
00001000
00001000
00000000
01000000
01000000
01000000
00000000
,
00100000
00100000
00100000
00100000
00000000
00000000
00000000
00000000
,
10000000
01000000
00100000
00010000
01000000
00100000
00010000
00001000
,
00000100
00000010
00001000
00000100
00000010
00000001
00001000
00000000
,
00000001
00000100
00001000
00010000
00100000
10000000
00010000
10000000
,
00000000
00000000
00000000
00000000
,
10000000
00000000
00000000
00010000
00000000
00000000
01000000
00000000
00100000
10000000
00000000
00000000
,
01000000
00000000
01000000
00100000
00000000
00100000
00001000
00000000
00000000
00010000
00000000
00000000
,
00001000
00000000
00000000
00011000
00000000
00000000
00010000
00000000
00000100
00001000
00000000
00000000
,
00000001
00000000
00000001
00000100
00000000
00000100
00000010
00000000
00000000
00001000
00000000
00000000
,
00000001
00000000
00000000
00000100
00000000
00000000
00000010
00000000
00000010
00010000
00000000
00000000
,
00001000
00000000
00001000
01000000
00000000
01000000
00010000
00000000
00000000
10010000
00000000
00000000
,
10000000
00000000
00000000
00110000
00000000
00000000
10000000
00000000
01000000
00100000
00000000
00000000
,
00001000
00000000
00001000
00010000
00000000
00010000
00000010
00000000
00000000
00001000
00000000
00000000
,
00000001
00000000
00000000
00001010
00000000
00000000
00000001
00000000
00000001
00000100
00000000
00000000
,
00000001
00000010
00000100
00000000
00001000
00000010
00010000
00000000
,
00001000
00000000
00000000
00001000
00000000
00000000
00010000
00000000
00000000
00010000
00000000
00000000
00011000
00000000
00000000
00000000
,
01000000
00000000
01100000
00000000
10000000
01000000
00100000
00000000
,
00010000
00000000
01000000
00000000
10000000
01000000
00010000
00000000
,
00100000
00001000
00100000
00001000
00020000
00000000
00000000
00000000
,
00031000
00010000
00001000
00000010
00000100
00000010
00000001
00000000
,
00001000
00000001
00000100
00001000
00010000
00001000
00000010
00000000
,
00000100
00010000
00001000
00010000
01000000
00100000
00010000
00000000
,
10000000
01000000
00010000
01000000
10000000
00000000
01000000
00100000
,
00002000
00000000
00000000
00000000
,
00013000
00000000
00000000
00000000
,
00000000
00000000
00000000
00000000
;
#NOTES:
     dance-double:
     :
     Hard:
     14:
     :
00000000
00000000
00000000
00000000
,
00000000
00000000
00000000
00000000
,
00000000
00000000
00000000
00000000
,
00000000
00000000
00000000
00000000
,
00000000
00000000
00000000
00000000
,
00000000
00000000
00000000
00000000
,
10000000
01000000
00100000
00010000
10000000
01000000
00100000
01000000
,
10000000
00100000
00010000
00001000
00000100
00000001
00001000
00000000
,
00000001
00000010
00000100
00001000
00000001
00000010
00000100
00000010
,
00000001
00000100
00001000
00010000
00001000
00000000
00011000
00000000
,
00101000
00000000
01010000
00000000
10100000
00010000
01010000
00000000
,
10000000
01000000
00010000
00001000
00011000
00000000
00011000
00000000
,
00010010
00000000
00001100
00000000
00000011
00001000
00001100
00000000
,
00000001
00000100
00001000
00010000
00011000
00000000
00011000
00000000
,
01001000
00000000
00110000
00000000
11000000
10000000
00110000
00000000
,
10000000
00100000
00010000
00001000
00011000
00000000
00011000
00000000
,
00010100
00000000
00001010
00000000
00000101
00001000
00001010
00000000
,
00000001
00000000
00000010
00000000
00001000
00010000
00001000
00000000
00010000
00000000
00010000
00000000
00100000
00000000
00100000
00000000
,
10100000
00000000
01010000
00000000
10000000
01000000
00110000
00000000
,
10000000
01000000
01100000
00001000
00011000
00000000
00000110
00000000
,
00000011
00000000
00001100
00000000
00000001
00000100
00001010
00000000
,
00000001
00000100
00000110
00010000
00011000
00100000
01100000
10000000
,
11000000
00000000
00110000
00000000
10000000
00100000
01010000
00000000
,
10000000
00100000
01100000
00001000
00011000
00000000
00000110
00000000
,
00000101
00000000
00001010
00000000
00000001
00000010
00001100
00000000
,
00000001
00000010
00001000
00010000
02000000
00000000
23000000
00000000
,
30100000
10000000
00100000
10000000
01000000
00100000
00001000
00010000
,
00001000
00000010
00001000
00000010
00000100
00001000
00000001
00000001
,
00000010
00000001
00000010
00000001
00000100
00000010
00000100
00001000
,
00010000
00100000
01000000
00100000
10000000
00010000
10000000
00000000
,
00020000
00000000
10030000
01000000
00020000
00000000
00031000
00100000
,
00002000
00000000
00003020
00000000
00000032
00000000
00000103
00000010
,
00000200
00000000
00002300
00000000
00013000
01000000
10000000
00010000
,
00200000
00000000
02300000
00000000
03010000
00001000
00010000
00000000
,
00011000
00000000
00000110
00000000
00001001
00000100
00000110
00000000
,
00001001
00000001
00000100
00001000
00010000
00000000
01100000
00000000
,
10010000
00000000
01100000
00000000
10010000
00100000
01100000
00000000
,
10010000
10000000
01000000
00010000
00000000
00000000
00000000
00000000
,
00011000
00010010
00011000
00000000
00011000
01001000
00011000
00000000
,
00011000
00010100
00011000
00000000
00011000
00101000
00011000
00000000
,
00011000
00000010
00000110
00000000
00000110
00010000
00011000
00000000
,
00011000
01000000
01100000
01100000
00000000
00000000
00000000
00000000
,
10000000
01000000
00100000
00010000
00200000
00000000
00000000
00000000
00301000
00010000
00000100
00001000
00000020
00000000
00000000
00000000
,
00001030
00000100
00000010
00000001
00000200
00000000
00000000
00000000
00000301
00001000
00000010
00000100
00000020
00000000
00000000
00000000
,
00010030
00001000
00010000
00000000
00001000
01000000
00001000
00000000
01000000
00010000
00100000
00000000
01000000
10000000
01000000
00100000
,
00000000
00000000
00000000
00000000
,
10000000
00000000
10000000
00010000
00000000
00010000
00100000
00000000
00100000
00001000
00000000
00001000
,
00010000
00000000
00010000
00000010
00000000
00000010
00001000
00000000
00001000
00000001
00000000
00000000
,
00001000
00000100
00000010
00000011
00000000
00000000
00000001
00001000
00000100
00001000
00000000
00000000
,
00000001
00000100
00000010
00001000
00000100
00010000
00001000
00000000
00000000
00011000
00000000
00000000
,
00001000
00100000
00010000
01000000
00000000
00000000
00010000
00100000
01000000
10000000
00000000
00000000
,
00010000
00000000
00010000
01000000
00000000
01000000
00001000
00010000
00001000
00010000
00000000
00000000
,
00001000
00000000
00010000
00000100
00000000
00001000
00000100
00000000
00000010
00000001
00000000
00001000
,
00000001
00000100
00000001
00001000
00000100
00001000
00000100
00000000
00000100
00010000
00000000
00000000
,
00010000
00000000
00001000
01000000
00000000
00010000
01000000
00000000
00100000
10000000
00000000
00010000
,
10000000
10000000
01000000
01000000
00010000
00010000
00001000
00001000
,
00011000
00000000
00000000
00010010
00000000
00000000
00001100
00000000
00000000
00000011
00000000
00000000
00001001
00000000
00000001
00000000
,
00000100
00000010
00011000
00001000
01000000
00000000
01100000
00000000
,
10100000
00000000
01010000
00000000
00110000
10000000
11000000
00000000
,
01100000
00000000
00100000
00000000
00001000
00000000
00000010
00000000
00000001
00001000
00000000
00001000
00000000
00000001
00000100
00000000
,
00000001
00000000
00000010
00000000
00000100
00001000
00000010
00000000
00000100
00000000
00001000
00010000
00000000
00010000
00001000
00000000
,
00010000
00000000
00100000
00000000
01000000
10000000
00000000
01000000
00000000
01000000
00000000
01000000
00010000
10000000
01000000
00100000
,
00010000
00000000
10000000
00000000
01000000
00100000
00000000
00100000
00001000
00010000
00001000
00000000
00010000
00000000
00000100
00000000
,
00001000
00000000
00000010
00000000
00000100
00001000
00000000
00000100
00000000
00000000
00000000
00000000
00000001
00000010
00000100
00001000
,
00000200
00000000
00000000
00000000
,
00000310
00000000
00000000
00000000
,
00000000
00000000
00000000
00000000
;
