
//----- song ID: ayma -----//
#TITLE:アユミ☆マジカルショータイム;
#ARTIST:キノシタ feat.音街ウナ;
#TITLETRANSLIT:Ayumi☆Magical Showtime;
#ARTISTTRANSLIT:Kinoshita feat. Otomachi Una;
#BANNER:Ayumi Magical Showtime.png;
#BACKGROUND:Ayumi Magical Showtime-bg.png;
#CDTITLE:./CDTitles/DDR A3.png;
#MUSIC:Ayumi Magical Showtime.ogg;
#SAMPLESTART:51.337;
#SAMPLELENGTH:15;
#BPMS:0=187;
#NOTES:
     dance-single:
     :
     Beginner:
     2:
     :
0000
0000
0000
0000
,
0000
0000
0000
0000
,
0000
0000
0000
0000
,
0000
0000
0000
0000
,
0000
0000
0000
0000
,
0000
0000
0000
0000
,
0001
0000
0000
0000
,
0010
0000
0000
0000
,
0001
0000
0000
0000
,
0000
0000
0000
0000
,
0100
0000
0000
0000
,
0010
0000
0000
0000
,
0100
0000
0000
0000
,
0000
0000
0000
0000
,
2000
0000
0000
0000
,
3000
0000
0000
0000
,
0200
0000
0000
0000
,
0300
0000
0000
0000
,
0020
0000
0000
0000
,
0030
0000
0000
0000
,
0002
0000
0000
0000
,
0003
0000
0000
0000
,
0001
0000
0000
0000
,
0100
0000
0000
0000
,
0010
0000
0001
0000
,
0010
0000
0000
0000
,
0100
0000
0000
0000
,
0000
0000
0000
0000
,
1000
0000
0000
0000
,
0000
0000
0000
0000
,
1000
0000
0000
0000
,
0010
0000
0000
0000
,
0100
0000
1000
0000
,
0100
0000
0000
0000
,
2000
0000
0000
0000
,
3000
0000
0000
0000
,
0002
0000
0000
0000
,
0003
0000
0000
0000
,
1001
0000
0000
0000
,
0000
0000
0000
0000
,
0001
0000
0010
0000
,
0001
0000
0000
0000
,
0100
0000
0000
0000
,
0000
0000
0000
0000
,
1000
0000
0010
0000
,
1000
0000
0000
0000
,
0100
0000
0000
0000
,
0000
0000
0000
0000
,
0001
0000
0100
0000
,
0001
0000
0000
0000
,
0010
0000
0000
0000
,
0000
0000
0000
0000
,
1000
0000
0100
0000
,
1000
0000
0000
0000
,
0010
0000
0000
0000
,
0000
0000
0000
0000
,
1001
0000
0000
0000
,
0000
0000
0000
0000
,
0001
0000
0000
0000
,
0100
0000
0000
0000
,
0010
0000
0000
0000
,
1000
0000
0000
0000
,
1000
0000
0000
0000
,
0100
0000
0000
0000
,
0010
0000
0000
0000
,
0001
0000
0000
0000
,
1001
0000
0000
0000
,
0000
0000
0000
0000
,
0001
0000
0100
0000
,
0001
0000
0000
0000
,
0010
0000
0000
0000
,
0100
0000
0000
0000
,
1000
0000
0000
0000
,
0000
0000
0000
0000
,
1000
0000
0000
0000
,
0100
0000
0000
0000
,
1000
0000
0010
0000
,
1000
0000
0000
0000
,
0100
0000
0000
0000
,
0010
0000
0000
0000
,
0001
0000
0000
0000
,
0000
0000
0000
0000
,
1001
0000
0000
0000
,
0000
0000
0000
0000
,
0001
0000
0000
0000
,
0100
0000
0000
0000
,
0001
0000
0000
0000
,
0000
0000
0000
0000
,
1000
0000
0000
0000
,
0100
0000
0000
0000
,
1000
0000
0000
0000
,
0010
0000
0010
0000
,
0000
0000
0000
0000
;
#NOTES:
     dance-single:
     :
     Easy:
     5:
     :
0000
0000
0000
0000
,
0000
0000
0000
0000
,
0000
0000
0000
0000
,
0000
0000
0000
0000
,
0000
0000
0000
0000
,
0000
0000
0000
0000
,
0001
0000
0100
0000
,
0001
1000
0001
0000
,
1000
0000
0100
0000
,
1000
0000
0000
0000
,
0001
0000
1000
0000
,
0010
0100
0010
0000
,
1000
0000
0001
0000
,
1000
0000
0000
0000
,
0002
0000
0000
0003
,
0020
0000
0000
0030
,
0200
0000
0000
0300
,
2000
0000
0000
3000
,
0001
1000
0001
0000
,
1000
0001
1000
0000
,
0010
0000
0000
0000
,
0010
0010
0010
0000
,
1000
0000
0100
0000
,
1000
0000
0100
0000
,
0010
0000
0001
0000
,
0010
0000
0001
0000
,
0100
0000
0010
0000
,
1000
0001
1000
0000
,
0100
0000
0010
0000
,
0110
0000
0000
0000
,
0002
0000
0000
0003
,
2000
0000
0000
3000
,
0020
0000
0000
0030
,
0200
0000
0000
0300
,
0000
0001
0000
1000
,
0000
0001
0000
1000
,
0001
1000
0001
0000
,
1000
0001
1000
0000
,
1001
0000
0000
0000
,
0000
0000
0000
0000
,
1000
0010
1000
0000
,
0001
0010
0001
0000
,
1000
0000
0100
0000
,
0110
0000
0000
0000
,
0001
0010
0001
0000
,
1000
0010
1000
0000
,
0001
0000
1000
0000
,
0001
0000
0000
0000
,
0001
0100
0001
0000
,
1000
0100
1000
0000
,
0001
0000
0010
0000
,
0110
0000
0000
0000
,
1000
0100
1000
0000
,
0001
0100
0001
0000
,
1000
0000
0100
0000
,
0110
0000
0000
0000
,
2002
0000
0000
0000
,
0000
0000
3003
0000
,
1000
0000
0010
0000
,
1000
0001
1000
0000
,
0100
0000
0100
0000
,
0010
0000
0000
0000
,
0001
0000
0010
0000
,
0001
1000
0001
0000
,
0100
0000
0100
0000
,
0010
0000
0000
0000
,
1001
0000
0000
0000
,
0001
1000
0001
0000
,
1000
0000
1000
0000
,
0010
0000
0000
0000
,
1000
0000
0100
0000
,
0010
0000
0001
0000
,
0100
0010
0100
0000
,
0010
0000
0000
0000
,
1000
0000
0010
0000
,
1000
0001
1000
0000
,
0010
0000
0100
0000
,
0001
0000
0000
0000
,
1000
0000
0001
0000
,
0010
0100
0010
0000
,
0001
0000
0010
0000
,
0100
0000
0000
0000
,
2002
0000
0000
0000
,
0000
0000
3003
0000
,
1000
0000
0010
0000
,
0100
0010
0100
0000
,
0001
0000
1000
0000
,
0001
0000
0000
0000
,
0001
0000
0010
0000
,
0100
0010
0100
0000
,
1000
0000
0001
0000
,
1000
0001
1000
0000
,
0000
0000
0000
0000
;
#NOTES:
     dance-single:
     :
     Medium:
     9:
     :
0000
0000
0000
0000
,
0000
0000
0000
0000
,
0000
0000
0000
0000
,
0000
0000
0000
0000
,
0000
0000
0000
0000
,
0000
0000
0000
0000
,
0001
0000
0100
0000
0020
0000
0030
0010
,
0000
1000
0010
0000
0100
0001
0100
0000
,
0001
0000
0010
0000
0200
0000
0300
0100
,
0000
1000
0100
0000
0010
0001
0000
0000
,
1000
0000
0100
0000
0020
0000
0030
0010
,
0000
0001
0010
0000
0100
1000
0100
0000
,
1100
0000
0101
0000
,
1100
0101
1001
0000
,
1000
0100
0001
0100
,
1000
0000
0010
0100
0000
0010
0100
0000
,
0001
0100
1000
0100
,
0001
0000
0010
0100
0000
0010
0100
0000
,
1000
0000
1000
0000
0100
0010
0001
0000
,
1000
0000
1000
0000
0010
0100
0001
0000
,
1001
0000
0000
0000
0000
0000
0000
0010
,
0000
0010
0000
0010
0010
0000
0000
0000
,
1000
0010
0001
0010
,
1000
0000
0100
0010
0000
0100
0010
0000
,
0001
0010
1000
0010
,
0001
0000
0100
0010
0000
0100
0010
0000
,
1000
0000
1000
0000
0010
0100
0001
0000
,
1000
0000
1000
0000
0100
0010
0001
0000
,
1000
0010
1000
0000
0001
0010
0001
0000
,
1000
0001
1001
0000
,
1000
0100
0001
0100
,
1000
0010
0100
0110
,
0001
0100
1000
0100
,
0001
0010
0100
0110
,
0000
1100
0000
0101
,
0000
0011
0000
1010
,
1000
0100
0010
0001
,
1000
0100
0010
0001
,
2002
0000
0000
0000
,
3003
0000
0000
0000
,
1000
0000
0100
0000
0010
0000
0000
0001
,
0000
1000
0100
0000
0010
0000
0000
0001
,
0000
0100
0001
0000
1000
0000
0010
0000
,
0100
0010
0110
0000
,
1000
0000
0010
0000
0001
0000
0010
1000
,
0000
0001
0100
0000
0001
0000
0000
0000
,
1000
0010
0100
0001
,
0010
0100
1001
0000
,
0001
0000
0010
0000
0100
0000
0000
1000
,
0000
0001
0010
0000
0100
0000
0000
1000
,
0000
0010
1000
0000
0001
0000
0100
0000
,
0010
0100
0110
0000
,
0001
0000
0100
0000
1000
0000
0100
0001
,
0000
1000
0010
0000
1000
0000
0000
0000
,
0001
0100
0010
1000
,
0100
0010
0001
1000
,
0001
0000
0000
0100
0000
0010
0000
2002
,
0000
0000
3003
0000
,
0001
0100
0000
0000
0010
1000
0000
0000
,
0100
0000
1000
0000
0010
0100
0010
0000
,
1000
0000
0100
0000
0001
0100
1000
0000
,
0001
0000
0100
0010
1000
0000
0000
0000
,
0001
0010
0000
0000
0100
1000
0000
0000
,
0010
0000
0100
0000
0001
1000
0001
0000
,
1000
0000
0010
0000
0001
0010
1000
0000
,
0001
1000
1001
0000
,
1001
0000
0000
0000
,
0110
0110
1001
0000
,
1000
0000
0010
0000
0100
0001
0100
0000
,
0010
1000
0001
0000
,
1000
0000
0100
0000
0010
0000
0001
1000
,
0000
0001
1000
0000
0010
0000
0000
0000
,
1000
0100
0010
0001
,
0100
0010
1001
0000
,
1000
0000
0100
0000
0010
0000
0000
0001
,
0000
1000
0100
0000
0010
0000
0000
0000
,
0001
0000
0100
0000
0010
1000
0010
0000
,
0100
0001
1000
0000
,
0001
0000
0010
0000
0100
0000
1000
0001
,
0000
1000
0001
0000
0100
0000
0000
0000
,
0001
0010
0100
1000
,
0010
0100
1001
0000
,
1001
0000
0000
0100
0000
0010
0000
2002
,
0000
0000
3003
0000
,
1000
0000
0100
0000
0010
0000
0000
0001
,
0000
1000
0001
0000
0100
0010
0100
0000
,
0001
0000
0010
0000
0100
0000
0000
1000
,
0000
0001
1000
0000
1000
0001
0000
0000
,
1000
0000
0010
0000
0100
0000
0000
0001
,
0000
1000
0001
0000
1000
0010
1000
0000
,
1010
0000
0011
0000
,
1010
0011
2002
3003
,
0000
0000
0000
0000
;
#NOTES:
     dance-single:
     :
     Hard:
     13:
     :
0000
0000
0000
0000
,
0000
0000
0000
0000
,
0000
0000
0000
0000
,
0000
0000
0000
0000
,
0000
0000
0000
0000
,
0000
0000
0000
0000
,
0001
0000
1000
0000
2002
0000
3003
1001
,
0000
0000
1000
0000
0010
0000
1000
0000
0100
0000
0010
0100
0010
0000
0000
0000
,
0001
0000
1000
0000
2002
0000
3003
1001
,
0000
0100
0010
0100
0010
0010
0000
0000
,
1000
0000
0001
0000
2002
0000
3003
1001
,
0000
0000
0001
0000
0100
0000
0001
0000
0010
0000
0100
0010
0100
0000
0000
0000
,
1000
1000
1000
0000
0001
0001
0001
0000
,
1000
0001
2002
3003
,
1000
0010
1000
0010
1000
0010
1000
0010
,
1000
0000
0100
0010
0000
0001
0000
1000
,
0001
0100
0001
0100
0001
0100
0001
0100
,
0010
0000
1000
0010
0000
0100
0000
0001
,
1000
0010
1000
0010
0000
0100
0001
0100
,
0000
0010
0100
0010
0000
1000
0001
1000
,
0001
0000
0100
1000
0000
0100
0000
0001
,
0000
1000
0000
0001
1000
0000
0000
0000
,
0001
0010
0001
0010
0001
0010
0001
0010
,
0001
0100
0010
1000
0000
0001
1000
0010
,
1000
0100
1000
0100
1000
0100
1000
0100
,
0010
0000
0001
0010
0000
0100
1000
0001
,
1000
0010
0100
0001
0000
0010
0100
1000
,
0000
0100
0010
0001
0000
1000
0001
1000
,
0001
0000
0010
1000
0000
0010
0001
0000
,
1000
0001
1001
0000
,
1000
0100
0010
0001
1000
0010
0100
0001
,
1000
0100
0010
0001
1000
0000
1001
0000
,
0001
0100
0010
1000
0001
0010
0100
1000
,
0001
0100
0010
1000
0001
0000
1001
0000
,
0000
1010
0000
0101
,
0000
0011
0000
1100
,
1010
0110
0101
1001
,
0001
1000
0001
1000
0010
0100
0010
0100
,
0002
0000
0000
0000
,
0003
0000
0000
0000
,
1100
0000
0110
0000
0011
0000
0000
1100
,
0000
1000
0100
0010
0001
0000
1000
0001
,
0000
0100
0010
0100
0001
1000
0001
1000
,
0000
1000
1010
0000
2002
0000
3003
0000
,
1001
0000
0110
0000
1001
0000
0001
0100
,
0000
0001
0010
0001
1000
0000
0100
1000
,
0000
0010
1000
0010
0100
0001
0010
0001
,
1000
0000
0001
0000
1001
1000
0010
0100
,
0101
0000
0110
0000
1010
0000
0000
0101
,
0000
0001
0100
0010
1000
0000
0001
1000
,
0000
0100
0010
0100
1000
0001
1000
0001
,
0000
0001
0011
0000
2002
0000
3003
0000
,
1001
0000
0110
0000
1001
0000
1000
0100
,
0000
1000
0010
1000
0001
0000
0000
0001
,
0010
0001
0010
0100
1000
0100
1000
0001
,
1000
0001
0110
1001
,
1000
0000
1000
0100
0000
0010
0000
2002
,
0000
0000
3003
0000
,
1000
0100
0000
0010
0001
0100
0000
0010
,
0000
0000
1000
0000
0100
0000
0010
0000
0001
0000
1000
0001
1000
0000
0000
0000
,
0001
0100
0001
0000
1000
0100
1000
0000
,
1010
0000
0010
0100
0002
0000
0003
1000
,
0001
0010
0000
0100
1000
0010
0000
0100
,
0000
0000
0001
0000
0010
0000
0100
0000
1000
0000
0001
1000
0001
0000
0000
0000
,
1000
0010
1000
0000
0001
0010
0001
0000
,
1001
0110
2002
3003
,
0101
0000
0110
0000
1010
0000
0000
1001
,
0000
0001
0100
0010
1000
0000
0000
0001
,
0000
1000
0100
0010
0001
0010
0100
1000
,
0000
1000
1010
0000
2002
0000
3003
0000
,
1001
0000
0110
0000
1001
0000
1000
0100
,
0000
0010
0001
0100
0001
0000
1000
0010
,
0000
1000
0100
0001
0100
1000
0001
0010
,
0110
0000
1001
0000
0110
1000
0001
1000
,
1100
0000
0110
0000
0011
0000
0000
1001
,
0000
1000
0100
0010
0001
0000
0000
1000
,
0000
0001
0100
0010
1000
0010
0100
0001
,
0000
0001
0011
0000
2002
0000
3003
0000
,
1001
0000
0110
0000
1001
0000
0001
0100
,
0000
0010
1000
0100
1000
0000
0000
0001
,
0010
0001
0100
1000
0100
0001
1000
0010
,
0100
0001
1001
0110
,
0001
0000
0001
0010
0000
0100
0000
2002
,
0000
0000
3003
0000
,
0100
0000
0010
0000
2002
0000
3003
1001
,
0000
0000
1000
0000
0001
0000
0010
0000
0100
0000
1000
0001
1000
0000
0000
0000
,
0010
0000
0100
0000
2002
0000
3003
1001
,
0000
0100
0010
1000
0001
0001
0000
0000
,
0100
0000
0010
0000
2002
0000
3003
1001
,
0000
0000
0001
0000
0100
0000
0010
0000
1000
0000
0001
1000
0001
0000
0000
0000
,
0100
0100
0100
0000
0010
0010
0010
0000
,
1000
0001
2002
3003
,
0000
0000
0000
0000
;
#NOTES:
     dance-double:
     :
     Easy:
     5:
     :
00000000
00000000
00000000
00000000
,
00000000
00000000
00000000
00000000
,
00000000
00000000
00000000
00000000
,
00000000
00000000
00000000
00000000
,
00000000
00000000
00000000
00000000
,
00000000
00000000
00000000
00000000
,
00000001
00000000
00000001
00000000
,
00000010
00000100
00000010
00000000
,
00000001
00000000
00001000
00000000
,
00000100
00000000
00000000
00000000
,
00001000
00000000
00001000
00000000
,
00000100
00010000
00000100
00000000
,
00010000
00000000
00001000
00000000
,
00011000
00000000
00000000
00000000
,
00002000
00000000
00000000
00003000
,
00200000
00000000
00000000
00300000
,
00020000
00000000
00000000
00030000
,
02000000
00000000
00000000
03000000
,
00100000
01000000
00100000
00000000
,
10000000
00010000
10000000
00000000
,
00100000
00000000
00000000
00000000
,
00100000
00100000
00100000
00000000
,
10000000
00000000
01000000
00000000
,
10000000
00000000
00010000
00000000
,
00100000
00000000
00001000
00000000
,
00100000
00000000
00001000
00000000
,
00010000
00000000
00010000
00000000
,
00000100
00000000
00000100
00000000
,
00001000
00000000
00000010
00000000
,
00000110
00000000
00000000
00000000
,
00000002
00000000
00000000
00000003
,
00002000
00000000
00000000
00003000
,
00000200
00000000
00000000
00000300
,
00020000
00000000
00000000
00030000
,
00000000
00001000
00000000
00010000
,
00000000
00001000
00000000
00010000
,
00001000
00001000
00001000
00000000
,
00010000
00010000
00010000
00000000
,
00011000
00000000
00000000
00000000
,
00000000
00000000
00000000
00000000
,
00001000
00100000
00001000
00000000
,
01000000
00010000
01000000
00000000
,
00100000
00000000
10000000
00000000
,
10010000
00000000
00000000
00000000
,
10000000
01000000
10000000
00000000
,
00010000
00100000
00010000
00000000
,
01000000
00000000
00001000
00000000
,
00011000
00000000
00000000
00000000
,
00010000
00000010
00010000
00000000
,
00000100
00001000
00000100
00000000
,
00000010
00000000
00000001
00000000
,
00001001
00000000
00000000
00000000
,
00000001
00000100
00000001
00000000
,
00001000
00000010
00001000
00000000
,
00000100
00000000
00010000
00000000
,
00001000
00000000
00010000
00000000
,
00022000
00000000
00000000
00000000
,
00000000
00000000
00033000
00000000
,
00001000
00000000
00010000
00000000
,
00001000
00000000
01000000
00000000
,
00010000
00000000
00010000
00000000
,
00100000
00000000
00000000
00000000
,
00010000
00000000
10000000
00000000
,
01000000
00000000
10000000
00000000
,
00010000
00000000
00100000
00000000
,
00001000
00000000
00000000
00000000
,
00011000
00000000
00000000
00000000
,
00010000
00001000
00010000
00000000
,
00001000
00000000
00000010
00000000
,
00000001
00000000
00000000
00000000
,
00000001
00000000
00000100
00000000
,
00000010
00000000
00001000
00000000
,
00000100
00010000
00000100
00000000
,
00010000
00000000
00000000
00000000
,
00001000
00000000
01000000
00000000
,
00010000
01000000
00010000
00000000
,
00100000
00000000
01000000
00000000
,
10000000
00000000
00000000
00000000
,
10000000
00000000
00100000
00000000
,
01000000
00010000
01000000
00000000
,
00010000
00000000
00100000
00000000
,
00001000
00000000
00000000
00000000
,
00022000
00000000
00000000
00000000
,
00000000
00000000
00033000
00000000
,
00010000
00000000
00000100
00000000
,
00001000
00000000
00000100
00000000
,
00000010
00000000
00000001
00000000
,
00001000
00000000
00000000
00000000
,
00000001
00000000
00000100
00000000
,
00000010
00000000
00010000
00000000
,
00000100
00000000
00010000
00000000
,
00001000
00010000
00001000
00000000
,
00000000
00000000
00000000
00000000
;
#NOTES:
     dance-double:
     :
     Medium:
     9:
     :
00000000
00000000
00000000
00000000
,
00000000
00000000
00000000
00000000
,
00000000
00000000
00000000
00000000
,
00000000
00000000
00000000
00000000
,
00000000
00000000
00000000
00000000
,
00000000
00000000
00000000
00000000
,
00001000
00000000
00010000
00000000
00002000
00000000
00003000
00001000
,
00000000
00100000
00010000
00000000
01000000
00100000
01000000
00000000
,
00010000
00000000
10000000
00000000
00020000
00000000
00030000
00010000
,
00000000
01000000
00001000
00000000
00010000
00001000
00000000
00000000
,
00010000
00000000
00001000
00000000
00020000
00000000
00030000
00010000
,
00000000
00000010
00001000
00000000
00000100
00000010
00000100
00000000
,
00001100
00000000
00000101
00000000
,
00001100
00000101
00001001
00000000
,
00000001
00000100
00000001
00000100
,
00001000
00000000
00010000
00001000
00000000
00010000
00001000
00000000
,
00010000
00100000
00010000
00100000
,
10000000
00000000
00010000
10000000
00000000
00010000
10000000
00000000
,
01000000
00000000
01000000
00000000
00100000
00001000
00100000
00000000
,
00001000
00000000
00001000
00000000
00010000
00000100
00010000
00000000
,
00000100
00000000
00000000
00000000
00000000
00000000
00000000
00000010
,
00000000
00000010
00000000
00000010
00000010
00000000
00000000
00000000
,
00000001
00000010
00000001
00000010
,
00001000
00000000
00010000
00001000
00000000
00010000
00001000
00000000
,
00010000
01000000
00010000
01000000
,
10000000
00000000
00100000
01000000
00000000
00100000
01000000
00000000
,
00010000
00000000
00010000
00000000
00100000
00001000
00010000
00000000
,
00000010
00000000
00000010
00000000
00010000
00001000
00010000
00000000
,
00000100
00001000
00000010
00000000
00000100
00000001
00000010
00000000
,
00000100
00000010
00000110
00000000
,
00000001
00000100
00001000
00010000
,
00100000
10000000
00010000
10010000
,
10000000
01000000
00010000
00001000
,
00000010
00000001
00001000
00001001
,
00000000
00000110
00000000
00011000
,
00000000
00011000
00000000
01100000
,
10000000
01000000
00100000
00010000
,
00001000
00000100
00000010
00000001
,
00002002
00000000
00000000
00000000
,
00003003
00000000
00000000
00000000
,
00000001
00000000
00000100
00000000
00000010
00000000
00000000
00001000
,
00000000
00000001
00000100
00000000
00000010
00000000
00000000
00010000
,
00000000
00001000
00010000
00000000
01000000
00000000
00100000
00000000
,
01000000
01000000
01100000
00000000
,
10000000
00000000
01000000
00000000
00010000
00000000
00001000
00100000
,
00000000
00001000
00010000
00000000
00000100
00000000
00000000
00000000
,
00001000
00000010
00000001
00000010
,
00001000
00000001
00001001
00000000
,
00000001
00000000
00000010
00000000
00000100
00000000
00000000
00001000
,
00000000
00000001
00000010
00000000
00000100
00000000
00000000
00010000
,
00000000
00001000
00010000
00000000
00100000
00000000
01000000
00000000
,
00100000
00100000
01100000
00000000
,
10000000
00000000
00100000
00000000
00010000
00000000
00001000
01000000
,
00000000
00001000
00010000
00000000
00000010
00000000
00000000
00000000
,
00001000
00000100
00000001
00000100
,
00001000
00000010
00010000
00001000
,
00010000
00000000
00000000
00001000
00000000
00001000
00000000
00022000
,
00000000
00000000
00033000
00000000
,
00010000
00001000
00000000
00000000
01000000
00010000
00000000
00000000
,
10000000
00000000
00100000
00000000
01000000
00010000
01000000
00000000
,
00100000
00000000
10000000
00000000
00010000
01000000
10000000
00000000
,
01000000
00000000
00010000
01000000
00001000
00000000
00000000
00000000
,
00001000
00010000
00000000
00000000
00000100
00001000
00000000
00000000
,
00000001
00000000
00000010
00000000
00000100
00001000
00000100
00000000
,
00000010
00000000
00000001
00000000
00000100
00001000
00010000
00000000
,
00001000
00010000
00011000
00000000
,
00011000
00000000
00000000
00000000
,
01100000
01100000
10010000
00000000
,
10000000
00000000
01000000
00000000
00100000
00010000
00100000
00000000
,
00001000
00010000
00001000
00000000
,
00010000
00000000
00001000
00000000
00000010
00000000
00000001
00001000
,
00000000
00000001
00001000
00000000
00000010
00000000
00000000
00000000
,
00001000
00000100
00000010
00000001
,
00000100
00001000
00010000
00000000
,
00001000
00000000
00010000
00000000
00100000
00000000
00000000
01000000
,
00000000
00001000
00010000
00000000
00100000
00000000
00000000
00000000
,
10000000
00000000
01000000
00000000
00100000
00010000
00100000
00000000
,
00001000
00010000
00001000
00000000
,
00010000
00000000
00000100
00000000
00001000
00000000
00000010
00000100
,
00000000
00000010
00000100
00000000
00000001
00000000
00000000
00000000
,
00000001
00000100
00000010
00001000
,
00010000
01000000
00100000
10000000
,
00010000
00000000
00000000
10000000
00000000
00010000
00000000
20020000
,
00000000
00000000
30030000
00000000
,
10000000
00000000
00100000
00000000
01000000
00000000
00000000
00010000
,
00000000
00100000
00001000
00000000
00010000
00001000
00010000
00000000
,
00000100
00000000
00001000
00000000
00000010
00000000
00000000
00000100
,
00000000
00000010
00001000
00000000
00001000
00000001
00000000
00000000
,
00000010
00000000
00000001
00000000
00000100
00000000
00000000
00000010
,
00000000
00001000
00000010
00000000
00010000
00001000
00010000
00000000
,
00011000
00000000
01010000
00000000
,
11000000
01010000
20020000
30030000
,
00000000
00000000
00000000
00000000
;
#NOTES:
     dance-double:
     :
     Hard:
     13:
     :
00000000
00000000
00000000
00000000
,
00000000
00000000
00000000
00000000
,
00000000
00000000
00000000
00000000
,
00000000
00000000
00000000
00000000
,
00000000
00000000
00000000
00000000
,
00000000
00000000
00000000
00000000
,
00001000
00000000
00010000
00000000
00022000
00000000
00033000
00011000
,
00000000
00001000
00010000
00100000
01000000
00100000
00010000
00001000
,
00010000
00000000
00001000
00000000
00022000
00000000
00033000
00011000
,
00000000
00010000
01000000
00100000
00001000
00010000
00000000
00000000
,
00010000
00000000
00001000
00000000
00022000
00000000
00033000
00011000
,
00000000
00010000
00001000
00000010
00000100
00000010
00001000
00000000
,
00010000
00010000
00010000
00000000
00001000
00001000
00001000
00000000
,
00010000
00001000
00022000
00033000
,
01000000
00001000
01000000
00001000
00100000
00010000
00100000
00010000
,
00100000
00000000
01000000
10000000
00000000
00100000
00000000
01000000
,
00010000
01000000
00010000
01000000
00001000
00100000
00001000
00100000
,
00001000
00000000
00010000
00001000
00000000
00000010
00000000
00000001
,
00001000
00000010
00001000
00000010
00000000
00000100
00000010
00000100
,
00000000
00001000
00010000
00001000
00000000
01000000
00100000
01000000
,
00100000
00000000
10000000
01000000
00000000
00010000
00000000
01000000
,
00000000
01000000
00000000
01000000
01000000
00000000
00000000
00000000
,
10000000
01000000
10000000
01000000
00100000
00010000
00100000
00010000
,
00100000
00001000
00010000
00001000
00000000
00001000
00010000
00000000
,
00000100
00001000
00000100
00001000
00000001
00000010
00000001
00000010
,
00000001
00000000
00001000
00000100
00000000
00001000
00000001
00000000
,
00000010
00000001
00000100
00000010
00000000
00001000
00000010
00010000
,
00000000
01000000
10000000
00010000
00000000
10000000
00100000
10000000
,
01000000
00000000
00100000
00001000
00000000
00001000
00010000
00000000
,
00011000
00001000
00011000
00000000
,
00010000
00001000
00010000
00001000
00000010
00000100
00000010
00000100
,
00001000
00000001
00001000
00000001
00001000
00000000
00001001
00000000
,
00000001
00000100
00000001
00000100
00001000
00010000
00001000
00010000
,
00000010
00001000
00000010
00010000
00001000
00000000
00011000
00000000
,
00000000
00110000
00000000
01010000
,
00000000
00001100
00000000
00001010
,
00000001
00000100
00001000
00000000
00010000
00100000
10000000
00000000
,
00100000
01000000
00100000
01000000
00100000
01000000
00100000
01000000
,
00200000
00000000
00000000
00000000
,
00300000
00000000
00000000
00000000
,
11000000
00000000
01100000
00000000
00110000
00000000
00000000
11000000
,
00000000
10000000
01000000
00100000
00010000
00000000
10000000
00010000
,
00000000
01000000
00010000
01000000
00010000
00100000
00001000
00010000
,
00000000
00010000
00001000
00000000
00022000
00000000
00033000
00000000
,
00001000
00000000
01000000
00000000
01010000
00000000
00010000
00100000
,
00000000
00100000
00001000
00010000
00000010
00000000
00001000
00000100
,
00000000
00000100
00010000
00001000
00010000
00000010
00001000
00000100
,
00000010
00000000
00000001
00000000
00001000
00000001
00001000
00000000
,
00000101
00000000
00000110
00000000
00001010
00000000
00000000
00000101
,
00000000
00000001
00000100
00000010
00001000
00000000
00000001
00001000
,
00000000
00000100
00001000
00000100
00001000
00000010
00010000
00001000
,
00000000
00001000
00010000
00000000
00022000
00000000
00033000
00000000
,
00010000
00000000
00000100
00000000
00001100
00000000
00001000
00000010
,
00000000
00000010
00010000
00001000
01000000
00000000
00000000
00010000
,
01000000
00010000
01000000
00001000
00010000
00001000
00100000
00010000
,
00100000
01000000
01100000
10010000
,
10000000
00000000
10000000
01000000
00000000
00010000
00000000
00022000
,
00000000
00000000
00033000
00000000
,
00010000
00001000
00000000
00000010
00000001
00000010
00000000
00001000
,
00000000
00010000
00001000
00010000
00000100
00001000
00000010
00000000
,
00000100
00000001
00000010
00000100
00001000
00000010
00000100
00001000
,
00020000
00000000
00030000
00001000
00002000
00000000
00003000
00000000
,
00001000
00010000
00000000
00100000
10000000
00100000
00000000
00010000
,
00000000
00001000
00010000
00001000
01000000
00010000
00100000
00000000
,
01000000
10000000
00100000
01000000
00010000
00100000
01000000
00010000
,
00001000
00010000
00022000
00033000
,
00011000
00000000
00001010
00000000
00001100
00000000
00000000
00011000
,
00000000
00010000
00001000
00000010
00000001
00000000
00000000
00000001
,
00000000
00000100
00000010
00000100
00001000
00010000
00000100
00010000
,
00000000
00001000
00010000
00000000
00022000
00000000
00033000
00000000
,
00011000
00000000
00001100
00000000
00001010
00000000
00000010
00010000
,
00000000
00001000
00010000
00001000
00010000
00000000
00001000
00100000
,
00000000
00010000
01000000
00010000
00100000
01000000
10000000
01000000
,
00010000
00000000
00011000
00000000
00001000
00010000
00001000
00000000
,
00011000
00000000
00110000
00000000
01010000
00000000
00000000
00011000
,
00000000
00001000
00010000
00100000
10000000
00000000
00000000
10000000
,
00000000
01000000
00100000
01000000
00010000
00001000
01000000
00001000
,
00000000
00010000
00001000
00000000
00022000
00000000
00033000
00000000
,
00011000
00000000
01010000
00000000
00110000
00000000
00100000
00001000
,
00000000
00010000
00001000
00010000
00001000
00000000
00000000
00010000
,
00000010
00001000
00000100
00001000
00000010
00000100
00000001
00000100
,
00001000
00010000
00100000
10000000
,
01000000
00000000
01000000
00100000
00000000
00001000
00000000
00022000
,
00000000
00000000
00033000
00000000
,
00000100
00000000
00000010
00000000
00000220
00000000
00000330
00000110
,
00000000
00000001
00000010
00000100
00001000
00000010
00000100
00000000
,
00000010
00000000
00010000
00000000
00022000
00000000
00033000
00011000
,
00000000
00001000
00010000
01000000
10000000
00010000
00000000
00000000
,
01000000
00000000
00100000
00000000
02200000
00000000
03300000
01100000
,
00000000
10000000
01000000
00100000
00010000
01000000
00001000
00000000
,
00010000
00010000
00010000
00000000
00001000
00001000
00001000
00000000
,
00010000
00001000
00022000
00033000
,
00000000
00000000
00000000
00000000
;
