
//----- song ID: awwi -----//
#TITLE:Awakening Wings;
#ARTIST:伊達朱里紗;
#ARTISTTRANSLIT:Arisa Date;
#BANNER:Awakening Wings.png;
#BACKGROUND:Awakening Wings-bg.png;
#CDTITLE:./CDTitles/DDR A3.png;
#MUSIC:Awakening Wings.ogg;
#SAMPLESTART:56.211;
#SAMPLELENGTH:15;
#BPMS:0=190;
#STAGE:1;
#NOTES:
     dance-single:
     :
     Beginner:
     2:
     :
0000
0000
0000
0000
,
0000
0000
0000
0000
,
0000
0000
0000
0000
,
0000
0000
0000
0000
,
0000
0000
0000
0000
,
0000
0000
0000
0000
,
0000
0000
0000
0000
,
0000
0000
0000
0000
,
0000
0000
0000
0000
,
1000
0000
0000
0000
,
0001
0000
0000
0000
,
1000
0000
1000
0000
,
0001
0000
0000
0000
,
1000
0000
0000
0000
,
0001
0000
0000
0000
,
0010
0000
0000
0000
,
0000
0000
0000
0000
,
0001
0000
0001
0000
,
1000
0000
0000
0000
,
0001
0000
0000
0000
,
1000
0000
0000
0000
,
1001
0000
0000
0000
,
0000
0000
0000
0000
,
0010
0000
0000
0000
,
0010
0000
0000
0000
,
0100
0000
0000
0000
,
0100
0000
0000
0000
,
0010
0000
0010
0000
,
0100
0000
0000
0000
,
0100
0000
0100
0000
,
0010
0000
0000
0000
,
0001
0000
0000
0000
,
0001
0000
0000
0000
,
1000
0000
0001
0000
,
0100
0000
0000
0000
,
0001
0000
0000
0000
,
1000
0000
0000
0000
,
0010
0000
0010
0000
,
0100
0000
0000
0000
,
1000
0000
1000
0000
,
1000
0000
0000
0000
,
0001
0000
0001
0000
,
0001
0000
0000
0000
,
1001
0000
0000
0000
,
0000
0000
0000
0000
,
0001
0000
0001
0000
,
1000
0000
0000
0000
,
0001
0000
0001
0000
,
0100
0000
0000
0000
,
0001
0000
0001
0000
,
0010
0000
0000
0000
,
0100
0000
0010
0000
,
0000
0000
0000
0000
,
0001
0000
1000
0000
,
0001
0000
0000
0000
,
1000
0000
0001
0000
,
0100
0000
0000
0000
,
0001
0001
0001
0000
,
0001
0000
0000
0000
,
0010
0000
0010
0000
,
0100
0000
0000
0000
,
0100
0000
0100
0000
,
0010
0000
0000
0000
,
0010
0000
0001
0000
,
0100
0000
0000
0000
,
1000
0000
0001
0000
,
0010
0000
0000
0000
,
0001
0000
1000
0000
,
1001
0000
0000
0000
,
0000
0000
0000
0000
;
#NOTES:
     dance-single:
     :
     Easy:
     5:
     :
0000
0000
0000
0000
,
0000
0000
0000
0000
,
0000
0000
0000
0000
,
0000
0000
0000
0000
,
0000
0000
0000
0000
,
1000
0000
0000
0000
,
0001
0000
0000
0000
,
0001
0000
0000
0000
,
1000
0000
0000
0000
,
1000
0000
1000
0000
,
0010
0000
0000
0000
,
0001
0000
0001
0000
,
0100
0000
0000
0000
,
1000
0000
0100
0000
,
0001
0000
0100
0000
,
2000
0000
0020
0000
,
0000
0000
3030
0000
,
0010
0000
1000
0000
,
1000
0000
0000
0000
,
0001
0000
0001
0000
,
0100
0000
0000
0000
,
0010
0000
1000
0000
,
0100
0100
0100
0000
,
0010
0000
0001
0000
,
0001
0000
0000
0000
,
0001
0000
0100
0000
,
1000
0000
0000
0000
,
0001
0000
0100
0000
,
1000
0000
0100
0000
,
0001
0000
0010
0000
,
1000
0000
0000
0000
,
0001
0000
0001
0000
,
0001
0000
0001
0000
,
1000
0000
0100
0000
,
0001
0000
0000
0000
,
1000
0000
1000
0000
,
1000
0000
1000
0000
,
0010
0000
0001
0000
,
0100
0000
1000
0000
,
0001
0001
0001
0000
,
0001
1000
0001
0000
,
1000
1000
1000
0000
,
1000
0001
1000
0000
,
0010
0010
0010
0010
,
0100
0100
0000
0000
,
0001
0000
0001
0000
,
0010
0000
0000
0000
,
1000
0000
1000
0000
,
0100
0000
0000
0000
,
0001
0000
0100
0000
,
1000
0000
0100
0000
,
0002
0000
0020
0000
,
0000
0000
0033
0000
,
0010
0010
0010
0000
,
0001
0000
0000
0000
,
1000
1000
1000
0000
,
0100
0000
0000
0000
,
0010
0010
0001
0000
,
0100
0100
0100
0000
,
0010
0000
1000
0000
,
0001
0000
0000
0000
,
1000
0000
0100
0000
,
0001
0000
0000
0000
,
1000
0000
0100
0000
,
0001
0000
0100
0000
,
1000
0000
0010
0000
,
0010
0000
0000
0000
,
1000
0001
1000
0000
0000
0001
0000
0000
,
0000
1001
0000
0000
,
0000
0000
0000
0000
;
#NOTES:
     dance-single:
     :
     Medium:
     10:
     :
0000
0000
0000
0000
,
0000
0000
0000
0000
,
0000
0000
0000
0000
,
0000
0000
0000
0000
,
0000
0000
0000
0000
,
1000
0000
0100
0000
,
0010
0000
0001
0000
,
0100
0000
0010
0000
,
1000
0001
1000
0001
0000
0000
0000
0000
,
1000
0010
1000
0100
,
1000
0000
1000
0000
0001
0100
0010
0000
,
1000
0000
0010
0000
1000
0100
0010
0000
,
0001
0000
0001
0000
1000
0100
0010
0100
,
2000
0000
0000
0000
0000
3000
0100
0020
,
0000
0000
0000
0030
,
0110
0000
0000
2002
0000
0000
0000
0000
,
0000
0000
0000
3003
,
0001
0100
0010
1000
,
0001
0000
0001
0000
1000
0010
0100
0000
,
0001
0000
0100
0000
0001
0010
0100
0000
,
1000
0000
1000
0000
0001
0010
0001
0010
,
0200
0000
0300
1001
,
0000
0000
0001
0100
0000
0101
0000
0000
,
1000
0010
1000
0010
,
0100
0001
1000
0000
1000
0001
0010
0000
,
0001
0010
0001
0010
,
0100
1000
0001
0000
0001
1000
0010
0000
,
1000
0100
0001
0100
,
0010
0100
1000
0000
0010
0100
1000
0000
,
0001
0100
1000
0100
,
0010
0100
0001
0000
0010
0100
0001
0000
,
2000
0000
3100
0100
,
0020
0000
0031
0001
,
1000
0100
1000
0000
0010
0000
0100
0000
,
0001
0100
0001
0000
0010
0000
0100
0000
,
0020
0000
0031
0001
,
2000
0000
3100
0100
,
0002
0000
0013
0010
,
0200
0000
0000
0000
1000
0300
1000
0000
,
0001
0100
0001
0100
0001
0000
0000
0000
,
1000
0010
1000
0010
1000
0000
0000
0000
,
0001
0000
0100
0000
0001
0100
0010
1000
,
0001
0000
0110
0000
,
0001
0001
1000
1000
,
0001
0010
0100
0000
0000
0000
0000
0000
,
0001
0010
1000
0010
,
0001
0000
0001
0000
1000
0100
0010
0000
,
1000
0000
0010
0000
1000
0100
0010
0000
,
0010
0000
0010
0000
0001
0100
0010
0100
,
0002
0000
0000
0000
0000
0003
0010
0200
,
0000
0000
0000
0300
,
1100
0000
0000
1020
0000
0000
0200
0030
,
0000
0002
0000
0000
0000
0000
0303
0000
,
1000
0100
0001
0100
,
1000
0000
1000
0000
0001
0100
0010
0000
,
0001
0000
0001
0000
0100
0001
0010
0000
,
0001
0000
1000
0000
0010
1000
0100
0000
,
0011
0000
0001
0010
0000
0000
0100
1000
,
0000
0000
1100
0000
1000
0100
0000
0000
,
0001
0010
0001
0010
,
0100
1000
0001
0000
0001
1000
0010
0000
,
1000
0010
1000
0010
,
1000
0001
0010
0000
1000
0001
0010
0001
,
1000
0010
1000
0010
,
1000
0001
0010
0000
1000
0001
0010
0000
,
0001
0010
0001
0010
,
0001
1000
0010
0000
0001
1000
0010
0000
,
1000
0001
1000
0010
0000
0110
0000
0110
,
0000
0000
2002
0000
0000
0000
0000
3003
,
0000
0000
0000
0000
;
#NOTES:
     dance-single:
     :
     Hard:
     11:
     :
0000
0000
0000
0000
,
0000
0000
0000
0000
,
0000
0000
0000
0000
,
0000
0000
0000
0000
,
0000
0000
0000
0000
,
1000
0000
0000
0001
0000
0000
0010
0000
0000
0000
0000
0000
0000
0000
0000
0000
,
0001
0000
0000
0010
0000
0000
0100
0000
0000
1000
0000
0000
0000
0000
0000
0000
,
0001
0000
0000
1000
0000
0000
0010
0000
0000
0000
0000
0000
0000
0000
0000
0000
,
0000
0000
0000
0000
1000
0100
0010
0001
,
0000
1000
0010
1000
0001
0000
1000
0100
,
0000
1001
0000
0000
0001
0100
0010
1000
,
0000
0001
0010
0001
1000
0000
0010
0200
,
0000
0301
0000
0000
1000
0100
0010
0001
,
0000
1000
0010
0100
0001
0000
0010
0100
,
0000
0000
1000
0000
0001
0100
0000
0000
,
0002
0000
0000
0100
0000
0000
0010
0000
,
0000
1003
0000
0000
0001
0100
0010
1000
,
0000
0001
0010
0100
1000
0000
0001
0100
,
0000
1010
0000
0000
1000
0100
0010
0001
,
0000
1000
0010
0100
0010
0000
1000
0100
,
0000
0010
0000
0001
0000
0100
0000
0000
,
0010
0000
1000
0000
1000
0001
0010
0100
,
0000
0000
1000
0000
0010
0100
0000
0000
,
0001
1000
0001
1000
0000
0100
0000
0010
,
0000
0001
0010
0001
0000
1000
0100
0000
,
1000
0001
1000
0001
0000
0100
0000
0010
,
1000
0001
1000
0010
0000
0100
0001
0000
,
0010
0100
0010
0100
0000
1000
0000
0010
,
0000
0100
0001
0100
0000
0001
1000
0000
,
0010
0100
0010
0100
0000
0001
0000
1000
,
0100
0010
0100
1000
0000
0001
0100
0000
,
0001
0000
0001
0000
0010
0100
1000
0000
,
1000
0000
0010
0100
0001
0000
1000
0000
,
0101
0000
0001
1000
0001
0000
0001
0000
,
1000
0000
1000
0100
0010
0000
0001
0000
,
1000
0000
0000
0000
1000
0000
0000
0001
0000
0000
0100
0000
0001
0000
0000
0000
,
0010
0000
0000
0000
0001
0000
0000
0010
0000
0000
0100
0000
1000
0000
0000
0000
,
0001
0000
0000
0000
0001
0000
0000
1000
0000
0000
0001
0000
0100
0000
0010
0000
,
0000
1000
0001
0000
1000
0100
0010
0000
,
0001
0000
0000
0000
1000
0000
0000
0100
0000
0000
1000
0000
0001
0000
0100
0000
,
0000
0001
0100
0000
0001
1000
0100
0000
,
1000
0001
0100
0000
0010
0000
0100
0000
,
0001
1000
0100
0010
0001
1000
0100
0020
,
0000
0000
0000
0000
0000
0030
0000
1001
,
0000
0001
1000
0000
0001
0100
0001
0100
,
0000
0010
0100
0010
0100
0000
1000
0100
,
0000
0110
0000
0000
1000
0001
1000
0100
,
0000
1000
0100
1000
0100
0000
0001
0200
,
0000
1300
0000
0000
0001
0100
0010
0100
,
0000
0010
0100
1000
0100
0000
0010
1000
,
0000
0000
0001
0000
0010
0100
0000
0000
,
2000
0000
3100
0020
0000
0130
0002
0000
,
0103
0020
0000
0130
1000
0001
1000
0100
,
0000
1000
0010
0100
0001
0000
1000
0100
,
0000
0001
0100
0010
0000
0000
0000
0110
,
0000
0010
0000
1001
0000
0100
0000
1001
,
0000
0000
0000
0000
1000
0100
0010
0001
,
0100
0000
1000
0100
0000
0001
0100
0010
,
0000
0000
1010
0000
0010
0100
0000
0000
,
0001
0100
0001
0100
0000
1000
0000
0100
,
0000
0001
0010
0001
0000
0100
0001
0000
,
0010
0100
0010
0100
0000
1001
0000
0001
,
0100
0010
0100
1000
0000
0100
0010
0000
,
1000
0100
1000
0100
0000
0001
0000
0100
,
0000
1000
0010
1000
0000
0100
1000
0000
,
0010
0100
0010
0100
0000
1001
0000
1000
,
0100
0010
0100
0001
0000
0100
1000
0000
,
0001
1000
0010
0100
0000
1001
0000
1100
,
0000
0001
0020
0000
0000
0000
0000
0000
,
0000
0000
0000
0000
,
0030
0000
0000
0000
,
0000
0000
0000
0000
;
#NOTES:
     dance-double:
     :
     Easy:
     5:
     :
00000000
00000000
00000000
00000000
,
00000000
00000000
00000000
00000000
,
00000000
00000000
00000000
00000000
,
00000000
00000000
00000000
00000000
,
00000000
00000000
00000000
00000000
,
00010000
00000000
00000000
00000000
,
01000000
00000000
00000000
00000000
,
00001000
00000000
00000000
00000000
,
00000100
00000000
00000000
00000000
,
00001000
00000000
00010000
00000000
,
00100000
00000000
00000000
00000000
,
10000000
00000000
01000000
00000000
,
00010000
00000000
00000000
00000000
,
00001000
00000000
00010000
00000000
,
01000000
00000000
10000000
00000000
,
00020000
00000000
00200000
00000000
,
00000000
00000000
00330000
00000000
,
00001000
00000000
00001000
00000000
,
00000010
00000000
00000000
00000000
,
00000001
00000000
00000100
00000000
,
00001000
00000000
00000000
00000000
,
00010000
00000000
00001000
00000000
,
00000100
00000000
00000001
00000000
,
00000010
00000000
00000100
00000000
,
00001000
00000000
00000000
00000000
,
00000100
00000000
00010000
00000000
,
00001000
00000000
00000000
00000000
,
00010000
00000000
00001000
00000000
,
00010000
00000000
01000000
00000000
,
00100000
00000000
00010000
00000000
,
01000000
00000000
00000000
00000000
,
00010000
00000000
10000000
00000000
,
00100000
00000000
00010000
00000000
,
00001000
00000000
00000100
00000000
,
00000001
00000000
00000000
00000000
,
00001000
00000000
00000001
00000000
,
00000010
00000000
00001000
00000000
,
00010000
00000000
01000000
00000000
,
10000000
00000000
00000000
00000000
,
00100000
00100000
00100000
00000000
,
00100000
00010000
00001000
00000000
,
00000010
00000010
00000010
00000000
,
00000010
00001000
00010000
00000000
,
01000000
10000000
00100000
00010000
,
00001000
00001000
00000000
00000000
,
00010000
00010000
00001000
00000000
,
00000010
00000000
00000000
00000000
,
00000001
00000001
00000100
00000000
,
00001000
00000000
00000000
00000000
,
00010000
00010000
00001000
00000000
,
00000100
00000100
00000001
00000000
,
00000200
00000000
00000020
00000000
,
00000000
00000000
00000330
00000000
,
00000001
00000100
00001000
00010000
,
00100000
00100000
00100000
00000000
,
10000000
10000000
01000000
01000000
,
00010000
00001000
00010000
00000000
,
00001000
00001000
00010000
00010000
,
01000000
01000000
10000000
00000000
,
00100000
01000000
00100000
00000000
,
00010000
00001000
00010000
00000000
,
00001000
00010000
00001000
00000000
,
00000100
00000010
00000100
00000000
,
00001000
00010000
01000000
00000000
,
00010000
00001000
00000100
00000000
,
00001000
00010000
00100000
00000000
,
00010000
00001000
00000010
00000000
,
00001000
00010000
00001000
00000000
00000000
01000000
00000000
00000000
,
00000000
10010000
00000000
00000000
,
00000000
00000000
00000000
00000000
;
#NOTES:
     dance-double:
     :
     Medium:
     10:
     :
00000000
00000000
00000000
00000000
,
00000000
00000000
00000000
00000000
,
00000000
00000000
00000000
00000000
,
00000000
00000000
00000000
00000000
,
00000000
00000000
00000000
00000000
,
00010000
00000000
00001000
00000000
,
00000100
00000000
00000001
00000000
,
00000010
00000000
00001000
00000000
,
00010000
00010000
00001000
00010000
00000000
00000000
00000000
00000000
,
00100000
10000000
01000000
10000000
,
00100000
00000000
00100000
00000000
00100000
00010000
00001000
00000000
,
00010000
00000000
00001000
00000000
00000100
00000001
00000010
00000000
,
00001000
00000000
00001000
00000000
00010000
01000000
10000000
00000000
,
00200000
00000000
00000000
00000000
00000000
00300000
00010000
00002000
,
00000000
00000000
00000000
00003000
,
00001100
00000000
00000000
00000022
00000000
00000000
00000000
00000000
,
00000000
00000000
00000033
00000000
,
00000010
00000001
00000100
00000001
,
00000010
00000000
00000010
00000000
00000010
00001000
00010000
00000000
,
00001000
00000000
00010000
00000000
01000000
10000000
00100000
00000000
,
00010000
00000000
00010000
00000000
00001000
00000100
00000001
00000000
,
00000200
00000000
00000000
00000000
00000300
00000000
00000001
00000010
,
00000000
00000000
00000100
00001000
00000000
00001100
00000000
00000000
,
00000001
00000010
00000001
00000100
,
00001000
00010000
00100000
00000000
10000000
00010000
01000000
00000000
,
00100000
00100000
10000000
01000000
,
00010000
00001000
00000010
00000000
00000001
00001000
00000100
00000000
,
00001000
00001000
00000100
00000100
,
00000010
00001000
00010000
00000000
00001000
00010000
01000000
00000000
,
10000000
00010000
01000000
01000000
,
00100000
00010000
00001000
00000000
00010000
00001000
00000100
00000000
,
00000002
00000000
00000103
00000100
,
00002000
00000000
00003100
00000100
,
00000010
00001000
00010000
00000000
,
00001000
00010000
01000000
00000000
,
20000000
00000000
31000000
01000000
,
00020000
00000000
01030000
01000000
,
00100000
00010000
00001000
00000100
,
00000002
00000000
00000000
00000000
00000000
00000003
00000000
00000000
,
00000100
00000010
00000100
00000010
00000100
00000000
00000000
00000000
,
00001000
00010000
00001000
00010000
00001000
00000000
00000000
00000000
,
00010000
00000000
01000000
00000000
10000000
00100000
00010000
00000000
,
00001000
00000000
00011000
00000000
,
01000000
01000000
10000000
10000000
,
00100000
00010000
00001000
00000100
00000000
00000000
00000000
00000000
,
00000010
00000010
00000100
00000001
,
00000010
00000000
00000010
00000000
00000010
00001000
00010000
00000000
,
00001000
00000000
00010000
00000000
01000000
10000000
00100000
00000000
,
00010000
00000000
00010000
00000000
00010000
00001000
00000100
00000000
,
00000002
00000000
00000000
00000000
00000000
00000003
00000010
00002000
,
00000000
00000000
00000000
00003000
,
00020000
00000000
00000000
00200000
00030000
00300000
20000000
00000000
,
00000000
00200000
00000000
00000000
00000000
00000000
30300000
00000000
,
00100000
10000000
01000000
10000000
,
00100000
00000000
00100000
00000000
00100000
00010000
00001000
00000000
,
00010000
00000000
00001000
00000000
00000100
00000001
00000010
00000000
,
00001000
00000000
00001000
00000000
00010000
00100000
10000000
00000000
,
02000000
00000000
00000000
00000000
03000000
00000000
10000000
00100000
,
00000000
00000000
01000000
00010000
00000000
01010000
00000000
00000000
,
10000000
00100000
10000000
01000000
,
00010000
00001000
00000010
00000000
00000001
00001000
00000100
00000000
,
00000010
00000010
00000001
00000100
,
00001000
00010000
00100000
00000000
10000000
00010000
01000000
00000000
,
00010000
00010000
01000000
01000000
,
00100000
00010000
00001000
00000000
00010000
00001000
00000100
00000000
,
00000001
00001000
00000100
00000100
,
00000010
00001000
00010000
00000000
00001000
00010000
01000000
00000000
,
10000000
10000000
00010000
10000000
00000000
00100000
00000000
00010000
,
00000000
00000000
00002000
00000000
00000000
00000000
00000000
00003000
,
00000000
00000000
00000000
00000000
;
#NOTES:
     dance-double:
     :
     Hard:
     11:
     :
00000000
00000000
00000000
00000000
,
00000000
00000000
00000000
00000000
,
00000000
00000000
00000000
00000000
,
00000000
00000000
00000000
00000000
,
00000000
00000000
00000000
00000000
,
00010000
00000000
00000000
00001000
00000000
00000000
00100000
00000000
00000000
00000000
00000000
00000000
00000000
00000000
00000000
00000000
,
00010000
00000000
00000000
01000000
00000000
00000000
00001000
00000000
00000000
00010000
00000000
00000000
00000000
00000000
00000000
00000000
,
00000010
00000000
00000000
00001000
00000000
00000000
00000100
00000000
00000000
00000000
00000000
00000000
00000000
00000000
00000000
00000000
,
00000000
00000000
00000000
00000000
00010000
00001000
00010000
00000010
,
00000000
00001000
00000010
00001000
00000100
00000000
00010000
00001000
,
00000000
00101000
00000000
00000000
00001000
00010000
00001000
01000000
,
00000000
00010000
10000000
00010000
01000000
00000000
00001000
02000000
,
00000000
03010000
00000000
00000000
10000000
01000000
10000000
00010000
,
00000000
10000000
00100000
01000000
00010000
00000000
00100000
00001000
,
00000000
00000000
00010000
00000000
00001000
00010000
00000000
00000000
,
00002000
00000000
00000000
01000000
00000000
00000000
00010000
00000000
,
00000000
00103000
00000000
00000000
00010000
00100000
00001000
00010000
,
00000000
00001000
00010000
00000010
00001000
00000000
00000001
00000100
,
00000000
00000010
00000000
00000000
00001000
00000010
00010000
00001000
,
00000000
00010000
00001000
01000000
00010000
00000000
10000000
01000000
,
00000000
00100000
00000000
00001000
00000000
00010000
00000000
00000000
,
00000000
00000000
00000000
00000000
00000000
00000010
00010000
00001000
,
00000000
00000000
00100000
00000000
00001000
00010000
00000000
00000000
,
00001000
01000000
00001000
01000000
00000000
00010000
00000000
10000000
,
00000000
00100000
10000000
00100000
00000000
10000000
01000000
00000000
,
10000000
00010000
10000000
00010000
00000000
01000000
00000000
00001000
,
01000000
00001000
01000000
00001000
00000000
00010000
00001000
00000000
,
00010000
00000010
00010000
00000010
00000000
00001000
00000000
00000001
,
00000000
00000100
00000001
00000100
00000000
00000010
00001000
00000000
,
00000100
00010000
00000100
00010000
00000000
00001000
00000000
00100000
,
00001000
00100000
00010000
00100000
00000000
00010000
01000000
00000000
,
00001000
00000000
00010000
00000000
00001000
00100000
00010000
00000000
,
00100000
00000000
00001000
01000000
00010000
00000000
01000000
00000000
,
00001000
00000000
00010000
00000000
00100000
01000000
00010000
00000000
,
01000000
00000000
00100000
00010000
00001000
00000000
00010000
00000000
,
00001000
00000000
00000000
00000000
00000010
00000000
00000000
00000100
00000000
00000000
00000100
00000000
00000010
00000000
00000000
00000000
,
00001000
00000000
00000000
00000000
00010000
00000000
00000000
00000010
00000000
00000000
00000010
00000000
00000100
00000000
00000000
00000000
,
00001000
00000000
00000000
00000000
00010000
00000000
00000000
00001000
00000000
00000000
00001000
00000000
01000000
00000000
00010000
00000000
,
00000000
01000000
00100000
00000000
00100000
01000000
00001000
00000000
,
00010000
00000000
00000000
00000000
00001000
00000000
00000000
00010000
00000000
00000000
00010000
00000000
00000010
00000000
00001000
00000000
,
00000000
00000100
00010000
00000000
00001000
01000000
00100000
01000000
,
00000000
00010000
01000000
00000000
00001000
00000000
00010000
00000000
,
00000010
00000000
00000000
00000000
00001000
00000000
00000000
00000200
,
00000000
00000000
00000000
00000000
00000000
00000000
00000000
00010300
,
00000000
00001000
00100000
00000000
00001000
00010000
00001000
01000000
,
00000000
00010000
01000000
00001000
00010000
00000000
00000010
00001000
,
00000000
00010010
00000000
00000000
00010000
00001000
00010000
00000100
,
00000000
00001000
00000100
00010000
00001000
00000000
00010000
00000200
,
00000000
00001300
00000000
00000000
00000001
00000100
00000010
00010000
,
00000000
00001000
00010000
00001000
01000000
00000000
00100000
10000000
,
00000000
00000000
00010000
00000000
01000000
10000000
00000000
00000000
,
20000000
00000000
31000000
00002000
00000000
00013000
00200000
00000000
,
00310000
00000020
00000000
00001030
00000001
00001000
00000001
00000100
,
00000000
00000010
00001000
00000010
00010000
00000000
00010000
00001000
,
00000000
00000100
00000001
00000100
00000000
00000000
00000000
00000001
,
00000000
00001000
00000000
00010000
00000000
01000000
00000000
01001000
,
00000000
00000000
00000000
00000000
01000000
00010000
01000000
00100000
,
01000000
00000000
10000000
01000000
00000000
00010000
01000000
00001000
,
00000000
00000000
00011000
00000000
00000100
00000010
00000000
00000000
,
00000001
00000100
00000010
00000100
00000000
00001000
00000000
00010000
,
00000000
00100000
01000000
00100000
00000000
10000000
01000000
00000000
,
00100000
01000000
00100000
00010000
00000000
00001000
00000000
00000100
,
00000010
00000100
00001000
00000001
00000000
00000100
00000001
00000000
,
00000100
00000010
00000100
00001000
00000000
00010000
00000000
00100000
,
00000000
10000000
00100000
10000000
00000000
01000000
10000000
00000000
,
01000000
00100000
00010000
00001000
00000000
00000100
00000000
00000010
,
00000100
00000001
00000100
00001000
00000000
00000100
00010000
00000000
,
00001000
00100000
01000000
10000000
00000000
00010000
00000000
01001000
,
00000000
00010000
00000020
00000000
00000000
00000000
00000000
00000000
,
00000000
00000000
00000000
00000000
,
00000030
00000000
00000000
00000000
,
00000000
00000000
00000000
00000000
;
