
//----- song ID: aria -----//
#TITLE:Aria;
#ARTIST:ZxNX;
#BANNER:Aria.png;
#BACKGROUND:Aria-bg.png;
#CDTITLE:./CDTitles/DDR A3.png;
#MUSIC:Aria.ogg;
#SAMPLESTART:2.667;
#SAMPLELENGTH:15;
#BPMS:0=180,66.5=150,66.916=120,67.25=90,68=180,85=90,86=180,97=90,98=180,114=90,122=180,138=90,146=180,176=90,192=180,215=150,215.833=120,216.5=90,219=180,248=90,249=180,277.5=90,278=180,291=90,292=180,298=90,299=180,305=90,305.25=120,305.583=150,306=180;
#STOPS:36=0.167,36.5=0.167,37=0.167,37.5=0.167,96=0.083,96.25=0.083,96.5=0.083,96.75=0.083,174=0.667,212=0.125,212.375=0.125,212.75=0.125,213.125=0.125,213.5=0.083,213.75=0.083,246.5=0.167,247=0.167,247.5=0.167,248=0.167,276=0.25,276.75=0.25,290=0.056,290.166=0.056,290.333=0.056,290.5=0.056,290.666=0.056,290.833=0.056,303=0.125,303.375=0.125,303.75=0.125,304.125=0.125,304.5=0.083,304.75=0.083,305=0.167;
#STAGE:30;
#NOTES:
     dance-single:
     :
     Beginner:
     4:
     :
0000
0000
0000
0000
,
0000
0000
0000
0000
,
0000
0000
0000
0000
,
0000
0000
0000
0000
,
0000
0000
0000
0000
,
0000
0000
0000
0000
,
1000
0000
0000
0000
,
0100
0000
0000
0000
,
0010
0000
0000
0000
,
0010
0000
0000
0000
,
0000
0000
0001
0000
,
0000
0000
0001
0000
,
0000
0000
1001
0000
,
0000
0000
1000
0000
,
1000
0000
0100
0000
,
0000
0000
1000
0000
,
1000
0000
0010
0000
,
0000
0000
0000
0001
,
0000
0001
0000
0000
,
0000
0010
0000
0010
,
0000
0100
0000
0000
,
0000
1001
0000
0000
,
1000
0000
1000
0000
,
0000
0000
0010
0000
,
0100
0000
0001
0000
,
0000
0000
0010
0000
,
0000
0000
0001
0000
,
0001
0000
0100
0000
,
0000
0000
0020
0000
,
0030
0000
0200
0000
,
0300
0000
1000
0000
,
1000
0000
1000
0000
,
0000
0000
0010
0000
,
0000
0000
0100
0000
,
0000
0000
0020
0000
,
0030
0000
0200
0000
,
0300
0000
0001
0000
,
0001
0000
0001
0000
,
0000
0000
0010
0000
,
0000
0000
0100
0000
,
0000
0000
1000
0000
,
0100
0000
0001
0000
,
0000
0000
0001
0000
,
0010
0000
1000
0000
,
1001
0000
0000
0000
,
0000
0000
0000
0000
,
1000
0000
0010
0000
,
1000
0000
0000
0000
,
0002
0000
0000
0000
,
0003
0000
0000
0000
,
0020
0000
0000
0000
,
0030
0000
0000
0000
,
0200
0000
0000
0000
,
0300
0000
1001
0000
,
0000
0000
0000
0010
,
0000
0010
0000
0100
,
0000
0000
0000
1001
,
0000
0000
0000
0000
,
0000
0000
0000
1000
,
0000
1000
0000
0001
,
0000
0000
0000
1001
,
0000
0000
0000
0000
,
0000
0000
0001
0000
,
0010
0000
0000
0000
,
0100
0000
0100
0000
,
1000
0000
0000
0000
,
1000
0000
0010
0000
,
1000
0000
0000
0000
,
1000
0000
0010
0000
,
0001
0000
1001
0000
,
0000
0000
0000
0000
,
0000
0000
1001
0000
,
0000
0000
0000
0000
,
0001
0000
0001
0000
,
0001
0000
0000
0010
,
0000
0010
0000
0010
,
0000
0000
1001
0000
,
0000
0000
0000
0000
;
#NOTES:
     dance-single:
     :
     Easy:
     9:
     :
0000
0000
0000
0000
,
0000
0000
0000
0000
,
0000
0000
0000
0000
,
0000
0000
0000
0000
,
0000
0000
0000
0000
,
0000
0000
0000
0000
,
1000
0000
1000
0000
0010
0000
0100
0001
,
0100
0001
1000
0000
,
0001
0000
0001
0000
0010
0000
0100
1000
,
0100
0100
0100
0000
0200
0000
0000
0000
,
0000
0300
0020
0000
,
0000
0030
0002
0000
,
0000
0003
2000
0000
,
0000
0000
0000
0000
3000
0000
0000
0000
0001
0000
0000
0100
0000
0000
0000
0000
,
0010
0000
0000
0100
0000
0000
0000
0000
0010
0000
0000
1000
0000
0000
0000
0000
,
1001
0000
1000
1000
,
0001
0001
2002
0000
,
3003
0000
1001
0000
0000
0000
1000
0100
,
0010
0001
0001
1001
,
0000
0000
0000
1000
0001
0000
0100
0000
,
0010
1000
1000
0001
,
0100
0020
1030
1000
,
0001
0100
0001
0000
1001
0000
0000
0100
,
0010
0000
1001
0000
,
0200
0300
0001
0001
,
1000
0010
0100
0000
0001
0000
1000
0001
,
1000
0000
0020
0000
,
0230
0000
0000
0000
0301
0000
0000
1000
,
0000
0000
0000
0000
0001
0000
0000
0000
1000
0000
0000
1000
0000
0000
0000
0000
,
0001
0000
0000
0001
0000
0000
0000
0000
0100
0000
0000
0000
0010
0000
0000
0000
,
0110
0000
1000
0100
,
0010
0000
0001
0010
0000
0001
0100
0000
,
0010
0000
2000
0000
,
0000
3000
0002
0000
,
0000
0003
0001
0100
,
0001
0001
0100
0000
1000
0000
0010
0000
,
1000
1000
1000
0000
0001
0000
0010
0000
,
0100
0000
1000
0100
0000
1000
0010
0000
,
0100
0000
0002
0000
,
0000
0003
2000
0000
,
0000
0000
0000
0000
3000
0000
0000
0000
1000
0000
0000
0100
0000
0000
0000
0000
,
1000
0000
0000
0100
0000
0000
0000
0000
0010
0000
0000
0001
0000
0000
0000
0000
,
0011
0000
0001
0100
,
0010
1000
0010
0000
1001
0000
0000
0000
,
2000
0000
3000
0000
,
0002
0000
0003
0000
,
0200
0000
0300
0000
,
0020
0000
0030
0000
,
1000
0000
0100
0000
0010
0001
0010
0000
,
0001
0000
0100
0000
0010
1000
0010
0000
,
1000
0000
0000
1000
0000
0000
0000
0000
0001
0000
0000
0001
0000
0000
0000
0000
,
0100
0000
0000
0100
0000
0000
0010
0000
0100
0000
0000
0000
0000
0000
0000
0000
,
1010
0000
0011
0000
,
2200
0000
0000
3300
2002
0000
0000
0000
,
0000
3003
0000
0001
,
1000
0001
1000
0010
,
0100
0000
0000
0000
0010
0000
0000
0000
0100
0000
0000
0110
0000
0000
0000
0000
,
1000
0000
0001
0000
0010
0100
0000
1000
,
0001
0200
0302
1003
,
0100
0001
0000
0001
,
0100
1000
0000
1000
,
0001
1000
0001
0000
0100
0010
0000
0100
,
0000
0110
1000
0001
,
0010
0000
0100
0010
0100
0000
0000
0000
,
1000
0001
0010
0100
,
1000
0010
1000
0000
0001
0000
0000
0000
,
1000
0000
0000
0100
0000
0000
1000
0000
0000
0000
0000
0000
0000
0000
0000
0000
,
0001
0000
0000
0010
0000
0000
0001
0000
0000
0000
0000
0000
0000
0000
0000
0000
,
1000
0010
0100
0001
,
1000
0000
0000
0001
0000
0000
1000
0000
0002
0000
0000
0000
0000
0000
0000
0000
,
0000
0003
2000
0000
,
0000
3000
0200
0000
,
0000
0300
0020
0030
,
0001
0000
0000
0001
0000
0000
0000
0000
1000
0000
0000
1000
0000
0000
0000
0000
,
0010
0000
0000
0010
0000
0000
0000
0000
1001
0000
0000
0000
0001
0000
0000
0001
,
0000
0000
0000
0000
0100
0000
0000
0100
0000
0000
0000
0000
0020
0000
0000
0000
,
0000
0030
0110
0000
,
0000
0000
0000
0000
;
#NOTES:
     dance-single:
     :
     Medium:
     13:
     :
0000
0000
0000
0000
,
0000
0000
0000
0000
,
0000
0000
0000
0000
,
0000
0000
0000
0000
,
0000
0000
0000
0000
,
0000
0000
0000
0000
,
1000
0100
0010
0000
0001
0100
0010
0000
,
0100
0000
0100
0010
0100
0000
1001
0000
,
0001
0010
0100
0000
1000
0010
0100
0000
,
0010
0010
0010
0010
0020
0000
0000
0000
,
1030
0001
0100
0001
0020
0000
0000
0000
,
0031
0100
1000
0100
0000
0001
1000
0000
,
0100
0000
0010
0000
0100
0000
0000
0000
1000
0000
0000
1000
0000
0000
0001
0000
,
0000
0001
0000
0000
1001
0000
0000
0000
1000
0000
0100
0010
0000
0000
0000
0000
,
0001
0000
0100
0010
0000
0000
0000
0000
1000
0000
0010
0100
0000
0000
0000
0000
,
0001
0000
0000
0000
0000
0000
0010
0000
0000
0100
0000
0000
0000
0000
0000
0000
0000
0000
0000
0000
0000
0000
0000
0000
1000
0000
0000
0000
0000
0000
0000
0000
1000
0000
0000
0000
0001
0000
0000
0000
0000
0000
0000
0000
0001
0000
0000
0000
,
0100
0000
0100
0010
0000
0000
0220
0000
0000
0000
0000
0000
,
0330
0000
0110
0000
1000
0010
1000
0010
,
1000
0000
0001
0010
0001
0010
0100
1000
,
0001
0000
0000
0001
1000
0000
0010
1000
,
0100
0000
0010
0001
0100
0010
1000
0001
,
1000
0000
0002
0000
0103
0010
1000
0010
,
0100
0001
1000
0000
0100
0010
0010
0001
,
1000
0000
0001
0100
1000
0100
0001
0000
,
0200
0300
0200
0300
0002
0000
0003
0000
1000
0000
0100
0000
0010
0000
0001
0000
,
1000
0100
0010
0000
0001
0010
1000
0010
,
0001
1001
2000
0000
,
3020
0000
0000
0000
0000
0000
0000
0000
0130
0000
0000
0100
0000
0000
0001
0000
,
0000
0001
0000
0000
1000
0000
0000
0000
0001
0100
0000
0110
0000
0000
1001
0000
,
1000
0000
0000
0100
0000
0000
0110
0000
0000
0000
0000
0000
1001
0000
0000
0000
1000
0000
0000
0000
0001
0000
0100
0000
0001
0000
0000
0000
1000
0000
0010
0000
,
1000
0000
0000
0000
0001
0000
0000
0100
0000
0000
0001
0000
0100
0000
0000
0000
0001
0000
0000
0000
1000
0000
0000
0000
0001
0000
0000
0000
1000
0000
0000
0000
,
0100
0010
0100
0010
0000
0010
0001
0100
,
1000
0100
0001
0000
2000
0000
0010
0000
,
3100
0010
0000
0110
0000
0100
0001
0100
,
2000
0000
0000
0000
3001
0011
0001
0101
,
0010
0010
1001
0000
1000
1010
1000
1100
,
0010
0010
1001
0000
1000
0001
1000
0001
,
0010
0100
0010
0100
0000
0100
1000
0010
,
0001
0010
1000
0000
0001
0100
0001
0100
,
0000
0010
0100
0020
0000
0000
0000
1030
,
0002
0000
0000
0000
0000
0000
0000
0000
1003
0000
0000
1100
0000
0000
0000
0000
,
0100
0000
0000
0110
0000
0000
0000
0000
0010
0000
0000
0011
0000
0000
0000
0000
,
0001
0000
0000
0001
1000
0000
0000
0000
0001
0000
0100
0000
1000
0000
0100
0000
,
0010
0000
0000
0100
0000
0000
0010
0000
1001
0000
0000
0000
0000
0000
0000
0000
,
2000
0000
3200
0320
,
0230
0000
0320
0000
,
0031
0000
0100
0000
0001
1000
0001
0000
0010
0000
0100
0000
0110
0000
0000
0000
,
1000
0000
1000
0001
0000
0001
0100
0000
0100
0010
0000
0000
1000
0000
0001
0100
0000
0010
1000
0000
0000
0000
0000
0000
,
0001
1000
0100
1000
0010
1000
0001
0000
,
1000
0001
0100
0001
0010
0001
1000
0000
,
0001
0000
0000
0100
0000
0000
0100
0000
0010
0000
0000
0000
1000
0000
0100
0000
,
1000
0000
0000
0100
0000
0000
0100
0000
0010
0000
0000
0000
0002
0000
0000
0000
,
1003
0010
0100
0001
1000
0100
0010
0001
,
1000
0000
0000
1000
0000
0000
0001
0000
0000
0001
0000
0000
1000
0000
0001
0000
2002
0000
0000
0000
0000
0000
0000
0000
0000
0000
0000
0000
0000
0000
0000
0000
,
0000
0000
3003
0000
0010
0100
0010
0000
0110
0000
1001
0000
1000
0000
0010
0000
,
1000
0000
0001
0100
0001
0000
1000
0100
,
0001
0000
0100
0000
1000
0000
0000
0010
0000
0100
0000
0110
0000
0000
0000
0000
,
0001
0000
1000
0000
0100
0000
0000
0010
0000
0000
0011
0000
0000
0000
0001
0000
,
0010
0100
2000
0000
3002
0000
0103
0010
,
1000
0000
0100
0010
0001
1000
0000
1000
,
0001
0000
0101
0000
1100
0000
1000
0010
,
0001
0010
1000
0001
1000
0100
0100
0110
,
0110
0000
1001
0000
0001
0100
0001
0000
,
1000
0010
0001
0010
1000
0000
0001
0100
,
0010
0000
0010
1000
0100
0000
1100
0000
,
0100
1000
0010
1000
0001
0000
1001
0000
,
1000
0000
0000
0100
0000
0000
0010
0000
0000
0001
0000
0000
0011
0000
0000
0000
,
0001
0000
0000
0100
0000
0000
0010
0000
0000
1000
0000
0000
1010
0000
0000
0000
,
1000
0000
0001
0000
0100
0000
0010
0000
1000
0000
0100
0000
0010
0100
0010
0100
,
0010
0000
0000
0010
0000
0000
0010
0000
0001
0000
0000
0100
0000
0000
0001
0000
,
1000
0100
0000
0000
1100
0000
0000
0000
1000
0000
0000
0010
0000
0000
1000
0000
,
0001
0010
0000
0000
0011
0000
0000
0000
0001
0000
0000
0100
0000
0000
0010
0000
,
1000
0000
0000
0001
0000
0000
0000
0000
0000
0000
0000
0000
1001
0000
0000
0000
0000
0000
0000
0000
0000
0000
0000
0000
1000
0000
0000
0000
1000
0000
0100
0000
0000
0000
0100
0000
0020
0000
0000
0000
0000
0000
0000
0000
0000
0000
0000
0000
,
0031
0100
0000
0001
0000
0000
0000
0000
1000
0100
0000
1000
0000
0000
0000
0000
,
0001
0010
0000
0001
0000
0000
1000
0000
2002
0000
3003
0000
1000
0010
0000
0100
,
0000
0000
0000
0000
0000
0000
0000
0000
0001
0000
0010
0000
0000
0000
0100
0000
0000
0000
0000
0000
0000
0000
0000
0000
1000
0000
0000
1000
0000
0000
0001
0000
,
0000
0001
0000
0000
0100
0000
0010
0000
0000
0000
0000
0000
0000
0000
0000
0000
0110
0000
0000
0000
0000
0000
0000
0000
0000
0000
0000
0000
0000
0000
0000
0000
,
0000
0000
0000
0000
;
#NOTES:
     dance-single:
     :
     Hard:
     17:
     :
0000
0000
0000
0000
,
0000
0000
0000
0000
,
0000
0000
0000
0000
,
0000
0000
0000
0000
,
0000
0000
0000
0000
,
0000
0000
0000
0000
,
0001
0010
0100
1000
0001
0100
0010
1000
,
0001
0000
0000
1000
0001
1000
0001
0000
0000
0100
0000
0000
0110
0000
0000
0000
0000
0000
1000
0000
0000
0010
0000
0000
,
0100
0001
0100
0001
0000
0000
1000
0100
1000
0100
0000
0000
,
1010
0000
1100
0000
0101
0000
0011
0000
0001
0000
1000
0000
0100
0000
0010
0001
,
0000
0010
0001
0000
1000
0000
0000
0000
0001
0000
1000
0000
0100
0000
0010
0001
,
0000
0010
0001
0000
0100
0000
0000
0000
0010
0000
1000
0000
1010
0000
0000
0000
,
0001
0010
0001
0000
0100
0010
1000
0000
0001
0000
0100
1000
0000
0100
0001
0000
,
0010
1000
0000
0010
0001
0000
0000
0000
1000
0000
0100
1000
0000
0100
0010
0100
,
0010
0000
0001
0010
0000
0001
0100
0000
0010
1000
0010
1000
0000
0000
0010
1000
,
0001
0000
0000
0000
0000
0000
0010
0000
0000
0100
0000
0000
0000
0000
0000
0010
0000
0000
0100
0000
0000
0000
0000
0000
1000
0000
0000
0000
0100
0000
0000
0000
0100
0000
0000
0000
0001
0000
0000
0000
0100
0000
0000
0000
0100
0000
0000
0000
,
1000
0010
0010
0001
0000
0000
2002
0000
0000
0000
0000
0000
,
3003
0000
0000
0000
1001
0000
0000
0000
0001
0000
0100
0000
0010
1000
0000
0100
,
1000
0100
1000
0000
0001
0100
0001
0000
1000
0100
1000
0000
0001
0000
0010
0000
,
1001
0000
0000
0000
0000
0000
0001
0000
0001
0000
1000
0100
1000
0001
0000
0010
,
0001
1000
0001
0000
1000
0100
0010
0000
0001
0100
0010
0000
1000
0100
0010
0001
,
1000
0000
0000
0000
0000
0000
0000
0000
0002
0000
0000
0000
0103
0000
0010
1000
0010
0000
0000
0000
0100
0000
0010
0000
1000
0000
0000
0000
0010
0000
0000
0000
,
0100
0001
0000
0010
0001
0000
1000
0000
0010
0100
0010
0100
0010
0000
1000
0000
,
1001
0000
0000
0000
0001
0010
0100
0000
1000
0000
0001
0100
0001
0000
0010
0000
,
0200
0310
0200
0310
0002
0000
1003
1000
1001
0000
0000
0000
0001
0000
0100
0000
,
0001
0000
0000
0000
0000
0000
1000
0000
0000
0100
0000
0000
1000
0000
0000
0000
0000
0000
0010
0000
0000
0000
0000
0000
0100
0000
0000
0000
0000
0000
0001
0000
0010
0000
0100
0000
1000
0000
0000
0000
0000
0000
0100
0000
0000
0000
0000
0000
,
0110
0000
0010
0001
1000
0000
0010
1000
,
0100
0000
0001
0000
0010
0000
0000
0000
1010
0000
0000
1100
0000
0000
0101
0000
,
0000
0000
0011
0000
0000
0000
0000
0000
1010
0000
0000
0000
1000
0000
0000
0000
1000
0000
0100
0000
0010
0000
0110
0000
0000
0000
0001
1000
0010
0100
0010
0000
,
1010
0000
0000
1001
0000
0000
0101
0000
1000
0001
1000
0001
1000
0000
0000
0000
0011
0000
0001
0000
0100
0000
1010
0000
1000
0000
0100
0000
0011
0000
0000
0000
,
0001
0000
0000
0000
0100
0000
0000
1000
0000
0000
0010
0000
0001
0000
1000
0000
0001
0000
0000
0000
0100
0000
0010
0000
0100
0000
0000
0000
0010
0000
1000
0000
,
0010
0000
1000
0001
1000
0000
1001
0000
0000
0000
0001
0010
0100
0000
0100
0010
,
0002
0203
0320
2030
,
3001
0100
0000
1001
0000
1100
0000
0001
,
0100
0000
0000
0000
0000
0000
0001
0000
0000
1000
0000
0000
0001
0000
0000
0000
0000
0000
0000
0000
0000
0000
0000
0000
0001
0000
0000
0000
0100
0000
0001
0000
0000
0000
0001
0000
0010
0000
0000
0000
0010
0000
0100
0000
0000
0000
0000
0000
,
1000
0010
1000
0100
0010
0001
1000
0000
0000
0010
0000
0000
0101
0000
0000
0001
0100
1000
0100
0001
1000
0100
0000
0001
,
0100
0000
0000
0000
0100
0000
1000
0000
0000
0000
1000
0000
0010
0000
0100
0000
0000
0000
1001
0000
0000
0000
0000
0000
0001
0000
0000
0000
0000
0000
0100
0000
0000
0010
0000
0000
1000
0000
0000
0000
0000
0000
0010
0000
0000
0100
0000
0000
,
0001
0000
1000
0100
1000
0000
1001
0000
0000
0000
0001
0100
0001
0000
0010
0001
,
2000
0000
3002
0000
1003
0010
0100
0001
,
0000
0000
0100
0000
0001
0000
0010
0100
0010
0100
0010
0100
0010
0100
0010
0001
,
0010
0001
0010
0001
0010
0001
0010
0000
0011
0000
0000
0101
0000
0000
1000
0010
,
0100
0000
0000
1100
0000
0000
0001
0010
0100
0000
0000
0011
0000
0000
1000
0001
,
0100
0000
0000
0001
1000
0010
1000
0000
0100
0010
0001
0010
0000
0001
0010
0000
,
0100
1000
0010
1000
0000
0001
0100
0000
0010
0000
0100
0000
1001
0000
0000
0000
,
0002
0000
0203
0320
,
2030
0000
3200
0320
,
0031
0010
0010
0001
0100
0100
0101
0000
1000
0010
0010
1000
0100
0100
1100
0000
,
1000
0100
1000
0100
0000
0000
0010
0001
0010
0001
0000
0000
1000
0010
1000
0010
0000
0000
0100
0001
0100
0001
0000
0000
,
1000
1000
0010
0100
0001
0001
0010
0100
,
1000
0000
1000
0000
0001
0000
0100
0000
0010
0000
0010
0000
0100
0010
0000
0010
,
0100
0000
0000
0000
0000
0000
0001
0000
0000
0010
0000
0000
0000
0000
0000
0001
0000
0000
0010
0000
0000
0000
0000
0000
0001
0000
0000
0000
0000
0000
1000
0000
0010
0000
1000
0000
0010
0000
0000
0000
0000
0000
1000
0000
0000
0000
0000
0000
,
0010
0000
1000
0100
0010
0000
0001
0100
0010
0000
1000
0000
0002
2003
3002
2003
,
3001
0000
0100
1000
0100
0000
0001
0010
1000
0000
0001
0000
0100
0000
1000
0000
,
1100
0000
0000
0101
0000
0000
1010
0000
0000
0011
0000
0000
1001
0000
0110
0000
2002
0000
0000
0000
0000
0000
0000
0000
0000
0000
0000
0000
0000
0000
0000
0000
,
0000
0000
0000
0000
3003
0000
0000
0000
1000
0000
0100
0000
0010
0000
0001
0000
2000
0000
3001
0100
0001
0000
1000
0000
0001
0000
0000
0000
0100
0000
0010
0000
,
0000
1000
0010
0000
0100
0000
0001
0010
0000
0001
1000
0000
0001
0000
0100
0010
,
0100
0000
0010
1000
0001
0000
1000
0100
0010
0100
0000
0011
0000
0000
0001
0010
,
0001
0000
0100
0010
0100
0000
0010
1000
0010
0000
1010
0000
0000
0000
0010
1000
,
0010
0000
0000
1000
0000
0000
0200
0000
0000
0320
0000
0000
0130
1000
0100
1000
0000
0000
0002
0000
0000
0023
0000
0000
,
0230
2300
3020
0230
0302
2003
3000
1000
,
0010
0000
0000
1000
0000
0000
0010
0000
0000
0000
0000
0000
0100
0000
0000
0000
0000
0000
0001
0000
0000
0000
0000
0000
1000
0000
0000
0000
0000
0000
0000
0000
0000
0000
0000
0000
1000
0000
0000
0000
0000
0000
0001
0000
0100
0000
0010
0000
,
1000
0000
0000
0001
0000
0000
0010
0100
1000
0100
0000
0000
1000
0000
0000
1010
0000
0000
0101
0000
0000
1100
0000
0000
,
0011
0000
0001
0100
1000
0000
0100
0000
0010
0000
1000
0000
0001
0000
0010
0000
,
0100
0000
0000
0000
0000
0000
1000
0000
0010
0000
1000
0000
0010
0000
0000
0000
0000
0000
0100
0000
0000
0000
0000
0000
0101
0000
0000
0000
0000
0000
0000
0000
0000
0000
0000
0000
1000
0000
0000
0001
0000
0000
1000
0000
0000
0001
0000
0000
,
1000
0100
0100
0001
0010
0010
1000
0100
,
0001
0000
0000
0100
0000
0000
1000
0000
0000
0010
0000
0000
0100
0000
0000
0010
1000
0010
1000
0000
0000
0001
0000
0000
,
1000
0100
1000
0001
0100
0001
1000
0010
1000
0001
0010
0001
0200
0000
0300
0000
,
0001
0010
0100
1000
0010
0100
0001
0100
0010
1000
0100
0010
0002
0000
0003
0000
,
1000
0100
1000
0100
0010
0001
0010
0001
0100
0010
0100
0010
1000
0001
1000
0000
,
1001
0000
0000
0110
0000
0000
0001
0010
0100
0000
1000
0100
0000
0010
0100
0000
,
1000
0001
1000
0001
1000
0000
0000
0000
0001
0000
0100
0010
0000
0100
0001
0000
,
0010
0100
0010
0100
0010
0000
0000
0000
0001
0000
0010
0100
0000
1000
0001
0000
,
1000
0000
0000
0010
0000
0000
1000
0000
0000
0001
0000
0000
0100
0000
0000
0000
0000
0000
0000
0000
0000
0000
0000
0000
0001
0000
0010
0000
0001
0000
1000
0000
0010
0000
1000
0000
0002
0000
0000
0000
0000
0000
0000
0000
0000
0000
0000
0000
,
1003
0100
0000
0101
0000
1000
0100
0000
0001
0100
0000
1100
0000
0001
0100
0000
,
1000
0010
0000
0011
0000
1000
0010
0000
2002
0000
3003
0000
0001
0010
0000
1010
,
0000
0000
0001
0000
0010
0000
0000
0000
1000
0000
0010
0000
0000
0000
0011
0000
0000
0000
1000
0000
0010
0000
0000
0000
0011
0000
0000
0101
0000
0000
0110
0000
,
0000
0000
0000
1010
0000
0000
0000
0000
0000
0000
0000
0000
1100
0000
0000
0000
0000
0000
0220
0000
0000
0000
0000
0000
0000
0000
0000
0000
0000
0000
0000
0000
0000
0000
0000
0000
0000
0000
0000
0000
0000
0000
0030
0300
0000
0000
0000
0000
1001
0000
0000
0000
0000
0000
0000
0000
0000
0000
0000
0000
0000
0000
0000
0000
0000
0000
0000
0000
0000
0000
0000
0000
0000
0000
0000
0000
0000
0000
0000
0000
0000
0000
0000
0000
0000
0000
0000
0000
0000
0000
0000
0000
0000
0000
0000
0000
,
0000
0000
0000
0000
;
#NOTES:
     dance-double:
     :
     Easy:
     9:
     :
00000000
00000000
00000000
00000000
,
00000000
00000000
00000000
00000000
,
00000000
00000000
00000000
00000000
,
00000000
00000000
00000000
00000000
,
00000000
00000000
00000000
00000000
,
00000000
00000000
00000000
00000000
,
10010000
00000000
01100000
00000000
,
10000000
01000000
00100000
00000000
00010000
00000000
00000000
00000000
,
00100000
00001000
00010000
00000000
,
00001000
00001000
00010000
00010000
00002000
00000000
00000000
00000000
,
00000000
00003000
00020000
00000000
,
00000000
00030000
00000200
00000000
,
00000000
00000300
00000020
00000000
,
00000000
00000000
00000000
00000000
00000030
00000000
00000000
00000000
00000001
00000000
00000000
00000100
00000000
00000000
00000000
00000000
,
00000001
00000000
00000000
00000010
00000000
00000000
00000000
00000000
00000100
00000000
00000000
00001000
00000000
00000000
00000000
00000000
,
00001001
00000000
00001000
00000010
,
00010000
00001000
00022000
00000000
,
00033000
00000000
00011000
00000000
00000000
00000000
00010000
00001000
,
01000000
00010000
00100000
00010000
,
00000000
00000000
00000000
00010000
10000000
00000000
00100000
00000000
,
01000000
00010000
00010000
00100000
,
00001000
00020000
00031000
00001000
,
00010000
00000010
00010000
00000000
00001000
00000000
00000000
00001000
,
00010000
00000100
00001000
00000000
,
00002002
00003003
00000001
00000010
,
00000100
00000000
00010000
00000000
00001000
00010000
00001000
00000000
,
00010000
00000000
00002000
00000000
,
02003000
00000000
00000000
00000000
03010000
00000000
00000000
00100000
,
00000000
00000000
00000000
00000000
01000000
00000000
00000000
00000000
10000000
00000000
00000000
10010000
00000000
00000000
00000000
00000000
,
00010000
00000000
00000000
10010000
00000000
00000000
00000000
00000000
10000000
00000000
00000000
00000000
01000000
00000000
00000000
00000000
,
00010000
00001000
00011000
00010000
,
00000010
00001000
00000010
00000000
00000100
00000000
00000001
00000000
,
00000010
00000000
00000002
00000000
,
00000000
00000003
00002000
00000000
,
00000000
00003000
00000001
00000100
,
00000010
00010000
00001000
00000000
00010000
00000000
00001000
00000000
,
01000000
00010000
00100000
00000000
01000000
00000000
10000000
00000000
,
00010000
00000000
00100000
00010000
00000000
00000000
00010000
00000000
,
01000000
00000000
00002000
00000000
,
00000000
00003000
00020000
00000000
,
00000000
00000000
00000000
00000000
00030000
00000000
00000000
00000000
00010000
00000000
00000000
00010000
00000000
00000000
00000000
00000000
,
00000100
00000000
00000000
00000100
00000000
00000000
00000000
00000000
00001000
00000000
00000000
00001000
00000000
00000000
00000000
00000000
,
00001010
00000000
00000010
00000100
,
00000001
00001000
00000001
00000000
00001001
00000000
00000000
00000000
,
00002000
00000000
00003000
00000000
,
00000200
00000000
00000300
00000000
,
00020000
00000000
00030000
00000000
,
00002000
00000000
00003000
00000000
,
00001000
00010000
00001000
01000000
,
00010000
00100000
00010000
00000000
01000000
00000000
00000000
00000000
,
00100000
00000000
00000000
10000000
00000000
00000000
00000000
00000000
01000000
00000000
00000000
00100000
00000000
00000000
00000000
00000000
,
00001000
00000000
00000000
00010000
00000000
00000000
00001000
00000000
00010000
00000000
00000000
00000000
00000000
00000000
00000000
00000000
,
00001000
00000000
00000010
00000000
00000100
00000010
00000001
00000000
,
00002000
00000000
00000000
00003000
00002002
00000000
00000000
00000000
,
00000000
00003003
00000000
00000001
,
00000100
00000001
00000010
00000001
,
00000100
00000000
00000000
00000000
00000010
00000000
00000000
00000000
00001000
00000000
00000000
00001010
00000000
00000000
00000000
00000000
,
00000010
00000000
00010000
00000000
00001000
00010000
00000000
00001000
,
00010000
00002000
00203000
01300000
,
00010000
01000000
10000000
00010000
,
00100000
00000000
01000000
00000000
00000000
00000000
10000000
00100000
,
10000000
00000000
01000000
00000000
00100000
00001000
00000000
00010000
,
00000000
00011000
00010000
00010000
,
00000100
00001000
00000100
00000000
00001000
00000000
00000000
00000000
,
00000001
00000100
00000010
00001000
,
00000001
00001000
00000001
00000000
00000001
00000000
00000000
00000000
,
00000100
00000000
00000000
00000010
00000000
00000000
00001000
00000000
00000000
00000000
00000000
00000000
00000000
00000000
00000000
00000000
,
00000010
00000000
00000000
00010000
00000000
00000000
00001000
00000000
00000000
00000000
00000000
00000000
00000000
00000000
00000000
00000000
,
00010000
00001000
00010000
01000000
,
10000000
00000000
00000000
10000000
00000000
00000000
10000000
00000000
00020000
00000000
00000000
00000000
00000000
00000000
00000000
00000000
,
00000000
00030000
00200000
00000000
,
00000000
00300000
00002000
00000000
,
00000000
00003000
00022000
00033000
,
00010000
00000000
00000000
00010000
00000000
00000000
00000000
00000000
00000100
00000000
00000000
00000100
00000000
00000000
00000000
00000000
,
00001000
00000000
00000000
00000010
00000000
00000000
00000000
00000000
00001001
00000000
00000000
00000000
00000001
00000000
00000000
00000001
,
00000000
00000000
00000000
00000000
00000100
00000000
00000000
00000100
00000000
00000000
00000000
00000000
00002000
00000000
00000000
00000000
,
00000000
00003000
00011000
00000000
,
00000000
00000000
00000000
00000000
;
#NOTES:
     dance-double:
     :
     Medium:
     13:
     :
00000000
00000000
00000000
00000000
,
00000000
00000000
00000000
00000000
,
00000000
00000000
00000000
00000000
,
00000000
00000000
00000000
00000000
,
00000000
00000000
00000000
00000000
,
00000000
00000000
00000000
00000000
,
10000000
00000000
00100000
01000000
00100000
00000000
10000000
01000000
,
00100000
00010000
00100000
00000000
00001000
00000000
00011000
00000000
,
00010000
00000100
00010000
00000000
00000100
00001000
00000100
00000000
,
00000010
00000010
00000010
00000010
00000020
00000000
00000000
00000000
,
00000031
00001000
00000001
00001000
00000002
00000000
00000000
00000000
,
00001003
00000100
00001000
00000100
00000000
00000100
00010000
00000000
,
00001000
00000000
00010000
00000000
00001000
00000000
00000000
00000000
00100000
00000000
00000000
00100000
00000000
00000000
00010000
00000000
,
00000000
00010000
00000000
00000000
01000000
00000000
00000000
00000000
00100000
00000000
10000000
00100000
00000000
00000000
00000000
00000000
,
10000000
00000000
00010000
01000000
00000000
00000000
00000000
00000000
00010000
00000000
00100000
00001000
00000000
00000000
00000000
00000000
,
00010000
00000000
00000000
00000000
00000000
00000000
00001000
00000000
00000000
00010000
00000000
00000000
00000000
00000000
00000000
00000000
00000000
00000000
00000000
00000000
00000000
00000000
00000000
00000000
00001000
00000000
00000000
00000000
00000000
00000000
00000000
00000000
00001000
00000000
00000000
00000000
00000100
00000000
00000000
00000000
00000000
00000000
00000000
00000000
00000100
00000000
00000000
00000000
,
00000001
00000000
00000001
00001000
00000000
00000000
00002002
00000000
00000000
00000000
00000000
00000000
,
00003003
00000000
00001001
00000000
00000001
00000100
00000001
00000100
,
00000010
00000000
00001000
00000010
00001000
00000100
00010000
00001000
,
00010000
00000000
00000000
00010000
00001000
00000000
01000000
00010000
,
00100000
00000000
00010000
01000000
00100000
10000000
01000000
00100000
,
00010000
00000000
20000000
00000000
30010000
01000000
10000000
00000000
,
10000000
01000000
00010000
00000000
10000000
01000000
00100000
01000000
,
00010000
00000000
00001000
00010000
00001000
00010000
00001000
00000000
,
00000200
00000300
00000200
00000300
00000002
00000000
00000003
00000000
00000001
00000000
00000100
00000000
00000001
00000000
00000010
00000000
,
00000001
00000100
00000010
00001000
00000100
00000001
00000100
00001000
,
00000100
00000000
00020000
00000000
,
00032000
00000000
00000000
00000000
00000000
00000000
00000000
00000000
00013000
00000000
00000000
00010000
00000000
00000000
00001000
00000000
,
00000000
00001000
00000000
00000000
00011000
00000000
00000000
00000000
00001000
01000000
00010000
01000000
00000000
00100000
01000000
00000000
,
00010000
00000000
00000000
10000000
00000000
00000000
10010000
00000000
00000000
00000000
00000000
00000000
10010000
00000000
00000000
00000000
10000000
00000000
00000000
00000000
01000000
00000000
00100000
00000000
01000000
00000000
00000000
00000000
00010000
00000000
00001000
00000000
,
00010000
00000000
00000000
00000000
00001000
00000000
00000000
00000010
00000000
00000000
00000001
00000000
00001000
00000000
00000000
00000000
00000001
00000000
00000000
00000000
00000100
00000000
00000000
00000000
00001000
00000000
00000000
00000000
00000100
00000000
00000000
00000000
,
00000001
00000010
00000100
00001000
00000000
00001000
00000100
00010000
,
00001000
00011000
00020000
00001000
,
00130000
01000000
00000000
01100000
00000000
01000000
00010000
01000000
,
00200000
00000000
00000000
00000000
10300000
11000000
10000000
10100000
,
00100000
00010000
00001000
00011000
00010000
00010100
00010000
00011000
,
00001000
00000010
00000001
00001001
00001000
00000100
00000001
00000100
,
00001000
00000001
00000100
00000001
00000000
00000001
00000010
00000100
,
00010000
00000000
00011000
00000000
00001000
00010000
00001000
00010000
,
01000000
10000000
00000000
10010000
00000000
00000000
00000000
01000000
,
00200000
00000000
00000000
00000000
00300000
00000000
00000000
00000000
10000000
00000000
00000000
10100000
00000000
00000000
00000000
00000000
,
00010000
00000000
00000000
01010000
00000000
00000000
00000000
00000000
00100000
00000000
00000000
00101000
00000000
00000000
00000000
00000000
,
00001000
00000000
00000000
00001000
00010000
00000000
00000000
00000000
00010000
00000000
00000010
00000000
00001000
00000000
00000010
00000000
,
00000100
00000000
00000000
00000001
00000000
00000000
00001000
00000000
00000001
00000000
00000000
00000000
00000000
00000000
00000000
00000000
,
00000002
00000000
00000203
00000320
,
00000230
00000000
00002300
00000000
,
00013000
00000000
00100000
00010000
00000000
00010000
00001000
00000000
00010000
00000000
00001000
00000010
00000000
00000010
00001000
00000000
,
00010000
00000000
00010000
00001000
00000000
00001000
00010000
00000000
00010000
00100000
00000000
00100000
10000000
00000000
10000000
00100000
00000000
00100000
00010000
00000000
00000000
00000000
00000000
00000000
,
00001000
00010000
00001000
00000000
00001000
00000010
00001000
00000000
,
00000010
00000001
00000100
00000001
00000010
00000000
00000000
00000000
,
00000001
00000100
00001000
00000000
00001000
00000100
00000001
00000000
,
00001000
00000100
00010000
00001000
00020000
00000000
00000000
00000000
,
00031000
00100000
00001000
00100000
00010000
01000000
00010000
01000000
,
00100000
00000000
00000000
00100000
00000000
00000000
01000000
00000000
00000000
01000000
00000000
00000000
01100000
00000000
00000000
00000000
20020000
00000000
00000000
00000000
00000000
00000000
00000000
00000000
00000000
00000000
00000000
00000000
00000000
00000000
00000000
00000000
,
00000000
00000000
30030000
00000000
10000000
01000000
00100000
00000000
00101000
00000000
00011000
00000000
00010000
00000000
00000100
00000000
,
00010000
00000000
00000100
00001000
00000100
00000000
00000010
00000001
,
00000100
00000000
00000010
00000000
00001000
00000000
00000000
00000000
00000010
00000000
00000000
00001001
00000000
00000000
00001000
00000000
,
00000001
00000000
00000000
00000000
00000100
00000000
00000000
00000100
00000000
00000000
00000110
00000000
00000000
00000000
00000010
00000000
,
00010000
00000000
00002000
00000000
00023000
00000000
00031000
00100000
,
01000000
00010000
00001000
00100000
01000000
00010000
00000000
00010000
,
00001000
00000000
01001000
00000000
00110000
00000000
00010000
01000000
,
10000000
01000000
00010000
00000000
10000000
01000000
01100000
00001000
,
00011000
00000000
00011000
00000000
00010000
00001000
00000100
00000000
,
00000001
00000010
00001000
00000010
00000001
00000000
00001000
00000100
,
00000001
00000000
00000100
00000010
00000001
00001000
00000100
00000000
,
00010000
00001000
00010000
00000100
00010000
00000000
00011000
00000000
,
00001000
00000000
00000000
01000000
00000000
00000000
00010000
00000000
00000000
01000000
00000000
00000000
01100000
00000000
00000000
00000000
,
00100000
00000000
00000000
10000000
00000000
00000000
01000000
00000000
00000000
10000000
00000000
00000000
10010000
00000000
00000000
00000000
,
10000000
00000000
00010000
00000000
01000000
00000000
00100000
00000000
00010000
00000000
00000000
00000000
00001000
00010000
00001000
00010000
,
00001000
00000000
00000000
00001000
00000000
00000000
00001000
00000000
00010000
00000000
00000000
00000010
00000000
00000000
00001000
00000000
,
00000100
00001000
00000000
00000000
00001100
00000000
00000000
00000000
00000100
00000000
00000000
00000010
00000000
00000000
00000001
00000000
,
00001000
00000001
00000000
00000000
00001001
00000000
00000000
00000000
00000001
00000000
00000000
00000010
00000000
00000000
00001000
00000000
,
00010000
00000000
00000000
00001000
00000000
00000000
00000000
00000000
00000000
00000000
00000000
00000000
00011000
00000000
00000000
00000000
00000000
00000000
00000000
00000000
00000000
00000000
00000000
00000000
00010000
00000000
00000000
00000000
00010000
00000000
00100000
00000000
00000000
00000000
00100000
00000000
20000000
00000000
00000000
00000000
00000000
00000000
00000000
00000000
00000000
00000000
00000000
00000000
,
30010000
00100000
00000000
00010000
00000000
00000000
00000000
00000000
01000000
00001000
00000000
00010000
00000000
00000000
00000000
00000000
,
00000100
00001000
00000000
00000100
00000000
00000000
00000010
00000000
00000220
00000000
00000330
00000000
00000001
00000100
00000000
00000010
,
00000000
00000000
00000000
00000000
00000000
00000000
00000000
00000000
00001000
00000000
00000100
00000000
00000000
00000000
00000010
00000000
00000000
00000000
00000000
00000000
00000000
00000000
00000000
00000000
00000001
00000000
00000000
00000001
00000000
00000000
00000100
00000000
,
00000000
00000100
00000000
00000000
00001000
00000000
00010000
00000000
00000000
00000000
00000000
00000000
00000000
00000000
00000000
00000000
00011000
00000000
00000000
00000000
00000000
00000000
00000000
00000000
00000000
00000000
00000000
00000000
00000000
00000000
00000000
00000000
,
00000000
00000000
00000000
00000000
;
#NOTES:
     dance-double:
     :
     Hard:
     17:
     :
00000000
00000000
00000000
00000000
,
00000000
00000000
00000000
00000000
,
00000000
00000000
00000000
00000000
,
00000000
00000000
00000000
00000000
,
00000000
00000000
00000000
00000000
,
00000000
00000000
00000000
00000000
,
10000000
01000000
00100000
00010000
10000000
00100000
01000000
00010000
,
10000000
00000000
00000000
01000000
00100000
01000000
00100000
00000000
00000000
00001000
00000000
00000000
00011000
00000000
00000000
00000000
00000000
00000000
00000000
00000000
00000000
00000000
00000000
00000000
,
00010000
00001000
00000010
00000001
00001000
00000100
00000010
00000001
00000100
00000010
00000100
00001000
,
00010000
00010000
00001000
00001000
00022000
00000000
00000000
00000000
,
00000000
00033000
00022000
00000000
,
00000000
00033000
00022000
00000000
,
00000000
00000000
00000000
00000000
00033000
00000000
00000000
00000000
00001000
00000000
00010000
00100000
00000000
01000000
00100000
00000000
,
10000000
00100000
00000000
10000000
00010000
00000000
00000000
00000000
10000000
00000000
01000000
10000000
00000000
01000000
00100000
01000000
,
00100000
00000000
00010000
00100000
00000000
00001000
00010000
00000000
00001000
00010000
00000100
00001000
00000000
00000000
00000010
00001000
,
00000001
00000000
00000000
00000000
00000000
00000000
00001000
00000000
00000000
00000100
00000000
00000000
00000000
00000000
00000000
00000010
00000000
00000000
00000001
00000000
00000000
00000000
00000000
00000000
00000001
00000000
00000000
00000000
00001000
00000000
00000000
00000000
00000000
00000000
00000000
00000000
00001000
00000000
00000000
00000000
00010000
00000000
00000000
00000000
00000000
00000000
00000000
00000000
,
00010000
10000000
00010000
10000000
00000000
00000000
20020000
00000000
00000000
00000000
00000000
00000000
,
30030000
00000000
00000000
00000000
10010000
00000000
00000000
00000000
10000000
00000000
01000000
00000000
00100000
00001000
00000000
00001000
,
00010000
00001000
00010000
00000000
00000100
00000000
00000010
00000000
00001000
00000000
00010000
00000000
00001000
00000000
00000100
00000000
,
00000110
00000000
00000000
00000000
00000000
00000000
00000001
00000000
00000001
00000000
00001000
00000100
00001000
00000100
00000000
00000010
,
00000001
00001000
00000001
00000000
00000100
00000000
00001000
00010000
00100000
00000000
10000000
01000000
00100000
00000000
00010000
10000000
,
01000000
00000000
00000000
00000000
00000000
00000000
00000000
00000000
00200000
00000000
00000000
00000000
00301000
00000000
00010000
00001000
00010000
00000000
00000000
00000000
00001000
00000000
00000010
00000000
00001000
00000000
00000000
00000000
00000010
00000000
00000001
00000000
,
00000010
00000001
00000000
00001000
00000001
00000000
00000100
00000000
00000010
00001000
00000100
00000000
00000010
00000001
00000100
00000000
,
00002000
00000000
00000000
00003000
00010000
00100000
10000000
00000000
00010000
00000000
01000000
00100000
01000000
00000000
00010000
00000000
,
02000000
03100000
02000000
03100000
00020000
00000000
00031000
00001000
00011000
00000000
00000000
00000000
00010000
00000000
00001000
00000000
,
00000010
00000000
00000000
00000001
00000000
00000000
00001000
00000000
00000000
00000100
00000000
00000000
00000010
00000000
00000000
00000001
00000010
00000001
00000010
00000000
00000000
00000001
00000000
00000000
,
00001000
00000000
00000001
00000010
00001000
00000000
00001000
00010000
,
00100000
00000000
10000000
00000000
00100000
00000000
00000000
00000000
10100000
00000000
00000000
00110000
00000000
00000000
00011000
00000000
,
00000000
00001100
00000000
00000000
00000101
00000000
00000000
00000000
00000001
00000010
00000110
00000100
00001000
00000010
00010010
00010000
,
00011000
00000000
00001000
00100000
00000000
00010000
01000000
00000000
01100000
00000000
00000000
00000000
10000000
00100000
10000000
00000000
11000000
00000000
01000000
00000000
00100000
00000000
00110000
00000000
00010000
00000000
00100000
00000000
00001000
00000000
00010000
00000000
,
00001000
00000000
00000000
00000000
00000010
00000000
00000000
00000001
00000000
00000000
00000100
00000000
00001000
00000000
00010000
00000000
00100000
00000000
00000000
00000000
10000000
00000000
00100000
00000000
10000000
00000000
00000000
00000000
00010000
00000000
01000000
00000000
,
00010000
00000000
10000000
00010000
10000000
00000000
01000000
00000000
00000000
00000000
01000000
00000000
00010000
00000000
00001000
00000000
,
00000010
00001000
00010000
00000000
00011000
00000000
00010000
00001000
,
00000100
00000000
00000001
00000000
00000000
00000000
00001001
00000000
00000000
00000000
00000001
00000010
00000100
00000000
00000010
00000100
,
00001000
00000000
00000000
00000000
00000000
00000000
00000100
00000000
00000000
00010000
00000000
00000000
00001000
00000000
00000000
00000000
00000000
00000000
00000000
00000000
00000000
00000000
00000000
00000000
00010000
00000000
00000000
00000000
00001000
00000000
01000000
00000000
00000000
00000000
00100000
00000000
10000000
00000000
00000000
00000000
01000000
00000000
00100000
00000000
00000000
00000000
00001000
00000000
,
00010000
00000000
00000100
00001000
00000010
00001000
00000100
00000000
00000000
00000110
00000000
00000000
00001001
00000000
00000000
00000001
00001000
00000100
00001000
00000000
00000100
00010000
00001000
00010000
,
00100000
00000000
00000000
00000000
00100000
00000000
01000000
00000000
00000000
00000000
10000000
00000000
01000000
00000000
00010000
00000000
00000000
00000000
10010000
00000000
00000000
00000000
00000000
00000000
10000000
00000000
00000000
00000000
00000000
00000000
00010000
00000000
00000000
00100000
00000000
00000000
01000000
00000000
00000000
00000000
00000000
00000000
10000000
00000000
00000000
01000000
00000000
00000000
,
00100000
00000000
00001000
00010000
00001000
00000000
00010000
00000000
00000000
00000000
00010000
00000000
00100000
00000000
00010000
00000000
,
00001000
00000100
00001000
00000000
00010000
00001000
00000010
00000001
,
00001000
00000000
00000100
00000000
00000010
00000000
00000001
00000000
00000000
00000000
00001000
00000010
00001000
00000010
00001000
00000010
,
00010000
00001000
00010000
00001000
00010000
00000000
00000000
00000000
00011000
00000000
00001000
00010000
00000000
00100000
10000000
00000000
,
10100000
00000000
00100000
01000000
00000000
00010000
01000000
00000000
01001000
00000000
00010000
00001000
00000000
00010000
00000100
00000000
,
00000110
00000000
00000010
00000001
00001000
00000000
00000000
00000000
00000001
00000100
00000010
00000000
00000100
00001000
00010000
00000000
,
00100000
01000000
00100000
10000000
00000000
00010000
00100000
00000000
01000000
00000000
00100000
00000000
10010000
00000000
00000000
00000000
,
20000000
00000000
32000000
03020000
,
00032000
00000000
00003020
00000000
,
00000031
00000100
00000100
00000001
00000010
00000010
00000011
00000000
00000001
00001000
00001000
00000010
00001000
00001000
00001100
00000000
,
00000100
00010000
00001000
00010000
00000000
00000000
00001000
00100000
00010000
00100000
00000000
00000000
00010000
01000000
00100000
10000000
00000000
00000000
00010000
00100000
01000000
10000000
00000000
00000000
,
00010000
10000000
01000000
00000000
00100000
00010000
01000000
00000000
,
00100000
10000000
00010000
00100000
00001000
00010000
00011000
00000000
,
00010000
00000000
00000000
00000000
00000000
00000000
00000100
00000000
00000000
00001000
00000000
00000000
00000000
00000000
00000000
00000100
00000000
00000000
00001000
00000000
00000000
00000000
00000000
00000000
00000010
00000000
00000000
00000000
00000000
00000000
00001000
00000000
00000001
00000000
00001000
00000000
00000001
00000000
00000000
00000000
00000000
00000000
00000100
00000000
00000000
00000000
00000000
00000000
,
00000001
00000000
00000010
00000100
00000010
00000000
00000001
00001000
00000010
00000000
00010000
00000000
00002000
00023000
00032000
00023000
,
00031000
00010000
00100000
10000000
00010000
00100000
01000000
00010000
,
00011000
00000000
00000000
00010100
00000000
00000000
00000110
00000000
00000000
00000011
00000000
00000000
00000101
00000000
00000010
00000000
00000220
00000000
00000000
00000000
00000000
00000000
00000000
00000000
00000000
00000000
00000000
00000000
00000000
00000000
00000000
00000000
,
00000000
00000000
00000000
00000000
00000330
00000000
00000000
00000000
00000001
00000000
00000100
00000000
00001000
00000000
00010000
00000000
00200000
00000000
10300000
01000000
00010000
00000000
00001000
00000000
00011000
00000000
00000000
00000000
00010000
00000000
00000010
00000000
,
00000000
00000010
00001000
00000000
00000100
00000000
00000010
00000001
00000000
00000001
00000100
00000000
00000010
00000000
00010000
00000010
,
00010000
00000000
00001000
00010000
00001000
00000000
01000000
00010000
00100000
01000000
00000000
01100000
00000000
00000000
10000000
00010000
,
10000000
00000000
00100000
01000000
00100000
00000000
00010000
00001000
00010000
00000000
00011000
00000000
00000000
00000000
00001000
00000010
,
00001000
00000000
00010000
00000000
01000000
00000000
10000000
00000000
00100000
01000000
00100000
00000000
20000000
00000000
32000000
00000000
,
03200000
00320000
00032000
00003200
00000320
00000032
00000003
00000001
,
00001000
00000000
00000000
00000010
00000000
00000000
00000100
00000000
00000000
00000000
00000000
00000000
00000001
00000000
00000000
00000000
00000000
00000000
00000010
00000000
00000000
00000100
00000000
00000000
00000010
00000000
00000000
00001000
00000000
00000000
00000010
00000000
00000000
00000000
00000000
00000000
00001000
00000000
00000000
00000000
00000000
00000000
00010000
00000000
00001000
00000000
00010000
00000000
,
00001000
00000000
00000000
01000000
00000000
00000000
00010000
01000000
00010000
01000000
00000000
00000000
00100000
00000000
00000000
10100000
00000000
00000000
01010000
00000000
00000000
00001010
00000000
00000000
,
00000101
00000000
00000001
00000100
00000010
00000000
00001000
00000000
00000001
00000000
00000010
00000000
00001000
00000000
00010000
00000000
,
00001000
00000000
00000000
00000000
00000000
00000000
00010000
00000000
00001000
00000000
00010000
00000000
00001000
00000000
00000000
00000000
00000000
00000000
00010000
00000000
00000000
00000000
00000000
00000000
00011000
00000000
00000000
00000000
00000000
00000000
00000000
00000000
00000000
00000000
00000000
00000000
00001000
00000000
00000000
01000000
00000000
00000000
00001000
00000000
00000000
01000000
00000000
00000000
,
00010000
00100000
00100000
10000000
01000000
01000000
00010000
00010000
,
00001000
00000000
00000000
00001000
00000000
00000000
00000010
00000000
00000000
00000010
00000000
00000000
00000001
00000000
00000000
00001000
00000001
00001000
00000001
00000000
00000000
00000000
00000000
00000000
,
00000100
00000001
00000100
00000001
00001000
00000100
00001000
00000100
00010000
00001000
00010000
00001000
00020000
00000000
00030000
00000000
,
00001000
01000000
00001000
01000000
00010000
00100000
00010000
00100000
01000000
10000000
01000000
10000000
00020000
00000000
00030000
00000000
,
10000000
01000000
10000000
00100000
01000000
00100000
01000000
00010000
00100000
00001000
00010000
00001000
00010000
00000100
00001000
00000010
,
00000100
00000000
00000000
00000100
00000000
00000000
00000001
00001000
00000001
00000000
00000100
00001000
00000000
00000100
00000001
00000000
,
00000010
00001000
00000000
00010000
00001000
00000000
00000000
00000000
00010000
00000000
00100000
10000000
00000000
00100000
00010000
00000000
,
00001000
00010000
00000000
01000000
10000000
00000000
00000000
00000000
10000000
00000000
01000000
00010000
00000000
00010000
00001000
00000000
,
00001000
00000000
00000000
00000010
00000000
00000000
00000000
00000000
00000000
00000010
00000000
00000000
00000001
00000000
00000000
00000000
00000000
00000000
00000000
00000000
00000000
00000000
00000000
00000000
00000001
00000000
00000100
00000000
00001000
00000000
00010000
00000000
00100000
00000000
10000000
00000000
00020000
00000000
00000000
00000000
00000000
00000000
00000000
00000000
00000000
00000000
00000000
00000000
,
10030000
01000000
00000000
01100000
00000000
00100000
00001000
00010000
01000000
00100000
00000000
00101000
00000000
00001000
00010000
00000100
,
00001000
00000010
00000000
00010010
00000000
00010000
00001000
00000100
00000002
00000000
00000003
00000000
00000001
00000100
00000000
00000110
,
00000000
00000000
00000010
00000000
00010000
00000000
00001000
00000000
00000100
00000000
00000010
00000000
00000000
00000000
00010010
00000000
00000000
00000000
00010000
00000000
00001000
00000000
01000000
00000000
00010000
00000000
00000000
01100000
00000000
00000000
10000000
00000000
,
00000000
01100000
00000000
00000000
00001000
00000000
00010000
00000000
00000000
00000000
00000000
00000000
00000000
00000000
00000000
00000000
00011000
00000000
00000000
00000000
00000000
00000000
00000000
00000000
00000000
00000000
00000000
00000000
00000000
00000000
00000000
00000000
,
00000000
00000000
00000000
00000000
;
