
//----- song ID: aure -----//
#TITLE:Are U Ready;
#ARTIST:Shouya Namai;
#BANNER:Are U Ready.png;
#BACKGROUND:Are U Ready-bg.png;
#CDTITLE:./CDTitles/DDR A3.png;
#MUSIC:Are U Ready.ogg;
#SAMPLESTART:88.259;
#SAMPLELENGTH:15;
#BPMS:0=155;
#STAGE:1;
#NOTES:
     dance-single:
     :
     Beginner:
     3:
     :
0000
0000
0000
0000
,
0000
0000
0000
0000
,
0000
0000
0000
0000
,
0000
0000
0000
0000
,
0000
0000
0000
0000
,
0000
0000
0000
0000
,
0001
0000
0001
0000
,
0100
0000
0000
0000
,
0010
0000
0010
0000
,
1000
0000
0000
0000
,
1001
0000
0000
0000
,
0000
0000
0000
0000
,
1001
0000
0000
0000
,
0000
0000
0000
0000
,
1000
0000
0100
0000
,
1000
0010
1000
0000
,
0010
0000
0001
0000
,
1001
0000
0000
0000
,
0001
0000
0100
0000
,
0001
0000
0010
0000
,
0100
0000
0010
0000
,
1000
0000
0000
0000
,
1000
0000
0100
0000
,
1000
0000
0010
0000
,
0100
0000
0010
0000
,
0001
0000
0000
0000
,
0001
0001
0010
0000
,
0001
0100
0001
0000
,
1001
0000
0000
0000
,
0000
0000
0000
0000
,
1000
1000
0010
0000
,
1000
0100
1000
0000
,
1000
0000
0100
0000
,
0010
0000
0000
0000
,
0002
0000
0000
0000
,
0003
0000
0000
0000
,
0020
0000
0000
0000
,
0030
0000
0000
0000
,
0200
0000
0000
0000
,
0300
0000
0000
0000
,
2000
0000
0000
0000
,
3000
0000
0000
0000
,
1000
0000
0000
0000
,
0100
0000
0000
0000
,
0010
0000
0000
0000
,
0000
0000
0000
0000
,
0001
0000
0000
0000
,
0010
0000
0000
0000
,
0100
0000
0000
0000
,
0000
0000
0000
0000
,
1000
0000
0010
0000
,
0100
0000
0000
0000
,
0010
0000
1000
0000
,
0100
0000
0000
0000
,
0001
0000
0010
0000
,
0100
0000
0000
0000
,
0010
0000
0001
0000
,
0100
0000
0000
0000
,
0001
0000
0100
0000
,
0010
0010
0001
0000
,
0010
0000
0000
0000
,
1000
0000
0000
0000
,
1000
0000
0100
0000
,
0010
0010
1000
0000
,
0010
0000
0000
0000
,
0001
0000
0000
0000
,
0001
0001
0100
0000
,
0010
0010
0001
0000
,
1001
0000
0000
0000
,
0000
0000
0000
0000
,
1000
1000
0100
0000
,
0010
0010
1000
0000
,
1001
0000
0000
0000
,
0000
0000
0000
0000
,
1001
0000
0000
0000
,
0000
0000
0000
0000
;
#NOTES:
     dance-single:
     :
     Easy:
     7:
     :
0000
0000
0000
0000
,
0000
0000
0000
0000
,
0000
0000
0000
0000
,
0000
0000
0000
0000
,
0000
0000
0000
0000
,
0000
0000
0000
0000
,
0001
0100
0001
0100
,
0001
1000
0001
0000
,
1000
0100
1000
0100
,
1000
0001
1000
0000
,
0010
0010
0010
0000
,
1000
1000
1000
0000
,
0100
0100
0100
0000
,
0001
0001
0001
0000
,
0010
1000
0010
1000
,
0100
0010
0100
0010
,
0001
0100
0001
1000
,
2002
0000
0000
3003
,
0001
0100
0001
0010
,
0001
0100
0010
0000
,
1000
0100
1000
0010
,
1000
0100
0010
0000
,
0001
0100
0010
1000
,
0010
0100
0001
0000
,
1000
0100
0010
0001
,
0010
0100
1000
0000
,
0001
0001
0001
0000
,
1000
0000
1000
0000
0100
0010
0100
0000
,
1000
1000
1000
0000
,
0001
0000
0001
0000
0100
0010
0100
0000
,
0001
0100
0101
0000
,
1000
0010
1010
0000
,
1100
0000
0011
0000
,
0001
1000
1001
0000
,
0001
0000
1000
0000
,
0001
0000
0000
0000
,
0100
0000
0010
0000
,
0100
0000
0000
0000
,
0001
0000
0010
0000
,
0100
0000
0000
0000
,
1000
0000
0010
0000
,
0100
0000
0000
0000
,
0002
0000
1003
0000
,
0010
1000
0010
0000
,
2000
0000
3001
0000
,
0100
0001
0100
0000
,
0020
0000
0130
0000
,
0001
1000
0010
0000
,
0200
0000
0310
0000
,
0220
0000
0000
0330
,
1000
0100
1000
0001
,
1000
0100
1000
0000
,
0001
0100
0001
1000
,
0001
0100
0001
0000
,
1000
0000
0010
0000
0100
0001
0100
0000
,
0001
0000
0010
0000
0100
1000
0100
0000
,
1000
0001
1000
0000
0001
1000
0001
0000
,
2002
0000
0000
3003
,
1000
0000
0010
0000
0100
0001
0100
0000
,
0001
0010
0001
0000
1000
0000
0000
0000
,
0001
0000
1000
0000
0010
1000
0010
0000
,
0100
0001
0100
0000
0001
0000
0000
0000
,
1000
0000
0001
0000
1000
0100
0010
0000
,
0001
1000
0001
0000
0100
0000
0000
0000
,
0001
0000
1000
0000
0001
0100
0010
0000
,
1000
0001
1000
0000
0001
0000
0000
0000
,
1000
0010
0100
0001
,
1000
0001
1000
0001
1000
0000
0000
0000
,
0001
0100
0010
1000
,
0001
1000
0001
1000
0001
0000
0000
0000
,
0010
0001
1000
0100
,
0010
0100
0010
0100
0010
0000
0000
0000
,
0001
0100
0010
1000
,
0010
0100
0010
0100
0010
0000
0000
0000
,
0110
0000
0000
0000
,
0000
0000
0000
0000
;
#NOTES:
     dance-single:
     :
     Medium:
     11:
     :
0000
0000
0000
0000
,
0000
0000
0000
0000
,
0000
0000
0000
0000
,
0000
0000
0000
0000
,
0000
0000
0000
0000
,
0000
0000
0000
0000
,
1000
0100
1000
0100
0000
0010
0001
0010
,
0000
0001
1000
0002
0000
0000
0003
0000
,
0001
0100
0001
0100
0000
0010
1000
0010
,
0000
1000
0001
2000
0000
0000
3000
0000
,
0001
0000
0001
0000
0100
0010
0100
0000
,
1000
0000
1000
0000
0100
0010
0100
0000
,
0001
0010
0100
0000
1000
0010
0100
0000
,
0101
0000
1100
0000
0001
1000
1001
0000
,
0001
0100
0001
0000
0001
0010
0001
0000
,
1000
0100
1000
0000
1000
0010
1000
0000
,
0001
0100
1000
0100
0001
0010
0001
2002
,
0000
0000
0000
3003
,
0010
1000
0100
1000
0000
0010
0100
0001
,
0000
0010
0001
2000
0000
0000
3000
0000
,
0100
1000
0010
1000
0000
0001
0100
0010
,
0000
0100
0001
2000
0000
0000
3000
0000
,
1000
0100
0010
0001
0000
0100
0010
0100
,
0000
0001
0100
0002
0000
0000
0003
0000
,
0010
0001
1000
0100
0000
0010
0100
1000
,
0000
0010
1000
0002
0000
0000
0003
0000
,
0001
0001
0001
0000
1000
1000
1000
0000
,
0010
1000
0100
0010
0001
0100
0010
0000
,
0100
0100
0100
0000
0010
0010
0010
0000
,
1000
0010
0100
0010
1000
0001
0100
0000
,
0001
0010
0011
0000
1000
0010
1010
0000
,
0001
0100
1000
0100
0001
1000
1000
0000
,
0001
0100
0101
0000
1000
0100
1100
0000
,
1000
0000
0100
0000
0001
0000
0000
0110
0000
0000
0000
0000
0000
0000
0000
0000
,
2002
0000
0000
0000
,
0000
0000
0000
3003
,
0220
0000
0000
0000
,
0000
0000
0000
0330
,
0022
0000
0000
0000
,
0000
0000
0000
0033
,
2200
0000
0000
0000
,
0000
0000
0000
3300
,
1000
0100
0010
0001
,
1000
0000
0100
0000
0010
0001
0010
0000
,
0001
0100
0010
1000
,
0001
0000
0100
0000
0010
1000
0010
0000
,
1000
0100
0001
0100
,
1000
0010
0001
0010
,
1000
0001
0100
0010
,
0220
0000
0000
0330
,
0001
0000
1000
0000
0001
1000
0001
0000
,
0100
0010
0100
0010
1000
0000
0000
0000
,
0001
0000
1000
0000
0001
1000
0001
0000
,
0010
0001
0100
0001
0010
0000
1001
0000
,
1000
0100
1000
0000
0010
0100
0010
0000
,
0100
0001
0100
0000
0001
0010
0001
0000
,
1000
0100
1000
0010
0100
0001
0100
0010
,
2002
0000
0000
3003
,
0001
0100
0010
1000
0100
0010
0001
0100
,
1000
0100
0001
0100
0010
1000
0001
0000
,
1000
0100
0010
0001
0100
0010
1000
0010
,
0100
1000
0100
0001
1000
0000
1001
0000
,
1000
0010
0100
0001
0010
0100
1000
0010
,
0001
0010
1000
0010
0100
0001
1000
0000
,
0001
0010
0100
1000
0010
0100
0001
0100
,
0010
0000
0001
0000
0010
0000
0000
1000
0000
0000
1001
0000
0000
0000
0000
0000
,
0001
0000
0100
0000
0010
0000
0000
1010
0000
0000
1000
0000
0001
0000
0100
0000
,
0001
0000
0010
0000
0100
0000
0000
0110
0000
0000
0001
0000
1000
0000
0100
0000
,
0010
0000
0001
0000
0100
0000
0000
0101
0000
0000
0001
0000
1000
0000
0010
0000
,
1000
0000
0100
0000
1000
0000
0000
1001
0000
0000
0010
0000
0100
0000
0000
0000
,
0001
0000
0100
0000
0001
0100
0000
0001
0000
0000
0010
0000
0100
0000
0000
0000
,
1000
0000
0010
0000
1000
0010
0000
1000
0000
0000
0100
0000
0010
0000
0000
0000
,
0001
0001
0001
0000
1000
1000
1000
0000
,
0010
0000
0100
0000
0010
0100
0000
0010
0000
0000
0110
0000
0000
0000
0000
0000
,
1001
0000
0000
0000
,
0000
0000
0000
0000
;
#NOTES:
     dance-single:
     :
     Hard:
     13:
     :
0000
0000
0000
0000
,
0000
0000
0000
0000
,
0000
0000
0000
0000
,
0000
0000
0000
0000
,
0000
0000
0000
0000
,
0000
0000
0000
0000
0000
0000
0000
0000
0000
0000
0000
0000
1000
0001
1000
0001
,
1000
0100
0010
0001
0000
0001
0100
0010
,
0000
0000
1000
0000
0001
0000
1000
0000
0000
0000
0000
0000
0001
1000
0001
1000
,
0001
0100
0010
1000
0000
1000
0100
0010
,
0000
0001
1000
0002
0000
0000
0003
0000
,
1001
0001
0010
0000
1001
1000
0010
0000
,
1001
0001
0100
0000
1001
1000
0100
0000
,
1010
0010
0100
0000
0011
0010
0100
0000
,
1100
0000
0100
0000
0010
0000
0000
0000
0101
0000
0100
0000
0010
0100
0010
0100
,
0010
0010
1000
1000
0100
0100
0010
0010
,
0001
0001
0100
0100
0010
0010
1000
1000
,
0001
0100
0001
0000
0010
0000
0001
0000
1000
0100
1000
0000
0010
0000
2002
0000
,
0000
0000
0000
0000
0000
0000
0000
0000
3003
0000
0000
0000
0001
0100
0001
0100
,
0001
1000
0010
1000
0000
1000
0100
1000
,
0000
0000
0100
0000
0010
0000
0001
0000
0000
0000
0000
0000
1000
0010
1000
0010
,
1000
0010
0100
0001
0000
0001
0010
0100
,
0000
0000
1000
0000
0010
0000
1000
0000
0000
0000
0000
0000
0001
0010
0001
0010
,
0001
0100
0001
0010
0000
0010
0100
1000
,
0000
0000
0010
0000
1000
0000
0001
0000
0000
0000
0000
0000
1000
0100
1000
0100
,
1000
0010
1000
0100
0000
0100
0010
0001
,
0000
0100
0001
2002
0000
0000
3003
0000
,
0001
0000
0010
0000
0100
1000
0000
0100
1000
0000
0001
0000
0100
0010
0000
0100
,
0010
0000
1000
0000
0100
0010
0000
0001
0010
0000
0100
0000
1000
0000
0000
0000
,
0010
0000
0100
0000
0001
0100
0000
0001
0100
0000
0010
0000
1000
0001
0000
1000
,
0001
0000
0010
0000
0001
0100
0000
0010
1000
0000
1000
0000
0001
0100
0001
0000
,
1000
0000
0100
0000
0010
0001
0000
0010
0001
0000
1000
0000
0010
0100
0000
0010
,
0100
0000
0001
0000
0010
0100
0000
1000
0100
0000
0010
0000
0001
0000
0000
0000
,
0100
0000
0010
0000
1000
0010
0000
1000
0010
0000
0100
0000
0001
1000
0000
0001
,
1000
0000
0100
0000
1000
0010
0000
0220
0000
0000
0000
0000
0330
0000
0000
0000
,
2002
0000
0000
0003
,
0200
0000
0000
3300
,
2002
0000
0000
3000
,
0200
0000
0000
0303
,
2002
0000
0000
0003
,
0020
0000
0000
3030
,
2002
0000
0000
3000
,
0020
0000
0000
0000
0000
0000
0000
0000
0033
0000
0000
0000
0001
1000
0001
1000
,
0001
0010
0001
0000
1000
0100
1000
0100
,
0000
0100
0010
0001
0010
0000
1001
0000
,
1000
0010
1000
0000
0001
0100
0001
0100
,
0000
0100
0010
1000
0010
0000
1001
0000
,
0001
0000
0100
0000
1000
0100
0001
0000
,
1000
0000
0100
0000
0001
0100
1000
0000
,
0001
0000
0010
0000
1000
0010
0001
0000
,
0002
0000
0000
2000
0000
0000
3003
0000
,
1000
0100
1000
0000
1000
0001
1000
0000
,
1000
0010
1000
0100
0010
0001
1000
0000
,
0001
0100
0001
0000
0001
1000
0001
0000
,
0001
0010
0001
0100
0010
2000
3002
2003
,
3010
1000
0010
1000
0100
0001
0100
0010
,
0001
0100
0001
0100
1000
0100
0010
0100
,
0010
1000
0010
0000
1000
0000
0100
0000
0010
0001
0010
0000
0001
0000
1000
0000
,
2002
0000
0000
3003
,
1000
0000
0100
0000
0010
0001
0000
0001
0000
0010
0001
0000
0100
0000
0000
0000
,
0001
0000
0100
0000
0010
1000
0010
1000
0000
0000
0001
0000
1000
0000
0000
0000
,
0001
0000
0100
0000
0010
1000
0000
1000
0000
0010
1000
0000
0100
0000
0000
0000
,
1000
0000
0100
0000
0010
0001
0010
0001
0000
0000
1000
0000
1001
0000
0000
0000
,
1000
0000
0001
0000
0100
0001
0000
0001
0000
0010
0100
0000
1000
0000
0000
0000
,
0010
0000
1000
0000
0001
0100
0001
1000
0000
0000
0010
0000
0100
0000
0000
0000
,
0001
0000
1000
0000
0100
1000
0000
1000
0000
0010
0100
0000
0001
0000
0000
0000
,
0010
0000
0001
0000
1000
0100
1000
0001
0000
0000
1001
0000
0000
0000
0000
0000
,
1000
0000
0010
0000
0100
0001
0010
0001
0000
0000
0011
0000
1001
0000
0000
0000
,
0001
0000
0010
0000
0100
1000
0010
1000
0000
0000
1010
0000
1001
0000
0000
0000
,
1000
0000
0010
0000
0100
0010
1000
0100
0000
0000
0110
0000
0011
0000
0000
0000
,
0001
0000
0100
0000
0010
0100
0001
0010
0000
0000
0110
0000
1100
0000
0000
0000
,
1000
0000
0001
0000
0100
0010
1000
0010
0000
0100
0001
0000
0010
0000
0001
0000
,
1000
0000
0100
0000
0010
0001
1000
0001
0000
0100
0010
0000
1000
0010
1000
0010
,
1000
0000
1000
0000
0001
0100
0000
0100
0000
0010
0100
0000
0001
0000
1000
0000
,
0100
0000
0010
0000
0001
0100
0010
1000
0000
0000
0001
0000
1000
0100
1000
0100
,
0010
0000
0000
0000
,
0000
0000
0000
0000
;
#NOTES:
     dance-double:
     :
     Easy:
     7:
     :
00000000
00000000
00000000
00000000
,
00000000
00000000
00000000
00000000
,
00000000
00000000
00000000
00000000
,
00000000
00000000
00000000
00000000
,
00000000
00000000
00000000
00000000
,
00000000
00000000
00000000
00000000
,
00000001
00000010
00000001
00000010
,
00000100
00001000
00000100
00000000
,
00001000
00000010
00001000
00000010
,
00010000
00001000
00010000
00000000
,
00001000
01000000
00010000
00000000
,
00100000
00010000
01000000
00000000
,
00100000
10000000
01000000
00000000
,
00100000
00001000
00010000
00000000
,
00001000
00010000
00000100
00001000
,
00000010
00000100
00000001
00000010
,
00000100
00001000
00000100
00010000
,
00022000
00000000
00000000
00033000
,
00010000
00001000
00010000
00001000
,
01000000
00010000
01000000
00000000
,
00100000
10000000
00100000
10000000
,
01000000
00100000
00010000
00000000
,
00100000
00001000
00100000
00001000
,
00010000
00001000
00010000
00000000
,
00000010
00001000
00000010
00001000
,
00000100
00000010
00000001
00000000
,
00000001
00000001
00000001
00000000
,
00001000
00000000
00001000
00000000
00000100
00000010
00000100
00000000
,
00010000
00010000
00010000
00000000
,
00001000
00000000
00001000
00000000
01000000
00100000
01000000
00000000
,
00010000
00010000
00010000
00000000
,
10000000
10000000
10000000
00000000
,
11000000
00000000
00110000
00000000
,
00010000
10000000
10010000
00000000
,
00100000
00000000
00100000
00000000
,
00001000
00000000
00000000
00000000
,
00001000
00000000
00001000
00000000
,
00010000
00000000
00000000
00000000
,
00010000
00000000
00010000
00000000
,
00000100
00000000
00000000
00000000
,
00000100
00000000
00000100
00000000
,
00001000
00000000
00000000
00000000
,
00000002
00000000
00000103
00000000
,
00000010
00001000
00000010
00000000
,
00020000
00000000
00031000
00000000
,
01000000
00010000
00100000
00000000
,
02000000
00000000
13000000
00000000
,
00010000
00100000
00001000
00000000
,
00010000
00010000
00001000
00000000
,
00022000
00000000
00000000
00033000
,
00000100
00001000
00000010
00001000
,
00000100
00000010
00000001
00000000
,
00000100
00000010
00001000
00000100
,
00010000
00000100
00001000
00000000
,
00000010
00000000
00010000
00000000
00001000
00010000
00001000
00000000
,
01000000
00000000
00010000
00000000
00100000
01000000
00100000
00000000
,
00010000
00000000
10000000
00000000
01000000
00100000
00010000
00000000
,
02200000
00000000
00000000
03300000
,
10000000
00000000
00100000
00000000
01000000
00001000
01000000
00000000
,
00001000
00010000
00001000
00000000
00010000
00000000
00000000
00000000
,
00000100
00000000
00001000
00000000
00000010
00000100
00000010
00000000
,
00001000
00000100
00001000
00000000
00000001
00000000
00000000
00000000
,
00000001
00000000
00000100
00000000
00000010
00001000
00000001
00000000
,
00000100
00000010
00001000
00000000
00000100
00000000
00000000
00000000
,
00001000
00000000
00000100
00000000
00010000
00001000
00010000
00000000
,
00001000
01000000
00010000
00000000
00100000
00000000
00000000
00000000
,
00010000
01000000
00100000
10000000
,
01000000
00100000
01000000
00100000
01000000
00000000
00000000
00000000
,
00100000
01000000
10000000
00010000
,
01000000
00001000
00010000
00001000
00010000
00000000
00000000
00000000
,
00001000
00010000
00000100
00001000
,
00000010
00000100
00000010
00000100
00000010
00000000
00000000
00000000
,
00001000
00000001
00000100
00001000
,
00010000
00001000
00010000
00001000
00010000
00000000
00000000
00000000
,
00011000
00000000
00000000
00000000
,
00000000
00000000
00000000
00000000
;
#NOTES:
     dance-double:
     :
     Medium:
     10:
     :
00000000
00000000
00000000
00000000
,
00000000
00000000
00000000
00000000
,
00000000
00000000
00000000
00000000
,
00000000
00000000
00000000
00000000
,
00000000
00000000
00000000
00000000
,
00000000
00000000
00000000
00000000
,
00001000
00000010
00001000
00000010
00000000
00000100
00000001
00000100
,
00000000
00000001
00001000
00000002
00000000
00000000
00000003
00000000
,
00000100
00000001
00000100
00000001
00000000
00001000
00000100
00001000
,
00000000
00000100
00010000
00002000
00000000
00000000
00003000
00000000
,
00100000
00000000
00100000
00000000
00010000
01000000
00010000
00000000
,
10000000
01000000
00100000
00010000
,
00100000
00000000
00100000
00000000
00001000
00010000
00001000
00000000
,
00000010
00000000
00000001
00000000
00000100
00000010
00000110
00000000
,
00000001
00000100
00000001
00000100
00000010
00001000
00000010
00000000
,
00010000
00001000
00010000
00001000
01000000
00010000
01000000
00000000
,
00100000
10000000
01000000
00100000
00001000
00010000
00001000
00022000
,
00000000
00000000
00000000
00033000
,
00010000
00001000
00000010
00000100
00000000
00001000
00000010
00000100
,
00000000
00000001
00000100
00000020
00000000
00000000
00000030
00000000
,
00000010
00000100
00001000
00010000
00000000
00100000
01000000
00100000
,
00000000
10000000
00010000
02000000
00000000
00000000
03000000
00000000
,
00100000
10000000
01000000
00100000
00000000
00001000
00010000
00001000
,
00000000
00000010
00000100
00002000
00000000
00000000
00003000
00000000
,
00000001
00000100
00001000
00000100
00000000
00000001
00000010
00000100
,
00000000
00010000
00001000
00020000
00000000
00000000
00030000
00000000
,
00001000
00010000
00001000
00010000
01000000
10000000
01000000
10000000
,
00100000
10000000
01000000
00100000
00010000
00000000
00011000
00000000
,
00010000
00001000
00010000
00001000
00000100
00000001
00000100
00000001
,
00000010
00000001
00000100
00000010
00001000
00000000
00011000
00000000
,
00001000
00001000
00001000
00000000
00010000
00010000
00010000
00000000
,
00001000
00001000
00010000
00010000
00001000
00010000
00011000
00000000
,
00001000
01000000
00010000
00100000
00001000
00100000
00010000
01000000
,
00100000
00000000
10000000
00000000
00010000
00000000
00000000
10010000
00000000
00000000
00000000
00000000
00000000
00000000
00000000
00000000
,
20000000
00000000
32000000
00000000
,
03200000
00000000
00310000
00000000
,
00002000
00000000
00003200
00000000
,
00000320
00000000
00000031
00000000
,
00000002
00000000
00000203
00000000
,
00000320
00000000
00001030
00000000
,
00020000
00000000
02030000
00000000
,
03200000
00000000
10300000
00000000
,
10000000
00100000
10000000
01000000
,
00100000
00000000
00001000
00000000
00010000
00001000
00010000
00000000
,
00000100
00001000
00000010
00001000
,
00000100
00000000
00000010
00000000
00000001
00001000
00000001
00000000
,
00000100
00001000
00010000
00010000
,
00100000
10000000
00010000
00010000
,
10000000
01000000
00010000
00001000
,
00022000
00000000
00000000
00033000
,
00001000
00000000
00010000
00000000
00000100
00001000
00000010
00000000
,
00000100
00000001
00000010
00000001
00000100
00000000
00000000
00000000
,
00001000
00000000
00010000
00000000
00100000
10000000
01000000
00000000
,
00100000
00010000
01000000
00010000
00100000
00000000
10010000
00000000
,
10000000
01000000
10000000
01000000
00010000
01000000
00010000
00000000
,
00001000
00000010
00001000
00000010
00000001
00000010
00000001
00000000
,
00000100
00000001
00000100
00000010
00000100
00001000
00010000
00001000
,
00022000
00000000
00000000
00033000
,
00001000
01000000
00010000
00100000
01000000
10000000
00100000
01000000
,
00010000
00100000
00001000
00100000
00010000
01000000
00100000
00000000
,
01000000
00001000
00010000
00001000
00010000
00000100
00001000
00000010
,
00000100
00000001
00000010
00000001
00000100
00000010
00001000
00000000
,
00000001
00000100
00000001
00000010
00000100
00001000
00000100
00010000
,
00001000
00010000
00000010
00000100
00001000
00010000
00100000
00000000
,
01000000
00010000
01000000
10000000
01000000
00100000
10000000
01000000
,
00100000
00000000
00010000
00000000
00100000
00000000
00000000
00001000
00000000
00000000
00011000
00000000
00000000
00000000
00000000
00000000
,
00010000
00000000
00001000
00000000
00000010
00000000
00000000
00000001
00000000
00000000
00000011
00000000
00001000
00000000
00000001
00000000
,
00000100
00000010
00010000
00001000
00100000
00010000
01000000
00000000
,
00010000
00000000
10000000
00000000
01000000
00000000
00000000
00100000
00000000
00000000
00110000
00000000
10000000
00000000
00010000
00000000
,
10000000
00100000
01000000
00010000
00100000
00001000
00010000
00000000
,
00001000
00000000
00010000
00000000
00001000
00000100
00000000
00000010
00000000
00000000
00000100
00000000
00000001
00000000
00000000
00000000
,
00000010
00000000
00000100
00000000
00000010
00000001
00000000
00001000
00000000
00000000
00000100
00000000
00010000
00000000
00000000
00000000
,
00001000
00001000
00001000
00000000
00010000
00010000
00010000
00000000
,
00100000
00000000
10000000
00000000
00100000
01000000
00000000
00100000
00000000
00000000
01100000
00000000
00000000
00000000
00000000
00000000
,
10010000
00000000
00000000
00000000
,
00000000
00000000
00000000
00000000
;
#NOTES:
     dance-double:
     :
     Hard:
     13:
     :
00000000
00000000
00000000
00000000
,
00000000
00000000
00000000
00000000
,
00000000
00000000
00000000
00000000
,
00000000
00000000
00000000
00000000
,
00000000
00000000
00000000
00000000
,
00000000
00000000
00000000
00000000
00000000
00000000
00000000
00000000
00000000
00000000
00000000
00000000
00010000
00001000
00010000
00001000
,
00010000
00001000
00000010
00000001
00000000
00000001
00000100
00000010
,
00000000
00000000
00000010
00000000
00010000
00000000
00001000
00000000
00000000
00000000
00000000
00000000
00001000
00010000
00001000
00010000
,
00001000
00010000
00100000
10000000
00000000
10000000
01000000
00100000
,
00000000
00100000
00001000
00020000
00000000
00000000
00030000
00000000
,
00001000
00010000
00001000
00010000
00001000
00000010
00000001
00001000
,
00000010
00000100
00000010
00000100
00001000
00010000
00100000
01000000
,
00010000
00100000
00010000
00100000
01000000
10000000
00010000
01000000
,
00100000
00000000
01000000
00000000
00100000
00000000
01000000
00000000
00100000
00000000
00010000
00000000
00001000
00010000
00001000
00010000
,
00001000
00001000
00010000
00010000
00000100
00000100
00000010
00000010
,
00000001
00000001
00000100
00000100
00001000
00001000
00010000
00010000
,
00100000
01000000
00100000
00000000
10000000
00000000
00010000
00000000
00100000
01000000
00100000
00000000
00010000
00000000
20020000
00000000
,
00000000
00000000
00000000
00000000
00000000
00000000
00000000
00000000
30030000
00000000
00000000
00000000
10000000
01000000
10000000
01000000
,
10000000
01000000
00100000
00010000
00000000
00010000
01000000
00001000
,
00000000
00000000
00001000
00000000
00010000
00000000
00001000
00000000
00000000
00000000
00000000
00000000
00010000
00001000
00010000
00001000
,
00010000
00000100
00001000
00000010
00000000
00000010
00001000
00000100
,
00000000
00000000
00000100
00000000
00000010
00000000
00000001
00000000
00000000
00000000
00000000
00000000
00001000
00000010
00001000
00000010
,
00001000
00000001
00000100
00000010
00000000
00000010
00010000
00001000
,
00000000
00000000
00001000
00000000
00100000
00000000
00010000
00000000
00000000
00000000
00000000
00000000
01000000
00010000
01000000
00010000
,
01000000
00010000
00100000
01000000
00000000
01000000
10000000
01000000
,
00000000
00010000
00001000
00022000
00000000
00000000
00033000
00000000
,
00001000
00000000
00010000
00000000
00000010
00001000
00000000
00000010
00001000
00000000
00000100
00000000
00000010
00000001
00000000
00000010
,
00000001
00000000
00000100
00000000
00000010
00001000
00000000
00000100
00001000
00000000
00000100
00000000
00010000
00000000
00000000
00000000
,
00001000
00000000
00100000
00000000
00010000
01000000
00000000
00010000
01000000
00000000
00100000
00000000
10000000
01000000
00000000
10000000
,
01000000
00000000
00100000
00000000
00001000
01000000
00000000
00001000
00010000
00000000
00010000
00000000
00001000
00010000
00001000
00000000
,
00010000
00000000
00000010
00000000
00001000
00000100
00000000
00001000
00000100
00000000
00000010
00000000
00000001
00001000
00000000
00000001
,
00001000
00000000
00000001
00000000
00000010
00000100
00000000
00010000
00001000
00000000
00010000
00000000
00001000
00000000
00000000
00000000
,
01000000
00000000
00010000
00000000
00100000
01000000
00000000
00100000
01000000
00000000
10000000
00000000
00100000
01000000
00000000
00100000
,
01000000
00000000
00001000
00000000
00010000
00001000
00000000
00022000
00000000
00000000
00000000
00000000
00033000
00000000
00000000
00000000
,
00020000
00000000
00030200
00000000
,
00000320
00000000
00000000
00000030
,
00000002
00000000
00000203
00000000
,
00002300
00000000
00000000
00003000
,
00020000
00000000
00230000
00000000
,
20300000
00000000
00000000
30000000
,
02000000
00000000
03020000
00000000
,
00030200
00000000
00000000
00000000
00000000
00000000
00000000
00000000
00000000
00000000
00000000
00000000
00000310
00000100
00000010
00000100
,
00000010
00000001
00000010
00000000
00000100
00001000
00000100
00010000
,
00000000
00010000
00000010
00001000
00000100
00010000
00000010
00000000
,
00000100
00001000
00010000
00000000
00010000
00100000
01000000
00100000
,
00000000
01000000
00001000
00100000
00010000
01000000
00001000
00000000
,
00010000
00000000
00010000
00000000
01000000
10000000
01000000
00000000
,
00010000
00000000
00010000
00000000
00001000
00000100
00001000
00000000
,
00010000
00001000
00010000
00001000
00000010
00000001
00000010
00000000
,
00002002
00000000
00000000
00003003
,
00000001
00000000
00000001
00000000
00000001
00000100
00000010
00000000
,
00000010
00001000
00000100
00010000
00001000
00010000
00001000
00000000
,
00100000
00000000
00100000
00000000
00100000
00010000
01000000
00000000
,
01000000
00100000
10000000
01000000
00100000
02000000
03020000
00032000
,
00003010
00000001
00000010
00000001
00001000
00000010
00001000
00000010
,
00010000
00001000
00010000
00001000
01000000
00010000
01000000
00010000
,
10000000
01000000
10000000
00000000
00100000
00000000
01000000
00000000
00001000
00010000
00001000
00000000
00010000
00000000
00001000
00000000
,
00022000
00000000
00000000
00033000
,
00010000
00000000
00001000
00000000
00000010
00000001
00000000
00000010
00000000
00000001
00000100
00000000
00000010
00000000
00000000
00000000
,
00001000
00000000
00000010
00000000
00001000
00000100
00001000
00000100
00000000
00000000
00010000
00000000
00001000
00000000
00000000
00000000
,
01000000
00000000
00010000
00000000
00100000
00010000
00000000
00100000
00000000
00010000
01000000
00000000
00100000
00000000
00000000
00000000
,
10000000
00000000
01000000
00000000
10000000
00010000
10000000
00010000
00000000
00000000
00100000
00000000
01100000
00000000
00000000
00000000
,
10000000
00000000
01000000
00000000
00010000
00001000
00000000
00001000
00000000
00000000
00000010
00000000
00000001
00000000
00001000
00000000
,
00000001
00000000
00000100
00000000
00000010
00000100
00000010
00000100
00000000
00000000
00001000
00000000
00010000
00000000
00000000
00000000
,
00001000
00000000
00000100
00000000
00000001
00000010
00000000
00000010
00000000
00000000
00000001
00000000
00001000
00000000
00000100
00000000
,
00010000
00000000
00010000
00000000
00001000
00010000
00001000
00010000
00000000
00000000
00011000
00000000
00000000
00000000
00000000
00000000
,
00100000
00000000
00010000
00000000
01000000
00100000
10000000
00100000
00000000
10000000
01000000
00000000
00100000
00000000
00000000
00000000
,
00010000
00000000
00100000
00000000
00001000
00010000
00000100
00010000
00000000
00001000
00000010
00000000
00000001
00000000
00000000
00000000
,
00000100
00000000
00000010
00000000
00001000
00000100
00000010
00000100
00000000
00010000
00001000
00000000
00010000
00000000
00000000
00000000
,
01000000
00000000
10000000
00000000
00010000
00100000
00010000
01000000
00000000
00100000
01000000
00000000
00100000
00000000
00000000
00000000
,
01000000
00000000
00010000
00000000
10000000
01000000
10000000
01000000
00000000
00100000
00010000
00000000
00100000
00000000
00001000
00000000
,
00010000
00000000
00000100
00000000
00001000
00000100
00001000
00000010
00000000
00000100
00000010
00000000
00001000
00000000
00000000
00000000
,
00000001
00000000
00000001
00000000
00000010
00000100
00000000
00000010
00000000
00001000
00010000
00000000
00001000
00000000
00001000
00000000
,
00010000
00000000
00100000
00000000
01000000
00100000
01000000
00100000
00000000
00000000
10000000
00000000
01000000
00100000
01000000
00100000
,
00010000
00000000
00000000
00000000
,
00000000
00000000
00000000
00000000
;
