
//----- song ID: antm -----//
#TITLE:Anthurium;
#ARTIST:BlackY feat. Risa Yuzuki;
#BANNER:Anthurium.png;
#BACKGROUND:Anthurium-bg.png;
#CDTITLE:./CDTitles/DDR A3.png;
#MUSIC:Anthurium.ogg;
#SAMPLESTART:62.535;
#SAMPLELENGTH:15;
#BPMS:0=142;
#BGSTAGE:17;
#NOTES:
     dance-single:
     :
     Beginner:
     4:
     :
0000
0000
0000
0000
,
0000
0000
0000
0000
,
0000
0000
0000
0000
,
0000
0000
0000
0000
,
0000
0000
0000
0000
,
1000
0000
0001
0000
,
1000
0000
1000
0000
,
0001
0000
0001
0000
,
0010
0000
0010
0000
,
0100
0000
0000
0000
,
0100
0000
0000
0000
,
1001
0000
0000
0000
,
1001
0000
0000
0000
,
1001
0000
0000
0000
,
0001
0000
1000
0000
,
0010
0000
0000
0000
,
0100
0000
0000
0000
,
0010
0000
0100
0000
,
0001
0000
1000
0000
,
0001
0001
0000
0000
,
1000
1000
0000
0000
,
0010
0010
0000
0000
,
0001
0000
1000
0000
,
0001
0001
1000
0000
,
1000
1000
0001
0000
,
0001
0000
1000
0000
,
1001
0000
0000
0000
,
0010
0010
0010
0000
,
0100
0100
0100
0000
,
0001
0000
0100
0000
,
0001
0000
0000
0000
,
0100
0100
0100
0000
,
0010
0010
0010
0000
,
2000
0000
3000
0000
,
0002
0000
0003
0000
,
2002
0000
0000
0000
,
3003
0000
0000
0000
,
0001
0000
1000
0000
,
0001
0000
1000
0000
,
0010
0010
0010
0000
,
0100
0100
0100
0000
,
0001
1000
0001
0000
,
1000
0001
1000
0000
,
0010
0000
0010
0000
,
0100
0100
0100
0000
,
0010
0000
1000
0000
,
0010
0000
1000
0000
,
0001
0001
0001
0000
,
1000
1000
1000
0000
,
0001
0000
0100
0000
,
0001
0000
0100
0000
,
0001
0001
0001
0000
,
1000
1000
1000
0000
,
2002
0000
0000
0000
,
3003
0000
0000
0000
,
0010
0000
0000
0000
,
0100
0000
0000
0000
,
0001
0000
0001
0000
,
1000
1000
0001
0000
,
1000
0000
1000
0000
,
0001
0001
1000
0000
,
0001
0000
1000
0000
,
1001
0000
0000
0000
,
2002
0000
0000
0000
,
0000
0000
0000
0000
,
3003
0000
0000
0000
,
0000
0000
0000
0000
;
#NOTES:
     dance-single:
     :
     Easy:
     6:
     :
0000
0000
0000
0000
,
0000
0000
0000
0000
,
0000
0000
0000
0000
,
0000
0000
0000
0000
,
0000
0000
0000
0000
,
1000
1000
0001
0001
,
0010
0010
0001
0000
,
1000
1000
0100
0000
,
0010
0100
0010
0000
,
1001
0000
0000
0000
,
1001
0000
0000
0000
,
0110
0000
0000
0000
,
0110
0000
0000
0000
,
1001
0000
0000
0000
,
0001
0001
0001
0000
,
0010
0001
0010
0001
,
0100
0001
0100
0001
,
1000
0010
1000
0010
,
1000
1000
0001
0001
,
1001
0000
0001
0001
,
1000
0010
0100
0010
,
0100
0001
1000
0001
,
0010
0010
0100
0100
,
1000
1000
1000
0000
,
0001
0001
0001
0000
,
1000
0010
0100
0001
,
0010
0010
0010
0000
,
1000
0001
1000
1000
,
0010
0100
0010
0010
,
1000
1000
0001
0001
,
1000
0001
1000
1001
,
0001
1000
0001
0001
,
0010
0100
0010
0001
,
0001
0000
0001
0000
,
0100
0100
0100
0000
,
0010
1000
0010
1000
,
0001
0010
0001
1001
,
1000
1001
0001
1001
,
1000
0001
1000
0000
,
0010
0010
0100
0100
,
0010
1000
0001
1001
,
1000
1000
0100
0000
,
0010
0010
0001
0000
,
0010
0010
0001
0001
,
0010
0100
0010
0110
,
0001
1001
0001
1001
,
1000
1001
1000
1001
,
0100
0100
0010
0010
,
1001
0110
1001
0000
,
0001
0001
0010
0010
,
0100
0100
1000
1000
,
0002
0000
0000
0000
,
2003
0000
0000
0000
,
3002
0000
0000
0000
,
0000
0000
0000
0003
,
0010
0100
0010
0010
,
0001
0001
1000
1000
,
0001
0100
0001
0100
,
0010
1000
0010
1000
,
0100
0010
0100
0010
,
0001
0000
0001
0000
,
1000
1000
1000
0000
,
0002
0000
0000
0000
,
2003
0000
0000
0000
,
0000
0000
0000
0000
,
3000
0000
0000
0000
,
0000
0000
0000
0000
;
#NOTES:
     dance-single:
     :
     Medium:
     10:
     :
0000
0000
0000
0000
,
0000
0000
0000
0000
,
0000
0000
0000
0000
,
0000
0000
0000
0000
,
0000
0000
0000
0000
,
0010
0000
0000
0001
0000
0000
1000
0000
0001
0000
1000
0000
,
0010
0000
0010
0000
1000
0100
1000
0000
,
0100
0000
0100
0000
0010
0001
0010
0000
,
0001
0001
1000
1000
,
0001
0000
0000
1000
0000
0000
1001
0000
0000
0000
0000
0000
0000
0000
0000
0000
,
0110
0000
0000
1001
0000
0000
1001
0000
0000
0000
0000
0000
0000
0000
0000
0000
,
1010
0000
0000
0000
,
0011
0000
0000
0000
,
1001
0000
0000
0000
,
0010
1000
0100
0000
0010
0001
0100
0000
,
0010
0000
1000
0000
0001
1000
0100
0000
,
1000
0000
0010
0000
0100
0001
1000
0000
,
0010
0100
0001
0000
0010
0100
1000
0000
,
0001
0000
0001
0000
0100
0001
0100
0000
,
0001
0000
0010
0000
0001
1000
0010
0000
,
0100
0000
0001
0000
1000
0001
0010
0000
,
0001
0010
0100
0000
1000
0010
0100
0000
,
0001
0100
1000
0000
1000
0100
0001
0000
,
0010
0000
0100
0000
1000
0100
0010
0000
,
0100
0000
0010
0000
0001
0100
0010
0000
,
1000
0010
1000
0000
0001
0100
0001
0000
,
0010
0001
0010
0001
0010
0100
1000
0000
,
0001
1000
0000
1000
0000
1000
0000
1000
,
0001
1000
0000
1000
0000
1000
0000
1000
,
0010
0100
0000
0100
0000
0100
0000
0100
,
0001
0000
0000
1000
0000
0000
0001
0000
1000
0000
0000
0000
1001
0000
0000
0000
,
1000
0001
0100
0010
1000
0100
0010
0000
,
0001
1000
0100
0010
0001
0100
0010
0000
,
1000
0000
0000
1010
0000
0000
1001
0000
0000
0000
0000
0000
0000
0000
0000
0000
,
0010
0000
0000
0011
0000
0000
1001
0000
0000
0000
0000
0000
0000
0000
0000
0000
,
1000
0010
0100
0010
1000
0001
0010
0000
,
0001
0000
1000
0000
0001
0000
1000
0002
0000
0000
0000
0000
0003
0000
0000
0000
,
0010
0100
0010
0000
0100
1000
0100
0000
,
1000
0000
0010
0000
0100
0001
0010
0000
,
0001
1000
0001
1000
0010
0100
0001
0000
,
0010
0100
0010
0100
1000
0001
1000
0000
,
0001
0100
1000
0000
0100
0000
0100
0000
,
1000
0100
0001
0000
0100
0000
0100
0000
,
0001
0000
0000
0001
0000
0000
0001
0000
1000
0000
0000
1000
0000
0000
1000
0000
,
0010
0000
0000
0100
0000
0000
0010
0000
0100
0000
0000
0000
1001
0000
0000
0000
,
0010
0001
0010
0001
1000
0100
1000
0000
,
0010
1000
0010
1000
0001
0100
0001
0000
,
0010
0001
0100
0000
0010
1000
0100
0000
,
0010
0000
0010
0000
0001
1000
0100
0000
,
1000
0100
0001
0000
0001
0000
0001
0000
,
0001
0100
1000
0000
1000
0000
1000
0000
,
0100
0010
0100
0010
0001
0100
0010
0100
,
1001
0000
0000
0000
,
1000
0000
0000
1000
0000
0000
1010
0000
0000
0000
0000
0000
0000
0000
0000
0000
,
0010
0000
0000
0010
0000
0000
0110
0000
0000
0000
0000
0000
0000
0000
0000
0000
,
0100
0000
0000
0100
0000
0000
0101
0000
0000
0000
0000
0000
0000
0000
0000
0000
,
0001
0000
0000
0000
0000
0000
0000
0000
0000
0000
0000
0000
0001
0000
0000
0000
0000
0000
0000
0000
0000
0000
0000
0000
1000
0000
0000
0000
0000
0000
0000
0000
0001
0000
0000
0000
0000
0000
0000
0000
0000
1000
0000
0000
0000
0000
0000
0000
,
0001
0000
0001
0000
0010
0100
0010
0000
,
0100
0000
0100
0000
1000
0001
1000
0000
,
0001
0100
0001
0100
0010
1000
0010
0000
,
1000
0000
0000
1000
0000
0000
1000
0000
0000
0000
0001
0000
0001
0000
0000
0000
,
1000
0000
0000
0001
0000
1000
0000
0001
0000
0000
0020
0000
0000
0000
0000
0000
,
0032
0000
2003
0000
,
3020
0000
0000
0000
,
0000
0000
0000
0000
,
0030
0000
0000
0000
,
0000
0000
0000
0000
;
#NOTES:
     dance-single:
     :
     Hard:
     13:
     :
0000
0000
0000
0000
,
0000
0000
0000
0000
,
0000
0000
0000
0000
,
0000
0000
0000
0000
,
0000
0000
0000
0000
,
1000
0001
1000
0001
1000
0001
1000
0000
0010
0000
0100
0000
,
0010
0000
1000
0000
0100
0000
0000
0000
0010
0000
0000
0001
0100
0000
0000
0000
,
0010
0000
0100
0000
0001
0000
0000
0000
0010
0000
0000
0100
1000
0000
0000
0000
,
0010
1000
0100
0010
0100
0010
0001
0100
,
0010
0000
0000
0010
0000
0000
0010
0000
0000
0000
1010
0000
1010
0000
0000
0000
,
0010
0100
0001
0010
0100
1000
0010
0100
,
1001
0000
0000
0000
0000
0000
0000
1000
,
1010
0000
0000
0000
,
0011
0000
0000
0000
,
1000
0000
0000
1000
0000
0000
1000
0000
0000
0000
0010
0000
0010
0000
0010
0000
,
0110
0000
0010
1000
0010
0100
0001
0000
,
0011
0000
0010
0001
0010
0100
1000
0000
,
0010
0100
0001
0100
1000
0100
0010
1000
,
0100
0000
0000
0010
0001
0000
0100
0000
0001
0000
0000
1000
0100
0000
0001
0000
,
0100
0000
1100
0000
1000
0001
0100
0001
,
0010
0000
0011
0000
0001
1000
0010
0100
,
0001
0000
0101
0000
1000
0010
0100
0001
,
0010
0000
0001
0010
0000
0000
0010
0000
0100
0000
1000
0100
0000
0000
0100
0000
,
1000
0000
1010
0000
0010
0100
0001
0100
,
0001
0010
0100
1000
0010
0100
1000
0100
,
0001
0000
0010
1000
0000
0000
0010
0000
0100
0000
1000
0010
0000
0000
0100
0000
,
0010
0000
0000
2002
0000
0000
0000
0000
0000
0000
0000
0000
0000
0000
3003
0000
,
0001
0100
0010
1000
0100
0001
0100
0010
,
0001
0100
1000
0100
0001
0010
0100
1000
,
0010
1000
0010
0000
0100
0001
0100
0000
,
0010
0000
0000
0100
0000
0000
0001
0000
0000
0100
0000
0000
0010
0000
0000
0000
0100
0000
0000
0000
0010
0000
0000
0000
,
0000
0000
0110
0010
0001
0010
0100
0000
,
0001
1000
0100
0010
1000
0010
0100
0000
,
0010
0000
0001
0000
0100
0000
0010
0000
1000
0000
0001
0000
1000
0000
0001
0010
,
0001
0000
0010
0001
0000
0000
0001
0000
1000
0000
0100
1000
0000
0000
1000
0000
,
0100
0010
0100
1000
0010
0100
0010
0100
,
0001
1000
0001
1000
0100
0010
0100
0020
0000
0000
0000
0000
0030
0000
0000
0000
,
0001
0000
0100
0000
1000
0000
0100
0000
0001
0000
1000
0000
0100
1000
0100
0000
,
1000
0000
0010
0000
0001
0000
0010
0000
1000
0000
0001
0000
0100
0001
0100
0000
,
0010
1000
1010
0010
0100
0001
0101
0100
,
0001
0000
0010
0000
0100
0000
1000
0000
0010
0000
0100
0000
0010
0100
0010
0000
,
0100
0000
0001
0000
0010
0000
0100
0000
1000
0000
0100
0000
1000
0100
1000
0000
,
0010
0000
0001
0000
0010
0000
0100
0000
0001
0000
1000
0000
0010
0000
1000
0010
,
1000
0000
0010
1000
0000
0000
0101
0000
0001
0000
0100
0001
0000
0000
0110
0000
,
0100
0000
0010
0100
0000
0000
0001
0000
0010
0000
0000
0000
0011
0000
0000
0000
,
0001
0000
0010
0000
1000
0000
0010
0000
0001
0000
0100
0000
0010
0100
0010
0000
,
1000
0000
0100
0000
0001
0000
0100
0000
1000
0000
0010
0000
1000
0010
1000
0000
,
1010
0000
0000
1010
0000
0000
0110
0000
0101
0000
0000
0101
0000
0000
1001
0000
,
1100
0000
0000
1100
0000
0000
0110
0000
0001
0000
0010
0000
0001
1000
0001
0000
,
2000
0000
0000
0000
3010
0000
0100
0000
1000
0000
0010
0000
0100
0001
0100
0000
,
0001
0000
0100
0000
0010
0000
0100
0000
0001
0000
0010
0000
0100
1000
0100
0000
,
0001
0000
0100
0000
0010
0000
0100
0000
1000
0000
0010
0000
0100
0000
0001
1000
,
0001
0000
0010
0001
0000
0000
0001
0000
0010
0000
0100
0010
0000
0000
0010
0000
,
0200
0000
0000
0000
,
1300
0001
0100
0010
0100
1000
0100
0001
,
0010
0100
0010
1000
0001
0100
0010
1000
,
0100
0001
0100
0001
0100
0001
0100
0000
1000
0000
0001
0000
,
1001
0000
0000
0000
0001
0000
0100
0000
0010
0000
1000
0000
0010
1000
0010
0000
,
1000
0000
0100
0000
0010
0000
0001
0000
0100
0000
0010
0000
0100
0010
0100
0000
,
0010
1000
0001
0100
0010
0100
0001
0010
,
0100
0000
0000
0100
0000
0000
0100
0000
0000
0000
1001
0000
1001
0000
0000
0000
,
0010
0001
0000
1000
0000
0001
0000
1000
0000
0000
0002
0000
0000
0000
0000
0000
,
0203
0000
0320
0000
,
2030
0000
0000
0000
,
3001
0100
0002
0000
0000
0000
0000
0000
0000
0000
0000
0000
0000
0000
0000
0000
,
0000
0000
0000
0000
,
0003
0000
0000
0000
,
0000
0000
0000
0000
;
#NOTES:
     dance-double:
     :
     Easy:
     6:
     :
00000000
00000000
00000000
00000000
,
00000000
00000000
00000000
00000000
,
00000000
00000000
00000000
00000000
,
00000000
00000000
00000000
00000000
,
00000000
00000000
00000000
00000000
,
10000000
10000000
00010000
00010000
,
00100000
00010000
00100000
00000000
,
00001000
00010000
00001000
00000000
,
00000010
00000100
00000010
00000000
,
00000110
00000000
00000000
00000000
,
00001001
00000000
00000000
00000000
,
00011000
00000000
00000000
00000000
,
10010000
00000000
00000000
00000000
,
01100000
00000000
00000000
00000000
,
00100000
00100000
00100000
00000000
,
00001000
00010000
00001000
00010000
,
00000100
00001000
00000100
00000000
,
00000010
00000001
00001000
00000010
,
00001000
00000100
00001000
00000001
,
00001001
00000000
00001000
00001000
,
00000100
00001000
00000010
00000000
,
00010000
00001000
00010000
00000000
,
00001000
01000000
00010000
00010000
,
00100000
00100000
00100000
00000000
,
01000000
01000000
01000000
00000000
,
00100000
00001000
00010000
00001000
,
00010000
00000100
00001000
00000000
,
00000001
00000100
00001000
00000000
,
00000100
00000010
00001000
00000000
,
00000100
00000100
00010000
00010000
,
00001000
00010000
00001000
00011000
,
00010000
00100000
10000000
00000000
,
00100000
01000000
00010000
00010000
,
00100000
00000000
00100000
00000000
,
00001000
00001000
00001000
00000000
,
00010000
00001000
00010000
00000100
,
00000010
00000001
00001000
00001001
,
00000100
00000100
00000010
00000010
,
00001000
00000001
00001000
00000000
,
00000010
00001000
00000010
00010000
,
00001000
00010000
00001000
00011000
,
00001000
00001000
01000000
00000000
,
00010000
00010000
00100000
00000000
,
01000000
01000000
00100000
00100000
,
00010000
00010000
00010000
00000000
,
00100000
00001000
00010000
00000100
,
00000010
00000001
00001000
00001001
,
00000010
00000010
00001000
00000100
,
00010000
00001000
00011000
00000000
,
00001000
00001000
00100000
00100000
,
00010000
00010000
01000000
01000000
,
00200000
00000000
00000000
00000000
,
20300000
00000000
00000000
00000000
,
30020000
00000000
00000000
00000000
,
00000000
00000000
00000000
00030000
,
00100000
00001000
00010000
00010000
,
00001000
00001000
00010000
00010000
,
00000010
00001000
00000010
00001000
,
00000001
00000100
00000001
00000100
,
00000010
00001000
00000100
00001000
,
00000100
00000000
00000100
00000000
,
00010000
00010000
00010000
00000000
,
00002000
00000000
00000000
00000000
,
00023000
00000000
00000000
00000000
,
00000000
00000000
00000000
00000000
,
00030000
00000000
00000000
00000000
,
00000000
00000000
00000000
00000000
;
#NOTES:
     dance-double:
     :
     Medium:
     10:
     :
00000000
00000000
00000000
00000000
,
00000000
00000000
00000000
00000000
,
00000000
00000000
00000000
00000000
,
00000000
00000000
00000000
00000000
,
00000000
00000000
00000000
00000000
,
00100000
00000000
00000000
00100000
00000000
00000000
00001000
00000000
00010000
00000000
00001000
00000000
,
00010000
00000000
00010000
00000000
00000100
00001000
00000100
00000000
,
00000010
00000000
00000010
00000000
00000001
00000010
00000001
00000000
,
00001000
00001000
00000010
00000010
,
00010000
00000000
00000000
00001000
00000000
00000000
00011000
00000000
00000000
00000000
00000000
00000000
00000000
00000000
00000000
00000000
,
00110000
00000000
00000000
00110000
00000000
00000000
10010000
00000000
00000000
00000000
00000000
00000000
00000000
00000000
00000000
00000000
,
01100000
00000000
00000000
00000000
,
00011000
00000000
00000000
00000000
,
00001001
00000000
00000000
00000000
,
00000001
00000100
00001000
00000000
00000100
00000010
00001000
00000000
,
00000100
00000000
00010000
00000000
00001000
01000000
00100000
00000000
,
10000000
00000000
00100000
00000000
01000000
00010000
00100000
00000000
,
00001000
00010000
00001000
00000000
00000010
00000100
00000010
00000000
,
00000001
00000000
00000001
00000000
00001000
00000100
00001000
00000000
,
00000010
00000000
00001000
00000000
00000001
00001000
00000010
00000000
,
00010000
00000000
00001000
00000000
00010000
00001000
00100000
00000000
,
00010000
00100000
01000000
00000000
10000000
01000000
00010000
00000000
,
01000000
00010000
00001000
00000000
00010000
00001000
00000010
00000000
,
00000001
00000000
00000001
00000000
00000100
00000010
00001000
00000000
,
00000010
00000000
00000010
00000000
00001000
00000010
00000100
00000000
,
00000010
00001000
00000100
00000000
00010000
00001000
00100000
00000000
,
00010000
01000000
00100000
01000000
00010000
00100000
01000000
00000000
,
00100000
00001000
00000000
00001000
00000000
00001000
00000000
00001000
,
00010000
00000100
00000000
00000100
00000000
00000100
00000000
00000100
,
00000010
00000001
00000000
00000001
00000000
00000001
00000000
00000001
,
00001000
00000000
00000000
00000010
00000000
00000000
00010000
00000000
00001000
00000000
00000000
00000000
00011000
00000000
00000000
00000000
,
00100000
00010000
01000000
00100000
10000000
01000000
00010000
00000000
,
00000010
00001000
00000100
00000010
00000001
00000100
00001000
00000000
,
01000000
00000000
00000000
00100000
00000000
00000000
01100000
00000000
00000000
00000000
00000000
00000000
00000000
00000000
00000000
00000000
,
00001000
00000000
00000000
00010000
00000000
00000000
00011000
00000000
00000000
00000000
00000000
00000000
00000000
00000000
00000000
00000000
,
00000010
00001000
00000001
00000100
00000010
00001000
00000010
00000000
,
00000100
00000000
00000010
00000000
00001000
00000000
00000100
00020000
00000000
00000000
00000000
00000000
00030000
00000000
00000000
00000000
,
00001000
01000000
00010000
00000000
01000000
00100000
01000000
00000000
,
00100000
00000000
10000000
00000000
01000000
00100000
00010000
00000000
,
00100000
00001000
00010000
00000100
00000010
00000001
00000010
00000000
,
00000100
00010000
00001000
00100000
01000000
10000000
01000000
00000000
,
10000000
01000000
00010000
00000000
01000000
00000000
01000000
00000000
,
00100000
00001000
00010000
00000000
00001000
00000000
00001000
00000000
,
00010000
00000000
00000000
00010000
00000000
00000000
00010000
00000000
00000100
00000000
00000000
00000100
00000000
00000000
00000100
00000000
,
00000010
00000000
00000000
00000001
00000000
00000000
00001000
00000000
00000001
00000000
00000000
00000000
00001001
00000000
00000000
00000000
,
00000010
00001000
00000010
00001000
00000100
00010000
00001000
00000000
,
00100000
00010000
00100000
00010000
10000000
00100000
01000000
00000000
,
00100000
10000000
01000000
00000000
00100000
01000000
00010000
00000000
,
00001000
00000000
00001000
00000000
00010000
00000100
00001000
00000000
,
00000100
00000010
00000001
00000000
00000100
00000000
00000100
00000000
,
00000010
00000100
00001000
00000000
00010000
00000000
00010000
00000000
,
00001000
00010000
00001000
00010000
00001000
00100000
00010000
00100000
,
10010000
00000000
00000000
00000000
,
00100000
00000000
00000000
00100000
00000000
00000000
10010000
00000000
00000000
00000000
00000000
00000000
00000000
00000000
00000000
00000000
,
00001000
00000000
00000000
00001000
00000000
00000000
00011000
00000000
00000000
00000000
00000000
00000000
00000000
00000000
00000000
00000000
,
00000100
00000000
00000000
00000100
00000000
00000000
00001001
00000000
00000000
00000000
00000000
00000000
00000000
00000000
00000000
00000000
,
00000001
00000000
00000000
00000000
00000000
00000000
00000000
00000000
00000000
00000000
00000000
00000000
00000001
00000000
00000000
00000000
00000000
00000000
00000000
00000000
00000000
00000000
00000000
00000000
00001000
00000000
00000000
00000000
00000000
00000000
00000000
00000000
00000010
00000000
00000000
00000000
00000000
00000000
00000000
00000000
00000000
00010000
00000000
00000000
00000000
00000000
00000000
00000000
,
00001000
00000000
00001000
00000000
00010000
01000000
00100000
00000000
,
01000000
00000000
01000000
00000000
10000000
00100000
10000000
00000000
,
00100000
01000000
00001000
00010000
00001000
00000100
00000010
00000000
,
00001000
00000000
00000000
00001000
00000000
00000000
00001000
00000000
00000000
00000000
00000001
00000000
00000001
00000000
00000000
00000000
,
00001000
00000000
00000000
00000100
00000000
00001000
00000000
00000100
00000000
00000000
00020000
00000000
00000000
00000000
00000000
00000000
,
00032000
00000000
00203000
00000000
,
00320000
00000000
00000000
00000000
,
00000000
00000000
00000000
00000000
,
00030000
00000000
00000000
00000000
,
00000000
00000000
00000000
00000000
;
#NOTES:
     dance-double:
     :
     Hard:
     13:
     :
00000000
00000000
00000000
00000000
,
00000000
00000000
00000000
00000000
,
00000000
00000000
00000000
00000000
,
00000000
00000000
00000000
00000000
,
00000000
00000000
00000000
00000000
,
01000000
10000000
01000000
10000000
01000000
10000000
00010000
00000000
00010000
00000000
00010000
00000000
,
00100000
00000000
00010000
00000000
01000000
00000000
00000000
00000000
00001000
00000000
00000000
00010000
00001000
00000000
00000000
00000000
,
00010000
00000000
00000100
00000000
00001000
00000000
00000000
00000000
00000001
00000000
00000000
00000100
00000010
00000000
00000000
00000000
,
00000100
00000001
00000100
00001000
00000001
00000010
00010000
00001000
,
00010000
00000000
00000000
00010000
00000000
00000000
00010000
00000000
00000000
00000000
00011000
00000000
00011000
00000000
00000000
00000000
,
00010000
01000000
00100000
01000000
10000000
00010000
01000000
00100000
,
10010000
00000000
00000000
00000000
00000000
00000000
00000000
00010000
,
00011000
00000000
00000000
00000000
,
00000011
00000000
00000000
00000000
,
00000010
00000000
00000000
00000010
00000000
00000000
00000010
00000000
00000000
00000000
00001000
00000000
00001000
00000000
00001000
00000000
,
00011000
00000000
00010000
00100000
00010000
00100000
10000000
00000000
,
00100000
10000000
01000000
00010000
01000000
00100000
00001000
00000000
,
00010000
00001000
00000100
00000001
00000100
00001000
00000100
00000001
,
00000010
00000000
00000000
00000100
00010000
00000000
00001000
00000000
00000010
00000000
00000000
00001000
00000010
00000000
00000001
00000000
,
00000100
00000000
00000110
00000000
00000010
00000100
00001000
00010000
,
00001000
00000000
00010000
00001000
00010000
01000000
00100000
01000000
,
10000000
00000000
01000000
00100000
01000000
00010000
00001000
00000010
,
00000001
00000000
00000010
00000001
00000000
00000000
00000001
00000000
00001000
00000000
00000100
00001000
00000000
00000000
00001000
00000000
,
00011000
00000000
00010000
01000000
00010000
01000000
10000000
00000000
,
00100000
01000000
00001000
00010000
00000010
00000100
00000001
00000000
,
00000010
00000000
00000001
00000010
00000000
00000000
00000100
00000000
00001000
00000000
00000100
00010000
00000000
00000000
00001000
00000000
,
00010000
00000000
00000000
00022000
00000000
00000000
00000000
00000000
00000000
00000000
00000000
00000000
00033000
00000000
00000000
00000000
,
00001000
00010000
00001000
00000010
00001000
00010000
01000000
10000000
,
00100000
01000000
00100000
00010000
00001000
00010000
00100000
00010000
,
00001000
00000100
00000001
00000000
00000100
00000010
00001000
00000000
,
00000100
00000000
00000000
00010000
00000000
00000000
00001000
00000000
00000000
00100000
00000000
00000000
01000000
00000000
00000000
00000000
00100000
00000000
00000000
00000000
01000000
00000000
00000000
00000000
,
00000000
00000000
01100000
01000000
10000000
00100000
00010000
00001000
,
00000100
00000001
00001000
00000100
00000010
00000100
00010000
00001000
,
01000000
00000000
00100000
00000000
01000000
00000000
00010000
00000000
00100000
00000000
00001000
00000000
00010000
00000000
00001000
00010000
,
00001000
00000000
00010000
00001000
00000000
00000000
00001000
00000000
00000100
00000000
00000010
00000100
00000000
00000000
00000100
00000000
,
00000001
00000100
00001000
00000100
00000010
00001000
00000100
00010000
,
00001000
00010000
00001000
00000000
01000000
00010000
01000000
00020000
00000000
00000000
00000000
00000000
00030000
00000000
00000000
00000000
,
00100000
00010000
01000000
00100000
00010000
00100000
01000000
00000000
,
00001000
00010000
00001000
00000010
00001000
00010000
00001000
00000000
,
00010000
00001000
00011000
00010000
00000010
00000100
00000110
00000100
,
00000010
00000100
00000010
00001000
00000100
00000001
00000100
00000000
,
00001000
00000010
00010000
00001000
01000000
00010000
00100000
00000000
,
01000000
00000000
00100000
00000000
00010000
00000000
10000000
00000000
00100000
00000000
01000000
00000000
00010000
00000000
00100000
00001000
,
00010000
00000000
00001000
00010000
00000000
00000000
00001000
00000000
00000010
00000000
00000001
00000010
00000000
00000000
00000001
00000000
,
00001000
00000000
00000010
00001000
00000000
00000000
00000010
00000000
00000100
00000000
00000000
00000000
00001001
00000000
00000000
00000000
,
00001000
00000001
00000100
00001000
00010000
00001000
00000100
00000000
,
00001000
00010000
00001000
00010000
01000000
10000000
01000000
00000000
,
10000000
00000000
00000000
10100000
00000000
00000000
10010000
00000000
00010000
00000000
00000000
01010000
00000000
00000000
00011000
00000000
,
00001000
00000000
00000000
00001010
00000000
00000000
00000011
00000000
00000010
00000000
00000001
00000000
00001000
00000001
00001000
00000000
,
00000010
00001000
00000100
00000010
00001000
00010000
00100000
00000000
,
01000000
00010000
00100000
01000000
00010000
00001000
00000010
00000000
,
00000001
00000000
00000010
00000000
00001000
00000000
00000001
00000000
00000100
00000000
00010000
00000000
00001000
00000000
00010000
00001000
,
00010000
00000000
00001000
00010000
00000000
00000000
00010000
00000000
01000000
00000000
00100000
01000000
00000000
00000000
01000000
00000000
,
00200000
00000000
00000000
00000000
,
00301000
00010000
00001000
00000010
00001000
00000010
00000001
00000100
,
00001000
00000001
00000010
00001000
00000010
00001000
00010000
01000000
,
00010000
00001000
00000010
00001000
00000010
00001000
00000010
00000000
00010000
00000000
00001000
00000000
,
00011000
00000000
00010000
01000000
00010000
01000000
10000000
01000000
,
00010000
10000000
00100000
00010000
10000000
00010000
00100000
00001000
,
00010000
00001000
00000100
00000001
00001000
00000100
00000010
00000100
,
00010000
00000000
00000000
00010000
00000000
00000000
00010000
00000000
00000000
00000000
00001000
00000000
00001000
00000000
00000000
00000000
,
00100000
00010000
00000000
00010000
00000000
00010000
00000000
00010000
00000000
00000000
00200000
00000000
00000000
00000000
00000000
00000000
,
00302000
00000000
00023000
00000000
,
00030200
00000000
00000000
00000000
,
00000310
00000001
00000020
00000000
00000000
00000000
00000000
00000000
00000000
00000000
00000000
00000000
00000000
00000000
00000000
00000000
,
00000000
00000000
00000000
00000000
,
00000030
00000000
00000000
00000000
,
00000000
00000000
00000000
00000000
;
