
//----- song ID: toyo -----//
#TITLE:Ambivalent Vermilia;
#ARTIST:BEMANI Sound Team "二代目朱雀 feat.朱雀";
#ARTISTTRANSLIT:BEMANI Sound Team "Nidaime Suzaku feat.Suzaku";
#BANNER:Ambivalent Vermilia.png;
#BACKGROUND:Ambivalent Vermilia-bg.png;
#CDTITLE:./CDTitles/DDR A3.png;
#MUSIC:Ambivalent Vermilia.ogg;
#SAMPLESTART:89.027;
#SAMPLELENGTH:15;
#BPMS:0=185;
#BGSTAGE:29;
#NOTES:
     dance-single:
     :
     Beginner:
     5:
     :
0000
0000
0000
0000
,
0000
0000
0000
0000
,
0000
0000
0000
0000
,
0000
0000
0000
0000
,
0000
0000
0000
0000
,
0000
0000
0000
0000
,
0001
0000
0001
0000
,
0010
0000
0000
0000
,
0010
0000
0010
0000
,
0100
0000
0000
0000
,
2002
0000
0000
0000
,
3003
0000
0000
0000
,
1000
0000
0000
0000
,
0010
0000
0000
0000
,
1000
0000
0000
0000
,
0000
0000
0000
0000
,
0100
0000
0000
0000
,
0100
0000
0000
0000
,
0010
0000
0000
0000
,
0000
0000
0000
0000
,
1001
0000
0000
0000
,
0001
0000
0001
0000
,
0010
0000
0000
0000
,
0001
0000
0001
0000
,
0100
0000
0000
0000
,
0010
0000
0010
0000
,
1000
0000
0000
0000
,
0100
0000
0000
0000
,
1001
0000
0000
0000
,
1000
0000
0010
0000
,
1000
0000
0000
0000
,
0010
0000
0001
0000
,
0010
0000
0000
0000
,
0001
0000
0001
0000
,
0100
0000
0000
0000
,
0100
0000
0100
0000
,
0010
0000
0000
0000
,
0010
0000
0000
0000
,
1000
0000
1000
0000
,
1000
0000
0000
0000
,
0001
0000
0000
0000
,
0001
0000
0000
0000
,
0100
0000
0001
0000
,
0001
0000
0000
0000
,
0010
0000
0001
0000
,
0010
0000
0010
0000
,
0001
0000
0000
0000
,
1001
0000
0000
0000
,
1000
0000
0010
0000
,
1000
0000
1000
0000
,
0010
0000
0000
0000
,
0100
0000
0000
0000
,
1001
0000
0000
0000
,
0000
0000
0000
0000
,
0001
0000
0010
0000
,
1000
0000
0000
0000
,
1000
0000
0100
0000
,
0010
0000
0000
0000
,
0010
0000
0100
0000
,
0001
0000
0000
0000
,
0001
0001
0010
0000
,
0001
0000
0000
0000
,
0010
0000
0000
0000
,
1001
0000
0000
0000
,
1000
1000
0010
0000
,
1000
0000
0000
0000
,
0100
0000
0000
0000
,
1001
0000
0000
0000
,
0000
0000
0000
0000
,
1000
0000
0010
0000
,
1000
1000
0100
0000
,
0010
0000
0010
0000
,
0001
0000
0000
0000
,
0001
0000
0010
0000
,
0001
0001
0100
0000
,
0010
0000
0010
0000
,
1000
0000
0000
0000
,
1000
0000
0010
0000
,
1000
1000
0010
0000
,
0001
0000
0100
0000
,
0001
0000
0000
0000
,
0001
0000
0010
0000
,
0001
0001
0010
0000
,
1000
0000
0100
0000
,
1000
0000
0000
0000
,
2000
0000
0000
0000
,
3000
0000
1000
0000
,
0020
0000
0000
0000
,
0030
0000
0010
0000
,
0002
0000
0000
0000
,
0003
0000
0001
0000
,
0001
0001
0010
0000
,
0010
0010
1000
0000
,
0000
0000
1001
0000
,
0000
0000
0000
0000
;
#NOTES:
     dance-single:
     :
     Easy:
     10:
     :
0000
0000
0000
0000
,
0000
0000
0000
0000
,
0000
0000
0000
0000
,
0000
0000
0000
0000
,
0000
0000
0000
0000
,
0000
0000
0000
0000
,
1000
0100
0010
0001
,
1000
0000
0100
0000
0010
0001
0010
0000
,
0001
0100
0010
1000
,
0001
0100
0001
0000
1000
0000
0000
0000
,
2002
0000
0000
0000
,
0000
0000
0000
3003
,
0002
0000
0000
0003
,
2000
0000
0000
3000
,
0020
0000
0000
0030
,
0200
0000
0000
0300
,
0001
0010
0001
0000
1000
0000
0000
0000
,
0001
0010
0001
0000
0100
0000
0000
0000
,
0001
0010
0100
1000
,
0010
0100
0010
0000
0200
0000
0300
0000
,
0101
0001
0101
0000
,
1100
1000
1100
0000
,
0011
0001
0011
0000
,
1010
1000
1010
0000
,
1000
0001
1000
0000
0100
0000
0010
0000
,
0001
1000
0001
0000
0100
0000
0010
0000
,
1000
0100
0010
0000
0100
0010
0001
0000
,
1000
0001
1000
0000
0020
0000
0030
0000
,
0110
0000
1001
0000
,
1000
0010
0100
0001
,
0110
0000
1001
0000
,
0001
0010
0100
1000
,
0001
0010
0001
0000
1000
0000
0010
1000
,
0000
0010
1000
0000
0100
0000
0110
0000
,
1000
0100
1000
0000
0100
0000
0010
0001
,
0000
0010
0001
0000
2000
0000
3000
0000
,
0001
1001
1000
1010
,
0010
0000
0010
0100
0000
0000
0001
0000
0000
1000
0000
0000
,
0001
0101
0100
0110
,
0010
0000
0010
1000
0000
0000
0001
0000
0000
0000
0000
0000
,
1001
0110
1001
0000
,
1001
0110
1001
0100
,
1001
0110
1001
0000
,
1000
0000
1000
0100
0000
0000
0010
0000
0010
0001
0000
0000
,
1000
0110
0001
0110
,
1000
0000
1000
0100
0000
0100
0010
0000
0000
0000
0000
0000
,
0110
0000
0000
1001
0000
0000
0110
0000
0001
1000
0000
0000
,
0110
1001
0110
0000
,
1000
0000
0000
1010
0000
0000
0010
0000
0010
0100
0000
0000
,
0001
0000
0000
0011
0000
0000
0010
0000
0010
0100
0000
0000
,
1000
0000
1000
0001
0000
0000
0100
0000
0100
0010
0000
0000
,
1000
0000
1000
0100
0000
0100
0010
0000
0000
0001
0000
0000
,
2002
0000
0000
0000
,
0000
0000
0000
3003
,
0001
0000
0100
0000
,
0010
1000
0010
0000
,
1000
0100
0001
0000
,
0001
0100
1000
0000
,
0001
0000
0100
0000
0010
1000
0010
0000
,
0200
0000
0000
0300
,
0001
0000
0010
0000
0100
1000
0010
0000
,
0100
0000
0001
0000
0010
0001
0100
0000
,
0010
1000
0010
0000
0100
0001
0100
0000
,
0001
1000
1001
0000
,
1000
0100
1000
0000
0020
0000
0030
0000
,
0100
0001
0010
0000
0002
0000
0003
0000
,
0010
0001
0100
0000
0010
1000
0001
0000
,
1000
0100
0001
0100
1000
0000
0001
0000
,
2002
0000
0000
3003
,
1000
0000
0010
0000
0100
0001
0010
0000
,
0001
0000
1000
0000
0100
1000
0010
0000
,
0100
0001
0100
0000
0001
1000
0001
0000
,
1000
1010
0110
0100
,
0001
0000
0010
0000
0100
1000
0010
0000
,
1000
0000
0001
0000
0100
0001
0010
0000
,
0110
0000
1000
0000
1001
0000
0001
0100
,
0000
0010
0100
0000
1001
0000
0000
0000
,
1000
0000
0100
0000
0001
0100
1000
0000
,
0001
0000
0100
0000
1000
0100
0001
0000
,
1000
1100
1000
1010
,
0010
0100
0010
0000
0100
0010
0100
0000
,
0001
0001
0001
0000
0002
0000
0003
0000
,
1000
1000
1000
0000
2000
0000
3000
0000
,
0010
0010
0010
0000
0100
0100
0100
0000
,
0110
0000
0000
0000
,
0001
0010
1000
0010
,
0001
0000
1000
0000
0100
0010
0001
0000
,
1000
0010
0001
0010
,
1000
1000
1000
0000
,
0001
0100
0110
0000
,
1000
0100
0110
0000
,
0001
0010
0100
0000
1000
0000
0001
0000
,
1000
0010
0100
0000
0001
0000
1000
0000
,
0000
0000
2002
0000
,
0000
0000
0000
0000
,
0000
0000
0000
0000
,
3003
0000
0000
0000
,
0000
0000
0000
0000
;
#NOTES:
     dance-single:
     :
     Medium:
     15:
     :
0000
0000
0000
0000
,
0000
0000
0000
0000
,
0000
0000
0000
0000
,
0000
0000
0000
0000
,
0000
0000
0000
0000
,
0000
0000
0000
0000
,
1000
0100
0010
0001
1000
0100
0010
0000
,
0001
0100
0010
1000
0001
0100
0010
0000
,
1000
0010
1000
0000
0100
0000
0010
0000
0001
0010
0001
0000
0100
0000
0010
0000
,
1000
0000
0100
0000
0010
0000
0000
0000
0001
0000
0000
1000
0000
0000
0001
0000
,
2002
0000
0000
0000
,
0000
0000
0000
3003
,
2000
0000
3000
1000
,
0200
0000
0300
0100
,
0020
0000
0030
0010
,
0002
0000
0003
0001
,
1000
0010
1000
0000
0100
0000
0110
0000
,
0001
0010
0001
0000
0100
0000
0110
0000
,
1000
0100
0010
0000
0001
0100
0010
0000
,
1000
0001
1000
0001
2000
0000
3000
0000
,
0001
0000
0010
0000
0001
0000
0000
0000
0100
0000
0000
0010
0000
0000
1000
0000
,
0000
0000
0010
0000
0100
0000
0000
0000
0001
0000
0000
1000
0000
0000
0001
0000
,
1000
0000
0010
0000
1000
0000
0000
0000
0100
0000
0000
0010
0000
0000
0001
0000
,
0000
0000
0010
0000
0100
0000
0000
0000
1000
0000
0000
0001
0000
0000
1000
0000
,
0001
0000
0100
0000
0010
0000
1000
0010
0000
1000
0000
0000
1001
0000
0000
0000
,
1000
0000
0100
0000
0010
0000
0001
0010
0000
0001
0000
0000
1001
0000
0000
0000
,
1000
0100
0010
0000
0001
0000
1000
0000
0001
0100
0010
0000
1000
0000
0001
0000
,
0010
0000
0100
0000
1000
0000
0010
0000
0100
0001
0100
0000
0001
0000
0010
0000
,
0200
0001
0010
1300
,
0001
0100
0110
0000
1000
0001
0100
0010
,
0200
1000
0010
0301
,
1000
0100
0010
0001
0100
0010
1000
0000
,
0001
1000
0001
0000
0010
0000
0100
0000
1000
0010
0000
1000
0010
0000
0100
0000
,
0001
0000
0010
0100
0010
0000
0001
0000
1000
0100
0000
0010
0001
0000
0000
0000
,
1000
0001
0100
0000
0001
0000
1000
0000
0100
0010
0000
0001
0010
0000
0001
0000
,
1000
0010
1000
0000
0001
0100
0001
0000
2000
0000
0000
0000
3000
0000
0000
0000
,
0001
0000
0001
1000
0000
1000
0010
0100
0001
0100
0000
0100
,
0001
0000
0001
0010
0000
0010
0100
1000
0100
0010
0000
0001
,
1000
0000
1000
0001
0000
0001
0010
0100
1000
0100
0000
0100
,
1000
0000
1000
0010
0000
0010
0100
0001
0100
0010
0000
1000
,
0010
0000
0000
0100
0000
0000
1000
0000
0000
0100
0000
0000
0001
0000
0000
0010
0000
0000
0100
0000
1000
0000
0001
0000
,
0100
0000
0000
0010
0000
0000
1000
0000
0000
0001
0000
0000
0100
0000
0001
0000
0010
0000
0100
0000
0000
0000
1000
0000
,
0001
0000
0000
0100
0000
0000
1000
0000
0000
0100
0000
0000
0010
0000
1000
0000
0010
0000
1000
0000
0000
0000
1000
0000
,
0100
0000
0100
0001
0000
0001
0010
0000
0010
1000
0000
0000
,
0001
0010
0100
1000
0000
1000
0010
0100
0001
1000
0000
0000
,
0001
0100
1000
0100
0001
1000
0100
0010
0001
1000
0000
0000
,
1000
0100
0010
0001
0000
0001
0100
0010
1000
0001
0000
0000
,
1000
0010
0001
0010
1000
0001
0010
0100
1000
0001
0000
0000
,
1000
0000
0000
0010
0000
0000
1000
0000
0000
0100
0000
0000
1000
0000
0100
0000
1000
0000
0100
0000
0000
0000
1000
0000
,
0001
0000
0000
0010
0000
0000
0001
0000
0000
0100
0000
0000
0001
0000
0100
0000
0001
0000
0100
0000
0000
0000
0000
0000
,
0001
0000
0001
0100
0000
0100
1000
0000
1000
0010
0000
0010
,
0001
1000
0100
0010
0001
1000
0100
0010
0100
1000
0001
0100
,
0020
0000
0000
0000
,
2030
0000
0000
0000
,
3001
0000
0100
0010
0100
0010
0100
0000
,
0001
0000
2000
0002
0000
0000
3003
0000
,
1000
0100
0010
0002
0000
0003
0001
0100
,
0001
0000
0000
0000
0010
0100
1000
0000
0001
0000
0000
0000
1001
0000
0000
0000
,
1000
0000
0010
0000
0100
0000
0001
0000
1000
0001
1000
0001
1000
0000
0000
0000
,
0020
0000
0200
0330
,
0001
0000
0100
0000
0010
0000
0000
1000
0000
1000
0000
0000
0001
0000
0000
0000
,
1000
0000
0100
0000
0010
0000
0000
0001
0000
0001
0000
0000
1000
0000
0000
0000
,
0001
0000
0100
0000
0010
0000
0000
1000
0000
1000
0010
0000
0100
0000
0010
0000
,
1000
0100
1000
0000
0010
0000
0100
0000
0001
0010
0001
0000
1000
0000
0000
0000
,
1000
0000
0100
0000
0001
0000
0000
0100
0000
1000
0000
0000
0001
0000
0010
0000
,
0001
0000
0100
0000
1000
0000
0000
0100
0000
0001
0000
0000
1000
0000
0010
0000
,
0100
0000
0001
0000
0010
0000
0100
1000
0000
0100
1000
0000
0010
0000
0100
0000
,
0001
1000
0010
0000
0100
0000
0001
0000
0010
0100
0010
0100
0010
0000
0000
0000
,
2002
0000
0000
3003
,
1000
0000
0100
0010
0100
0000
1000
0000
0001
0000
0011
0000
0000
0000
0101
0000
,
0000
0000
0110
0000
0000
0000
0010
1000
0010
0000
0100
0000
1000
0000
0100
0000
,
0002
0000
0013
1000
0002
0000
0103
1000
,
0001
0000
0100
0000
0010
1000
0001
0000
0011
0000
0010
0000
0110
0000
0000
0000
,
2000
0000
3010
0001
2000
0000
3100
0001
,
1000
0010
1000
0000
0001
0100
0001
0000
0010
0000
0000
0110
0000
0000
0011
0000
,
1001
1000
0100
0001
0101
0100
1000
1010
,
0000
0011
1010
0000
0002
0000
2003
0000
,
3001
0000
0010
0100
0010
0000
0001
0000
1000
0000
1100
0000
0000
0000
1010
0000
,
0000
0000
0110
0000
0000
0000
0100
0001
0100
0000
0010
0000
0001
0000
0010
0000
,
2000
0000
3100
0001
2000
0000
3010
0001
,
1000
0000
0010
0000
0100
0001
1000
0000
1100
0000
0100
0000
0110
0000
0000
0000
,
0002
0000
0103
1000
0002
0000
0013
1000
,
0002
0000
0000
0000
0013
0000
1000
0000
0001
0000
0100
0010
0000
0010
0001
0000
,
1001
0001
0010
1000
1010
0010
0001
0100
,
0010
1010
0000
0000
0000
0000
0000
0000
,
1000
0000
0000
0000
1010
0000
0000
0000
1000
0000
0000
0100
0000
0000
0011
0000
,
0000
0001
0100
1000
0001
0010
1000
0000
,
0001
0000
0000
0000
0011
0000
0000
0000
0001
0000
0000
0100
0000
0000
1010
0000
,
0000
1000
0100
0001
1000
0010
0001
0000
,
1000
0000
0001
0100
0010
0000
0100
0000
0001
0000
0010
0100
0000
0010
0100
0000
,
1000
0000
0010
0100
0010
0000
1000
0000
0001
0010
0000
0001
0010
0000
0001
0000
,
0100
0000
0010
1000
0001
0000
0010
0000
0100
0000
0010
0001
0000
0010
0001
0000
,
0100
0000
0010
1000
0010
0000
0100
0000
0001
0010
0001
0000
1000
0100
1000
0100
,
0000
0000
2002
0000
,
0000
0000
0000
0000
,
0000
0000
0000
0000
,
3003
0000
0000
0000
,
0000
0000
0000
0000
;
#NOTES:
     dance-single:
     :
     Hard:
     18:
     :
0000
0000
0000
0000
,
0000
0000
0000
0000
,
0000
0000
0000
0000
,
0000
0000
0000
0000
,
0000
0000
0000
0000
,
0000
0000
0000
0000
,
0001
0100
0010
1000
0001
0100
0010
1000
,
0001
0010
0100
1000
0001
1000
0100
0010
,
0001
0100
0010
1000
0001
0010
0100
1000
0001
0100
0010
1000
0001
0010
0100
1000
,
0001
0000
0100
0000
0110
0000
0000
0000
1010
0000
0000
1000
0000
0000
0001
0000
,
2002
0000
0000
0000
,
0000
0000
0000
3003
,
2000
0000
0000
0000
,
3020
0000
0000
0000
,
0230
0000
0000
0000
,
0302
0000
0000
0000
,
1003
0000
0100
0000
1000
0000
0001
0100
0000
0001
0000
0000
0010
0000
0001
1000
,
0001
0000
0100
0000
0001
0000
1000
0100
0000
1000
0000
0000
0010
0000
1000
0001
,
1000
0000
0100
0000
0010
0000
0001
0100
0000
0010
0000
0000
1000
0000
0010
0100
,
0010
0000
1000
0010
0100
0000
0001
0010
0100
1000
0001
0010
0001
0000
0000
0000
,
0011
0000
0000
0000
1001
0000
0000
0000
1010
0000
0000
0110
0000
0000
0101
0000
,
0000
0000
1001
0000
0110
0000
0000
0000
1001
0000
0000
1010
0000
0000
0010
0100
,
0001
0000
0000
0000
0101
0000
0000
0000
0110
0000
0000
1010
0000
0000
1100
0000
,
0000
0000
0110
0000
1001
0000
0000
0000
0011
0000
0000
1100
0000
0000
1000
0100
,
0010
0000
0001
0000
0100
0000
0001
0000
0010
0000
0100
1000
0001
0000
0100
0010
,
1000
0000
0100
0000
0001
0000
0100
0000
1000
0000
0001
0010
0000
0001
0100
0001
,
1000
0010
1000
0010
0100
0001
0100
0001
0010
0001
0100
0010
1000
0100
0010
0001
,
1000
0000
0100
0000
0110
0000
0000
0000
1001
0000
0001
1000
0100
0000
0010
0100
,
2000
0000
0000
0000
0010
0000
0000
0000
0001
0000
0000
0001
0000
0000
0100
0000
,
0000
0000
0010
0000
0100
0000
0000
0000
3001
0000
0000
0110
0000
0000
0001
1000
,
0002
0000
0000
0000
0010
0000
0000
0000
1000
0000
0000
1000
0000
0000
0100
0000
,
0000
0000
0010
0000
0100
0000
0000
0000
1003
0010
0100
0001
0010
0100
1000
0000
,
0001
0100
0001
0100
0010
1000
0010
1000
0001
0100
0001
1000
0100
0010
0001
0000
,
1000
0100
1000
0100
0010
0001
0010
0001
1000
0010
1000
0001
0100
0010
1000
0000
,
0100
0010
0001
0100
0010
1000
0100
0010
0001
0100
0001
0100
0010
1000
0010
1000
,
0100
0000
0000
1000
0000
0000
0010
0000
0000
0100
0000
0000
0001
0000
0000
0010
0000
0000
0100
0000
0000
1000
0000
0000
0001
0000
0000
0000
0100
0000
0000
0000
0010
0000
0000
0000
1000
0000
0000
0000
0100
0000
0000
0000
0010
0000
0000
0000
,
0001
0010
0100
1000
0100
0010
0001
0100
0010
1000
0100
0010
,
0001
0100
0010
1000
0010
0100
0001
0010
0001
0010
0001
0100
,
1000
0100
0010
1000
0100
0010
1000
0010
0001
1000
0010
0001
,
0010
0100
0001
0010
0100
0001
0100
1000
0001
0100
1000
0001
,
0010
0000
0000
1000
0000
0000
0001
0000
0000
1000
0000
0000
0010
0000
0000
0100
0000
0000
0001
0000
0000
0100
0000
0000
0010
0000
0000
1000
0000
0000
0001
0000
0000
0100
0000
0000
0010
0000
0000
0000
1000
0000
0000
0000
0100
0000
0000
0000
,
0010
0000
0000
0001
0000
0000
1000
0000
0000
0001
0000
0000
0010
0000
0000
0100
0000
0000
1000
0000
0000
0100
0000
0000
0010
0000
0000
0000
0001
0000
0000
0000
0100
0000
0000
0000
0010
0000
0000
0000
1000
0000
0000
0000
0100
0000
0000
0000
,
0010
0000
0000
0001
0000
0000
1000
0000
0000
0010
0000
0000
0100
0000
0000
0001
0000
0000
1000
0000
0000
0100
0000
0000
0010
0000
0000
0000
0001
0000
0000
0000
0010
0000
0000
0000
0100
0000
0000
0000
0001
0000
0000
0000
0100
0000
0000
0000
,
1000
0010
0100
1000
0001
0010
0100
0001
0010
0100
0010
0001
,
1000
0010
0100
0001
1000
0010
0100
0001
1000
1100
0000
0100
,
1000
0001
0100
0001
0010
0100
1000
0001
0100
0110
0000
0010
,
1000
0001
0100
1000
0100
0001
1000
0100
0010
0011
0000
0001
,
0010
0100
1000
0010
0100
0001
0010
1000
0001
0100
1000
0001
,
0100
0000
0000
0010
0000
0000
0100
0000
0000
0010
0000
0000
1000
0000
0000
0001
0000
0000
1000
0000
0000
0001
0000
0000
0100
0000
0000
0000
0010
0000
0000
0000
0100
0000
0000
0000
0001
0000
0000
0000
1000
0000
0000
0000
0001
0000
0000
0000
,
0100
0000
0000
0001
0000
0000
0100
0000
0000
0001
0000
0000
1000
0000
0000
0010
0000
0000
1000
0000
0000
0010
0000
0000
0100
0000
0000
0000
0001
0000
0000
0000
0010
0000
0000
0000
0100
0000
0000
0000
1000
0000
0000
0000
0001
0000
0000
0000
,
1001
1000
0100
0110
0010
0001
1001
1000
0010
0110
0100
0001
,
1000
0100
0001
1000
0010
0001
0100
1000
0010
1000
0100
0001
,
2000
0000
0000
0000
,
0000
0000
0000
0000
,
3020
0000
0000
0000
,
0200
0000
0000
0330
,
0001
0010
0100
0010
0000
0010
0001
1000
,
0010
0000
0100
0000
0010
1000
0010
0000
0100
0000
0001
0000
1000
0000
0100
0010
,
0001
0000
0000
0000
0101
0000
1000
0010
0100
0001
1000
0000
0100
1000
0001
0000
,
0200
1000
0010
0301
,
2000
0000
0000
0000
0000
0000
0000
0000
0000
0000
0000
0000
3000
0000
0001
0100
,
0002
0000
0000
0000
0000
0000
0000
0000
0000
0000
0000
0000
0003
0000
1000
0010
,
0200
0000
0000
0000
0000
0000
0000
0000
0000
0000
0000
0000
0300
0000
0001
1000
,
0020
0000
0000
0030
,
1000
0000
0100
0000
1000
0001
0000
0010
0000
0001
0100
0000
0001
0000
0010
0000
,
0100
0000
1000
0000
0010
0100
0000
0001
0000
1000
0001
0000
0100
0000
0010
0000
,
1000
0000
0100
0000
0010
0001
0000
1000
0000
0100
0010
0000
0100
0000
1000
0000
,
0001
1000
0010
1000
0100
0010
0001
0100
0010
1000
0001
1000
0100
0010
0100
1000
,
0002
0000
0000
0000
0003
0000
0001
1000
0001
0000
0000
0000
0110
0000
0000
0000
,
2000
0010
3002
0100
1003
0010
0100
0101
,
0000
0000
0000
0000
0000
0000
0011
0000
0000
0000
0000
0000
0000
0000
0000
0000
0000
0000
0010
0000
0000
0001
0000
0000
0100
0000
0000
0000
0000
0000
0010
0000
1000
0000
0010
0000
1000
0000
0000
0000
0000
0000
0100
0000
0000
0000
0000
0000
,
0001
0000
0100
0000
1000
0000
0001
0010
0100
0001
1000
0010
0100
1000
0001
0100
,
1000
0000
0000
0100
0000
0000
0001
0000
0000
0100
0000
0000
1000
0000
0000
0100
0000
0000
0001
0000
0000
1000
0000
0000
0001
0000
0000
0000
0000
0000
0100
0000
0010
0000
0100
0000
0010
0000
0000
0000
0000
0000
1000
0000
0000
0000
0000
0000
,
0110
0000
0001
0100
1000
0000
0001
0010
1000
0000
1000
0100
0001
0000
1000
0010
,
0001
0100
0001
0010
0100
1000
0010
1000
0100
0000
1000
0010
0000
0010
0001
0000
,
0101
0000
0100
0010
1000
0000
1010
0000
0010
1000
0100
0000
0010
0000
0011
0000
,
0000
0000
1001
0000
1001
0000
1000
0001
1000
0000
0000
0000
0110
0000
0000
0000
,
0002
0100
2003
0010
3001
0100
0010
1010
,
0000
0000
0000
0000
0000
0000
1100
0000
0000
0000
0000
0000
0000
0000
0000
0000
0000
0000
0100
0000
0000
1000
0000
0000
0010
0000
0000
0000
0000
0000
0100
0000
0001
0000
0100
0000
0001
0000
0000
0000
0000
0000
0010
0000
0000
0000
0000
0000
,
1000
0000
0010
0000
0001
0000
1000
0100
0010
1000
0001
0100
0010
0001
1000
0010
,
0001
0000
0000
0010
0000
0000
1000
0000
0000
0010
0000
0000
0001
0000
0000
0010
0000
0000
1000
0000
0000
0001
0000
0000
1000
0000
0000
0000
0000
0000
0010
0000
0100
0000
0010
0000
0100
0000
0000
0000
0000
0000
0001
0000
0000
0000
0000
0000
,
0110
0000
1000
0010
0001
0000
1000
0100
0001
0000
0001
0010
1000
0000
0001
0100
,
1000
0000
0010
0100
1000
0000
1000
0100
0001
0000
0010
0100
0001
0000
0001
0100
,
1000
0010
0100
0001
0010
0100
1000
0100
0010
0001
0100
0010
1000
0100
0001
0100
,
1000
1001
0000
0000
0000
0000
0000
0000
,
1001
0000
0000
0000
0110
0000
0000
0000
0101
0000
0000
0110
0000
0000
1010
0000
,
0000
0000
1000
0000
0100
0000
0010
0001
0010
0000
0000
0001
0000
0000
0001
0000
,
1001
0000
0000
0000
0110
0000
0000
0000
1010
0000
0000
0110
0000
0000
0101
0000
,
0000
0000
0001
0000
0010
0000
0000
0000
0100
0000
0000
1000
0001
1000
0001
0000
,
1000
0010
0100
0001
1000
0100
0010
0001
1000
0010
0100
0010
1000
0001
0010
0001
,
0010
0100
1000
0001
1000
0100
0010
0001
0100
0010
1000
0001
0100
0010
1000
0001
,
0010
0100
0001
0100
0010
0001
1000
0010
0100
1000
0100
0010
1000
0100
0010
0001
,
1000
0100
0010
0100
0001
1000
0010
0100
0010
0001
0100
0010
0001
1000
0100
0001
,
0000
0000
2002
0000
,
0000
0000
0000
0000
,
0000
0000
0000
0000
,
3003
0000
0000
0000
,
0000
0000
0000
0000
;
#NOTES:
     dance-double:
     :
     Easy:
     10:
     :
00000000
00000000
00000000
00000000
,
00000000
00000000
00000000
00000000
,
00000000
00000000
00000000
00000000
,
00000000
00000000
00000000
00000000
,
00000000
00000000
00000000
00000000
,
00000000
00000000
00000000
00000000
,
10000000
00100000
01000000
00100000
,
10000000
00000000
01000000
00000000
00100000
01000000
00100000
00000000
,
01000000
00010000
01000000
00010000
,
00001000
00010000
00001000
00000000
00010000
00000000
00000000
00000000
,
00022000
00000000
00000000
00000000
,
00000000
00000000
00000000
00033000
,
00020000
00000000
00000000
00030000
,
00000020
00000000
00000000
00000030
,
00002000
00000000
00000000
00003000
,
00000200
00000000
00000000
00000300
,
00000010
00000001
00000010
00000000
00000001
00000000
00000000
00000000
,
00001000
00000100
00001000
00000000
00000100
00000000
00000000
00000000
,
00001000
00000001
00000100
00001000
,
00010000
00001000
00010000
00000000
00002000
00000000
00003000
00000000
,
00011000
00001000
00100000
00010000
,
01010000
01000000
00100000
10000000
,
11000000
01000000
00100000
00001000
,
00011000
00010000
00011000
00000000
,
00011000
00010000
00000010
00001000
,
00001100
00000100
00000010
00000001
,
00000101
00000100
00000010
00010000
,
00011000
00001000
00011000
00000000
,
00010000
00001000
01000000
00010000
,
00100000
00010000
01000000
00000000
,
00010000
10000000
01000000
00100000
,
00001000
00001000
00001000
00000000
,
00010000
00000100
00010000
00000000
00000100
00000000
00001000
00000000
,
00000010
00000100
00000010
00000000
00001000
00000000
00000001
00000000
,
00000010
00000100
00000010
00000000
00000100
00001000
00000100
00000000
,
00010000
00001000
00010000
00000000
00002000
00000000
00003000
00000000
,
00100000
00010000
01000000
00010000
,
00100000
00000000
00000000
01100000
00000000
00000000
10000000
00000000
10000000
00010000
00000000
00000000
,
00100000
01000000
00010000
00001000
,
00000010
00000000
00000000
00000110
00000000
00000000
00000100
00000000
00000100
00001000
00000000
00000000
,
00001001
00000110
00001001
00000000
,
00000001
00000000
00000001
00000100
00000000
00000000
00001000
00000000
00000000
00010000
00000000
00000000
,
01100000
10010000
01100000
00000000
,
10000000
00000000
10000000
00100000
00000000
00000000
01000000
00000000
01000000
00010000
00000000
00000000
,
10000000
01000000
00110000
00101000
,
00001000
00000000
00001000
00010000
00000000
00010000
00000100
00000000
00000000
00001000
00000000
00000000
,
00000010
00001000
00000101
00000011
,
00000010
00000000
00000010
00000100
00000000
00000100
00010000
00000000
00010000
00001000
00000000
00000000
,
00100000
00000000
00000000
00110000
00000000
00000000
00010000
00000000
00010000
01000000
00000000
00000000
,
00100000
00000000
00000000
10100000
00000000
00000000
10000000
00000000
10000000
00010000
00000000
00000000
,
01000000
00000000
01000000
00001000
00000000
00000000
00010000
00000000
00010000
00000100
00000000
00000000
,
00001000
00000000
00001000
00000010
00000000
00000010
00000100
00000000
00000000
00000001
00000000
00000000
,
00002002
00000000
00000000
00000000
,
00000000
00000000
00000000
00003003
,
00000001
00000000
00000100
00000000
,
00001000
00010000
00001000
00000000
,
00010000
00000000
00100000
00000000
,
10000000
00010000
10000000
00000000
,
00010000
00100000
01000000
10000000
,
00020000
00000000
00000000
00030000
,
10000000
00000000
01000000
00000000
00100000
00000000
00001000
00010000
,
00000000
00001000
00010000
00000000
00000100
00000000
00000010
00000000
,
00000001
00000000
00000100
00000000
00000010
00000000
00001000
00000010
,
00000000
00001000
00000010
00000000
00000100
00000000
00000000
00000000
,
00000001
00000010
00000100
00000000
00002000
00000000
00003000
00000000
,
00000100
00010000
00001000
00000000
00020000
00000000
00030000
00000000
,
00001000
00000000
00100000
00000000
00010000
01000000
00100000
00000000
,
10000000
01000000
00100000
00010000
10000000
00000000
00100000
00000000
,
02200000
00000000
00000000
03300000
,
10000000
00000000
00010000
00000000
01000000
00100000
10000000
00000000
,
01000000
00000000
00100000
00000000
00001000
00010000
00001000
00000000
,
00010000
00000000
00000010
00000000
00001000
00000010
00000100
00000000
,
00000010
00001000
00001001
00000000
,
00000001
00000000
00001000
00000000
00000100
00000010
00000001
00000000
,
00000100
00000000
00000010
00000000
00010000
00001000
00010000
00000000
,
00001000
00000000
00100000
00000000
00010000
00100000
01000000
00000000
,
00100000
00010000
10010000
00000000
,
10000000
00000000
01000000
00000000
00010000
00000000
00001000
00010000
,
00001000
00000000
00000010
00000000
00000001
00000000
00000100
00000010
,
00000100
00000001
00000010
00000100
,
00001000
00000010
00001000
00000000
00000001
00000000
00000000
00000000
,
00000001
00000000
00000100
00000000
00001000
00000000
00010000
00001000
,
00010000
00000000
00100000
00000000
10000000
00000000
01000000
00100000
,
01000000
10000000
00100000
01000000
,
00010000
00100000
00010000
00000000
10000000
00000000
00000000
00000000
,
00110000
00010000
00110000
00000000
,
11000000
10000000
11000000
00000000
,
10000000
01000000
00010000
00001000
,
00000010
00000001
00001000
00000000
,
00001010
00001000
00001010
00000000
,
00000101
00000001
00000101
00000000
,
00000001
00000100
00001000
00010000
,
00100000
10000000
00100000
00000000
01000000
00000000
00010000
00000000
,
00000000
00000000
20020000
00000000
,
00000000
00000000
00000000
00000000
,
00000000
00000000
00000000
00000000
,
30030000
00000000
00000000
00000000
,
00000000
00000000
00000000
00000000
;
#NOTES:
     dance-double:
     :
     Medium:
     15:
     :
00000000
00000000
00000000
00000000
,
00000000
00000000
00000000
00000000
,
00000000
00000000
00000000
00000000
,
00000000
00000000
00000000
00000000
,
00000000
00000000
00000000
00000000
,
00000000
00000000
00000000
00000000
,
10000000
00010000
01000000
00100000
10000000
00010000
01000000
00000000
,
00100000
10000000
01000000
00100000
00001000
00010000
00001000
00000000
,
00010000
00001000
00010000
00000000
00000100
00000000
00001000
00000000
00000010
00001000
00000010
00000000
00001000
00000000
00000100
00000000
,
00000010
00000000
00000001
00000000
00000100
00000000
00000000
00000000
00001000
00000000
00000000
00010000
00000000
00000000
00001000
00000000
,
00022000
00000000
00000000
00000000
,
00000000
00000000
00000000
00033000
,
00020000
00000000
00031000
00100000
,
00020000
00000000
10030000
01000000
,
00020000
00000000
01030000
00100000
,
00002000
00000000
00013000
00000100
,
00001000
00000010
00001000
00000100
00000010
00000000
00000001
00000000
,
00000100
00000010
00000100
00000010
00001000
00000000
00000100
00000000
,
00010000
00001000
00100000
00000000
00001000
00010000
00000010
00000000
,
00010000
00001000
00010000
00000000
00022000
00000000
00033000
00000000
,
00001000
00000000
00010000
00000000
00001000
00000000
00000000
00000000
00100000
00000000
00000000
00010000
00000000
00000000
01000000
00000000
,
00000000
00100000
10000000
00000000
00100000
01000000
10000000
01000000
,
00010000
00000000
00100000
00000000
00010000
00000000
00000000
00000000
00100000
00000000
00000000
00001000
00000000
00000000
00010000
00000000
,
00000000
00010000
00000100
00001000
00000010
00000100
00000001
00000000
,
00000010
00000000
00000001
00000000
00000100
00000010
00000100
00000000
00001000
00000000
00010000
00000000
00001000
00000000
00010000
00000000
,
00100000
00000000
01000000
00000000
00010000
10000000
00010000
00000000
00100000
00000000
01000000
00000000
00100000
00000000
01000000
00000000
,
00010000
00001000
00000010
00000001
00000100
00001000
00010000
00100000
,
10000000
00100000
10000000
00000000
00010000
00000000
10000000
00000000
01000000
00100000
01000000
00000000
00010000
00000000
00001000
00000000
,
00020000
00100000
00001000
01000000
,
00031000
00000010
00000100
00010000
00001000
00000100
00000010
00010000
,
00002000
00000010
00010000
00000100
,
00013000
00100000
01000000
00001000
00010000
01000000
00100000
00001000
,
00010000
00100000
00010000
00001000
00000100
00000010
00001000
00000100
,
00000010
00001000
00010000
01000000
00010000
00001000
00010000
00100000
,
10000000
00100000
10000000
00000000
01000000
00000000
00100000
00000000
01000000
00010000
01000000
00000000
00010000
00000000
00001000
00000000
,
00000010
00000001
00000010
00000000
00000001
00001000
00000001
00000000
00002000
00000000
00000000
00000000
00003000
00000000
00000000
00000000
,
00000001
00000000
00000001
00000100
00000000
00000100
00001000
00000000
00001000
00010000
00000000
00010000
,
00100000
00000000
00100000
10000000
00000000
10000000
01000000
00100000
00010000
10000000
00000000
00010000
,
10000000
00000000
10000000
01000000
00000000
01000000
00010000
00000000
00010000
00001000
00000000
00001000
,
00000010
00000000
00000010
00000001
00000000
00000001
00000100
00000010
00001000
00000001
00000000
00001000
,
00000001
00000000
00000000
00000100
00000000
00000000
00000010
00000000
00000000
00010000
00000000
00000000
00001000
00000000
00000000
00000100
00000000
00000000
00000010
00000000
00001000
00000000
00000010
00000000
,
00001000
00000000
00000000
00000100
00000000
00000000
00000001
00000000
00000000
00001000
00000000
00000000
00000010
00000000
00000001
00000000
00000010
00000000
00000001
00000000
00000000
00000000
00000001
00000000
,
00000100
00000000
00000000
00001000
00000000
00000000
00010000
00000000
00000000
00100000
00000000
00000000
10000000
00000000
00100000
00000000
10000000
00000000
00010000
00000000
00000000
00000000
00010000
00000000
,
00100000
00000000
00100000
01000000
00000000
01000000
00010000
00000000
00010000
00001000
00000000
00000000
,
00010000
00001000
00010000
00000100
00001000
00000100
00001000
00000010
00001000
00000010
00000000
00000000
,
00000100
00000001
00000100
00000001
00000010
00000001
00001000
00000100
00001000
00000100
00000000
00000000
,
00010000
00001000
00010000
00001000
00100000
00001000
00100000
00010000
00100000
00010000
00000000
00000000
,
10000000
00100000
01000000
00010000
01000000
00100000
10000000
00000000
10000000
00010000
00000000
00000000
,
10000000
00000000
00000000
01000000
00000000
00000000
00100000
00000000
00000000
00010000
00000000
00000000
00001000
00000000
00000000
00000000
00001000
00000000
00000100
00000000
00000000
00000000
00000010
00000000
,
00000001
00000000
00000000
00000100
00000000
00000000
00000010
00000000
00000000
00001000
00000000
00000000
00010000
00000000
00000000
00000000
00010000
00000000
01000000
00000000
00000000
00000000
00100000
00000000
,
10000000
00000000
10000000
01000000
00000000
01000000
00010000
00000000
00010000
00001000
00000000
00001000
,
00000010
00000000
00000010
00000001
00000000
00000001
00000100
00001000
00000100
00001000
00010000
00001000
,
00020000
00000000
00000000
00000000
,
00032000
00000000
00000000
00000000
,
00103000
00000000
00001000
00010000
00100000
01000000
10000000
01000000
,
00010000
00000000
00020000
20000000
00000000
00000000
30030000
00000000
,
10000000
00000000
01000000
00100000
00000000
00100000
00001000
00010000
,
00001000
00000000
00010000
00000100
00000010
00000000
00000001
00000100
,
00001000
00000000
00010000
00000000
00100000
00000000
01000000
00000000
00010000
10000000
00010000
10000000
00010000
00000000
00000000
00000000
,
20000000
30200000
00320000
00032000
,
00003100
00000000
00000001
00000000
00001000
00000000
00000000
00000100
00000000
00000100
00000000
00000000
00000010
00000000
00000000
00000000
,
00000001
00000000
00000100
00000000
00001000
00000000
00000000
00010000
00000000
00010000
00000000
00000000
00001000
00000000
00000000
00000000
,
00010000
00000000
00001000
00000000
01000000
00000000
00000000
00010000
00000000
00010000
00000000
00000000
10000000
00000000
00100000
00000000
,
10000000
01000000
10000000
00000000
00010000
00000000
01000000
00000000
00100000
01000000
00100000
00000000
10000000
00000000
00000000
00000000
,
00010000
00000000
00100000
00000000
01000000
00000000
00000000
10000000
00000000
10000000
00000000
00000000
01000000
00000000
00100000
00000000
,
00001000
00000000
00010000
00000000
00000100
00000000
00000000
00001000
00000000
00001000
00000000
00000000
00000010
00000000
00000000
00000000
,
00001000
00000000
00000100
00000000
00000001
00000000
00000000
00000100
00000000
00000100
00000000
00000000
00001000
00000000
00000010
00000000
,
00001000
00000010
00010000
00000000
00001000
00000000
01000000
00000000
00010000
00100000
00010000
00000000
01000000
00000000
00100000
00000000
,
02200000
00000000
00000000
03300000
,
10000000
00100000
00010000
00001000
00100000
00010000
00100000
01000000
,
00010000
00000000
00001000
00000000
00000010
00000000
00000001
00000000
00000010
00000000
00000100
00001000
00000100
00000000
00001000
00000000
,
00000020
00001000
00001030
00000000
00000002
00000100
00000103
00000000
,
00000001
00000010
00001000
00010000
01000000
10000000
00010000
00000000
,
20000000
00100000
30100000
00000000
20000000
01000000
31000000
00000000
,
10000000
00100000
10000000
00000000
00010000
01000000
00010000
00000000
01000000
00000000
00000000
01001000
00000000
00000000
00001000
00000000
,
00010000
00000100
00001000
00001010
00000000
00000110
00000100
00000101
,
00000000
00000001
00001001
00000000
00000002
00000000
00002003
00000000
,
00003001
00000010
00001000
00010000
00000010
00001000
00000010
00000100
,
00001000
00000000
00010000
00000000
00100000
00000000
10000000
00000000
00100000
00000000
01000000
00010000
01000000
00000000
00010000
00000000
,
00200000
00010000
00310000
00000000
20000000
01000000
31000000
00000000
,
10000000
00100000
00010000
00001000
00000100
00000001
00001000
00000000
,
00000001
00000000
00000010
00000100
00000010
00000000
00000001
00000000
00000100
00000000
00000010
00001000
00000010
00000000
00000100
00000000
,
00001000
00000000
00010000
00001000
00010000
00000000
00001000
00000000
00100000
00000000
00010000
00100000
00010000
00000000
01000000
00000000
,
00100000
10000000
11000000
01000000
00100000
00001000
00011000
00010000
,
00001000
00010000
00000000
00000000
00000000
00000000
00000000
00000000
,
00001000
00000000
00010000
00000000
00100000
00000000
10000000
00000000
00010000
00000000
00000000
01000000
00000000
00000000
01100000
00000000
,
00000000
00100000
10000000
01000000
00010000
10000000
00100000
00000000
,
00010000
00000000
00100000
00000000
00001000
00000000
00010000
00000000
00000100
00000000
00000000
00000010
00000000
00000000
00000110
00000000
,
00000000
00000100
00001000
00000001
00000100
00000010
00001000
00000000
,
00000001
00000000
00000100
00000010
00001000
00000000
00000100
00000000
00000010
00001000
00000000
00001000
00010000
00000000
01000000
00000000
,
00100000
00000000
00010000
10000000
00010000
00000000
01000000
00000000
00100000
10000000
00000000
10000000
01000000
00000000
00100000
00000000
,
00001000
00000000
00010000
00000100
00010000
00000000
00000010
00000000
00001000
00000100
00000000
00000010
00000001
00000000
00000100
00000000
,
00000010
00000000
00000100
00001000
00000100
00000000
00001000
00000000
00010000
00000000
00100000
00000000
10000000
00010000
10000000
00010000
,
00000000
00000000
20020000
00000000
,
00000000
00000000
00000000
00000000
,
00000000
00000000
00000000
00000000
,
30030000
00000000
00000000
00000000
,
00000000
00000000
00000000
00000000
;
#NOTES:
     dance-double:
     :
     Hard:
     18:
     :
00000000
00000000
00000000
00000000
,
00000000
00000000
00000000
00000000
,
00000000
00000000
00000000
00000000
,
00000000
00000000
00000000
00000000
,
00000000
00000000
00000000
00000000
,
00000000
00000000
00000000
00000000
,
10000000
00100000
01000000
00010000
10000000
01000000
00100000
00010000
,
01000000
00100000
00010000
00001000
00000100
00000010
00001000
00000100
,
00000010
00000001
00000100
00000000
00000010
00001000
00000100
00000000
00000010
00000001
00000100
00000010
00001000
00000100
00010000
00001000
,
00010000
00000000
00100000
01000000
00100000
00000000
10000000
00000000
01000000
00000000
00000000
00010000
00000000
00000000
00001000
00000000
,
00022000
00000000
00000000
00000000
,
00000000
00000000
00000000
00033000
,
00020000
00000000
00000000
00000000
,
00032000
00000000
00000000
00000000
,
00003200
00000000
00000302
00000000
,
00000023
00000000
00002030
00000000
00013000
01000000
10000000
00000000
,
00100000
00000000
01000000
00000000
00010000
00000000
00000000
10000000
00000000
10000000
00000000
00000000
01000000
00000000
00010000
00000000
,
00001000
00000000
00000010
00000000
00000001
00000000
00000000
00001000
00000000
00001000
00000000
00000000
00000010
00000000
00000100
00000000
,
00000001
00000000
00000010
00000000
00001000
00000000
00000000
00010000
00000000
00010000
00000000
00000000
00001000
00000000
00010000
00001000
,
01000000
00010000
01000000
00010000
00100000
01000000
10000000
01000000
00100000
00000000
00010000
01000000
00100000
00000000
10000000
01000000
,
00100000
00000000
00001000
00000000
00011000
00000000
00010000
00000000
00000100
00000000
00001000
00000010
00000000
00001000
00000100
00000000
,
00000010
00000000
00000001
00000000
00001001
00000000
00000000
00000000
00001000
00000000
00000000
00000100
00000000
00000000
00000001
00000000
,
00000100
00000000
00001000
00000010
00001000
00000000
00000100
00010000
00001000
00000000
00100000
00010000
00000000
01000000
00010000
00000000
,
00100000
00000000
01000000
00000000
11000000
00000000
00000000
00000000
10000000
00000000
00000000
01000000
00000000
00000000
00010000
00000000
,
01000000
10000000
01000000
10000000
00100000
00010000
00100000
00010000
,
00001000
00000100
00001000
00000100
00000001
00000010
00000001
00000010
,
00000100
00001000
00000001
00000100
00000010
00001000
00000100
00010000
00001000
00100000
00010000
00100000
01000000
10000000
00010000
01000000
,
00100000
00000000
10000000
00000000
10010000
00000000
00000000
00000000
10000000
00000000
00000000
10000000
01000000
00000000
00010000
00000000
,
00002000
00000000
00000000
00000000
00000010
00000000
00000000
00000000
00013000
00000000
00000000
01000000
00000000
00000000
00010000
00000000
,
00000000
00000000
00010000
00000000
00011000
00000000
00000000
00000000
00001000
00000000
00000000
01000000
00000000
00000000
00100000
00000000
,
00020000
00000000
00000000
00000000
01000000
00000000
00000000
00000000
00031000
00000000
00000000
00000010
00000000
00000000
00001000
00000000
,
00000000
00000000
00001000
00000000
00011000
00000000
00000000
00000000
00010000
00000000
00000000
00000010
00000000
00000000
00000100
00000000
,
00000001
00000100
00000010
00001000
00000001
00000010
00000100
00000000
00001000
00000010
00000100
00001000
00000100
00001000
00010000
00000000
,
00001000
00100000
00010000
01000000
00010000
00100000
00001000
00000000
00010000
00100000
01000000
00010000
10000000
00010000
10000000
00000000
,
01000000
10000000
00100000
01000000
00010000
00100000
00001000
00010000
00000100
00001000
00000010
00000100
00000001
00000010
00000100
00001000
,
00000010
00000100
00000010
00000100
00001000
00010000
00001000
00010000
00002000
00000000
00000000
00000000
00013000
00000000
00000000
00000000
,
00001000
00010000
00100000
01000000
00010000
00100000
01000000
00010000
01000000
10000000
00100000
00010000
,
10000000
01000000
00010000
00100000
01000000
00010000
00001000
00100000
00001000
00011000
00000000
00000000
,
00010000
00001000
00000010
00000100
00001000
00000010
00000100
00001000
00000100
00000001
00000010
00001000
,
00000001
00000100
00001000
00000010
00000100
00001000
00010000
00100000
01000000
00100000
00010000
00001000
,
00000100
00000010
00001000
00000010
00000100
00000001
00000010
00000001
00001000
00000100
00001000
00000100
00010000
00000000
00000000
00000000
,
00001000
00000000
00000000
00100000
00000000
00000000
00010000
00000000
00000000
00100000
00000000
00000000
00010000
00000000
00000000
01000000
00000000
00000000
00100000
00000000
00000000
10000000
00000000
00000000
00100000
00000000
00000000
00000000
01000000
00000000
00000000
00000000
00010000
00000000
00000000
00000000
10000000
00000000
00000000
00000000
00000000
00000000
00000000
00000000
00000000
00000000
00000000
00000000
,
01000000
00000000
00000000
00100000
00000000
00000000
00010000
00000000
00000000
00100000
00000000
00000000
00001000
00000000
00000000
00010000
00000000
00000000
00001000
00000000
00000000
01000000
00000000
00000000
00010000
00000000
00000000
00000000
00100000
00000000
00000000
00000000
01000000
00000000
00000000
00000000
00010000
00000000
00000000
00000000
10000000
00000000
00000000
00000000
00100000
00000000
00000000
00000000
,
00010000
01000000
00100000
00010000
00001000
00000100
00000001
00000010
00001000
00000010
00000001
00001000
,
00000010
00000100
00001000
00000001
00000010
00000100
00000001
00000010
00001000
00010000
00000000
00010000
,
00001000
00100000
00010000
01000000
00100000
10000000
01000000
00010000
01000000
10000000
00000000
10000000
,
00100000
01000000
10000000
00010000
00100000
01000000
00001000
00010000
00000100
00000010
00000000
00000010
,
00001000
00000001
00000100
00001000
00000001
00000100
00001000
00010000
00100000
10000000
00010000
01000000
,
00100000
00000000
00000000
10000000
00000000
00000000
00100000
00000000
00000000
10000000
00000000
00000000
00010000
00000000
00000000
01000000
00000000
00000000
00010000
00000000
00000000
01000000
00000000
00000000
00010000
00000000
00000000
00000000
00100000
00000000
00000000
00000000
00001000
00000000
00000000
00000000
00010000
00000000
00000000
00000000
00000100
00000000
00000000
00000000
00001000
00000000
00000000
00000000
,
00000001
00000000
00000000
00000010
00000000
00000000
00000001
00000000
00000000
00000010
00000000
00000000
00000100
00000000
00000000
00000010
00000000
00000000
00000100
00000000
00000000
00000010
00000000
00000000
00000001
00000000
00000000
00000000
00000100
00000000
00000000
00000000
00000010
00000000
00000000
00000000
00001000
00000000
00000000
00000000
00000100
00000000
00000000
00000000
00000010
00000000
00000000
00000000
,
00000001
00000001
00000100
00001000
00001000
00010000
00100000
10000000
00010000
01000000
10000000
01000000
,
00010000
00100000
00001000
00010000
01000000
00100000
00001000
00010000
00000100
00001000
00000010
00000100
,
00000002
00000000
00000000
00000000
,
00000203
00000000
00000000
00000000
,
00002300
00000000
00000000
00000000
,
00020000
00000000
00000000
00033000
,
00001000
00010000
00100000
10000000
00000000
00000000
10000000
01000000
,
00100000
00000000
00001000
00000000
00010000
00001000
00010000
00000000
00001000
00000000
00010000
00000000
00000100
00000000
00010000
00000000
,
00001000
00000000
00000000
00000000
00001000
00000000
00000010
00000000
00000001
00000010
00000100
00001000
00000001
00000000
00000100
00000000
,
00000020
00000001
00002000
00003030
,
00000001
00000010
00000100
00001000
00000001
00000010
00000100
00001000
,
00000001
00000100
00001000
00010000
00001000
00010000
00100000
10000000
,
00010000
00100000
01000000
10000000
00010000
00100000
01000000
10000000
,
00010000
10000000
01000000
00010000
00001000
00000010
00000001
00001000
,
00000100
00000000
00000010
00000000
00000001
00000000
00000000
00000100
00000000
00000100
00000000
00000000
00000001
00000000
00000010
00000100
,
00001000
00000000
00000010
00000000
00000100
00000000
00000000
00001000
00000000
00001000
00000000
00000000
00010000
00000000
00001000
00100000
,
00001000
00000000
00010000
00000000
00100000
00000000
00000000
01000000
00000000
01000000
00000000
00000000
00010000
00000000
10000000
01000000
,
00100000
00010000
10000000
00000000
00100000
01000000
00010000
00000000
10000000
01000000
10000000
01000000
00010000
00000000
00000000
00000000
,
00022000
00000000
00000000
00033000
,
00001000
00000000
00010000
00000100
00010000
00000000
00000100
00000000
00000010
00000000
00001000
00000000
00000001
00000000
00000101
00000000
,
00000000
00000000
00000000
00000000
00000000
00000000
00001100
00000000
00000000
00000000
00000000
00000000
00000000
00000000
00000000
00000000
00000000
00000000
00000001
00000000
00000000
00000100
00000000
00000000
00000010
00000000
00000000
00000000
00000000
00000000
00001000
00000000
00000010
00000000
00001000
00000000
00000010
00000000
00000000
00000000
00000000
00000000
00000100
00000000
00000000
00000000
00000000
00000000
,
00002000
00000000
00010000
00000000
00023000
00000000
00100000
00000000
00130000
10000000
00010000
10000000
00100000
01000000
00010000
00100000
,
00001000
00010000
00100000
00010000
00001000
00010000
00100000
00010000
00001000
00000000
00010000
00000000
00000100
00000000
00001000
00000000
,
00000020
00000000
00000031
00001000
00000200
00000000
00000310
00001000
,
00000100
00010000
00001000
00010000
00000100
00001000
00000100
00010000
00001000
00000000
00100000
00010000
00000000
00010000
01000000
00000000
,
01100000
00000000
00100000
10000000
00010000
00000000
00110000
00000000
00100000
00001000
00010000
00000000
00000100
00000000
00000110
00000000
,
00000000
00000000
00000010
00000000
00001000
00000000
00010000
00001000
00010000
00000000
00000000
00000000
00011000
00000000
00000000
00000000
,
00010000
00000000
00001000
01000000
00001000
00000000
01000000
00000000
00100000
00000000
00010000
00000000
10000000
00000000
11000000
00000000
,
00000000
00000000
00000000
00000000
00000000
00000000
01010000
00000000
00000000
00000000
00000000
00000000
00000000
00000000
00000000
00000000
00000000
00000000
10000000
00000000
00000000
01000000
00000000
00000000
00100000
00000000
00000000
00000000
00000000
00000000
00010000
00000000
00100000
00000000
00010000
00000000
00100000
00000000
00000000
00000000
00000000
00000000
01000000
00000000
00000000
00000000
00000000
00000000
,
00020000
00000000
00001000
00000000
00032000
00000000
00000010
00000000
00003010
00000001
00001000
00000001
00000010
00000100
00001000
00000010
,
00010000
00001000
00000010
00001000
00010000
00001000
00000010
00001000
00010000
00000000
00001000
00000000
01000000
00000000
00010000
00000000
,
00200000
00000000
00000000
00000000
01300000
10000000
00010000
01000000
00200000
00000000
00000000
00000000
00310000
00001000
00010000
00000010
,
00002000
00000000
00000000
00000000
00003001
00000010
00000100
00001000
00000100
00000000
00010000
00001000
00000000
00100000
00010000
00000000
,
10000000
00100000
10000000
00100000
01000000
00010000
01000000
00010000
00100000
01000000
00100000
01000000
00010000
00001000
00010000
00001000
,
00010000
00011000
00000000
00000000
00000000
00000000
00000000
00000000
,
00010000
00000000
00000010
00000000
00001000
00000000
00000010
00000000
00000100
00000000
00000000
00000101
00000000
00000000
00001001
00000000
,
00000000
00000000
00000001
00000000
00000010
00000000
00001000
00010000
00001000
00000000
00000000
00010000
00000000
00000000
00100000
00000000
,
10000000
00000000
01000000
00000000
00100000
00000000
01000000
00000000
00010000
00000000
00000000
00011000
00000000
00000000
00101000
00000000
,
00000000
00000000
00100000
00000000
01000000
00000000
00010000
00000000
01000000
00000000
00000000
10000000
00010000
00000000
00010000
00000000
,
10000000
00100000
01000000
00010000
10000000
01000000
00100000
00010000
01000000
00001000
00010000
00001000
00100000
00010000
00100000
00001000
,
00010000
00000100
00001000
00000100
00000010
00000001
00001000
00000100
00001000
00000001
00000100
00000010
00001000
00000001
00000100
00000000
,
00000001
00000010
00000100
00001000
00000010
00000100
00001000
00010000
00100000
01000000
00001000
00010000
00100000
01000000
00001000
00010000
,
00100000
01000000
00010000
10000000
01000000
00100000
10000000
00100000
01000000
10000000
00100000
01000000
00100000
00010000
00001000
00000100
,
00000000
00000000
00002002
00000000
,
00000000
00000000
00000000
00000000
,
00000000
00000000
00000000
00000000
,
00003003
00000000
00000000
00000000
,
00000000
00000000
00000000
00000000
;
