
//----- song ID: adrn -----//
#TITLE:アドレナリン;
#ARTIST:U1 overground;
#TITLETRANSLIT:Adrenaline;
#BANNER:Adrenaline.png;
#BACKGROUND:Adrenaline-bg.png;
#CDTITLE:./CDTitles/Miraidagakki FutureTomTom Ver.2.png;
#MUSIC:Adrenaline.ogg;
#SAMPLESTART:63.429;
#SAMPLELENGTH:15;
#BPMS:0=140,100=70,116=140,140=70,148=140,156=70,164=140;
#STAGE:15;
#NOTES:
     dance-single:
     :
     Beginner:
     2:
     :
0000
0000
0000
0000
,
0000
0000
0000
0000
,
0000
0000
0000
0000
,
0000
0000
0000
0000
,
0000
0000
0000
0000
,
0001
0000
0000
0000
,
0010
0000
0000
0000
,
0001
0000
0000
0000
,
0000
0000
0000
0000
,
0010
0000
0000
0000
,
0100
0000
0000
0000
,
0010
0000
0000
0000
,
0000
0000
0000
0000
,
1000
0000
0000
0000
,
0100
0000
0000
0000
,
1000
0000
0000
0000
,
0000
0000
0000
0000
,
1000
0000
0000
0000
,
1000
0000
0000
0000
,
0010
0000
0000
0000
,
0010
0000
0000
0000
,
0100
0000
0000
0000
,
0100
0000
0000
0000
,
0001
0000
0000
0000
,
0000
0000
0000
0000
,
1001
0000
0000
0000
,
1001
0000
0000
0000
,
0001
0000
0001
0000
,
0100
0000
0000
0000
,
1001
0000
0000
0000
,
0000
0000
0000
0000
,
1000
0000
0000
0000
,
0100
0000
0000
0000
,
0010
0000
0000
0000
,
0010
0000
0000
0000
,
0010
0000
0000
0000
,
1001
0000
0000
0000
,
0001
0000
0000
0000
,
0001
0000
0000
0000
,
0001
0000
0000
0000
,
1001
0000
0000
0000
,
0001
0000
0000
0000
,
0010
0000
0000
0000
,
0100
0000
0000
0000
,
0010
0000
0000
0000
,
0100
0000
0000
0000
,
0100
0000
0000
0000
,
0100
0000
0000
0000
,
1001
0000
0000
0000
,
0000
0000
0000
0000
;
#NOTES:
     dance-single:
     :
     Easy:
     5:
     :
0000
0000
0000
0000
,
0000
0000
0000
0000
,
0000
0000
0000
0000
,
0000
0000
0000
0000
,
0000
0000
0000
0000
,
1000
1000
1000
0000
,
0001
0001
0001
0000
,
0100
0010
0100
0000
,
0010
0100
0010
0000
,
1000
0100
1000
0100
,
0010
0001
0010
0000
,
0001
0100
0001
0100
,
0001
0010
0001
0000
,
0001
0100
0001
0100
,
0010
1000
0010
0000
,
1000
0010
1000
0010
,
1000
0100
1000
0000
,
0001
0100
0010
0000
,
1000
0100
0010
0000
,
0110
0000
0110
0000
,
1001
0000
0000
0000
,
1000
0010
0100
0000
,
0001
0010
0100
0000
,
0110
0000
0110
0000
,
1001
0000
0000
0000
,
0002
0000
0003
0000
,
2000
0000
3000
0000
,
0020
0000
0030
0000
,
0200
0000
0300
0000
,
0001
0100
0001
0001
,
0100
0100
0001
0000
,
1000
0100
1000
1000
,
0100
0100
1000
0000
,
0001
0010
0001
0010
,
0100
1000
0010
1000
,
0200
0000
0300
0000
,
0020
0000
0030
0000
,
0001
0100
0010
0010
,
1000
1000
0001
0000
,
2000
0000
3000
0000
,
0200
0000
0300
0000
,
1000
0001
0100
0001
,
1000
0010
1000
0000
,
0001
0010
0001
1000
,
0010
0100
0001
0000
,
1000
0010
1000
0010
,
0100
0001
0100
0000
,
0001
0010
0100
0000
,
2002
0000
0000
3003
,
0000
0000
0000
0000
;
#NOTES:
     dance-single:
     :
     Medium:
     10:
     :
0000
0000
0000
0000
,
0000
0000
0000
0000
,
0000
0000
0000
0000
,
0000
0000
0000
0000
,
0000
0000
0000
0000
,
1000
0010
1000
0100
1000
0010
1000
0100
,
0010
0001
0010
0000
0011
0000
1010
1000
,
0001
0010
0001
0000
0101
0000
1100
1000
,
0010
0100
0010
0000
0110
0000
1001
0000
,
1000
0100
1000
0100
0010
0100
1000
0000
,
0001
0010
0001
0010
0100
0010
0001
0000
,
0101
1100
0101
1100
,
0011
1010
0011
1010
,
1000
0010
1000
0010
0100
0010
1000
0000
,
0001
0100
0001
0100
0010
0000
0000
0000
,
1010
1100
1010
1100
,
0011
0101
0011
0101
,
0000
0001
0010
0001
0000
0100
0010
0100
,
0000
0010
1000
0010
0000
1000
0001
1000
,
0100
0000
0010
0000
0000
0010
0000
0000
0001
0000
1000
0000
0000
1000
0000
0000
,
0010
0000
0100
0000
0000
0100
0000
0000
0001
0000
1000
0000
0000
1000
0000
0000
,
0000
1000
0100
1000
0000
0010
0100
0010
,
0000
0100
0001
0100
0000
0001
1000
0001
,
0010
0100
1000
0000
0010
0100
0001
0000
,
2002
0000
0000
3003
,
0001
0001
1001
0000
1000
1000
1001
0000
,
0100
0100
0110
0000
0010
0010
0110
0000
,
1000
0000
0000
0000
0000
1000
0100
0000
0000
0000
0000
0000
0001
0000
0000
0001
0000
0000
0100
0000
0000
0000
0000
0000
,
1000
0000
0000
0000
0000
1000
0010
0000
0000
0000
0000
0000
0001
0000
0000
0001
0000
0000
0010
0000
0000
0000
0000
0000
,
0001
0000
0000
1000
0000
0000
0100
0010
0100
0010
0000
0000
,
0001
0101
1000
1010
,
0001
0000
0000
1000
0000
0000
0100
0010
0001
0010
0000
0000
,
0001
0110
1000
0110
,
0000
0001
1000
0001
0000
0010
0100
0010
,
0000
0001
0100
0010
0000
1000
0001
0100
,
0010
0010
0110
0000
1000
1000
1100
0000
,
0001
0001
0101
0000
0100
0100
0110
0000
,
0000
1000
0100
0010
0000
0100
0010
0001
,
0000
0001
0100
0010
0000
0100
0010
1000
,
0001
0001
1100
0000
0010
0010
0101
0000
,
1000
1000
0110
0000
0100
0100
0011
0000
,
0000
1000
0100
0010
0000
0001
1000
0100
,
0000
1000
0010
0100
0000
0001
1000
0010
,
0100
0000
0000
0100
0000
0000
0001
0000
0000
0001
0000
0000
1001
0000
0000
0000
,
1000
0000
0000
1000
0000
0000
0100
0000
0000
0100
0000
0000
0110
0000
0000
0000
,
0001
0010
1000
0010
0001
0000
1001
0000
,
1000
0010
0001
0010
1000
0000
1001
0000
,
0001
0100
0001
0000
1000
0010
1000
0010
,
0220
0000
0000
0330
,
0000
0000
0000
0000
;
#NOTES:
     dance-single:
     :
     Hard:
     15:
     :
0000
0000
0000
0000
,
0000
0000
0000
0000
,
0000
0000
0000
0000
,
0000
0000
0000
0000
,
0000
0000
0000
0000
,
1000
0000
0010
0100
0001
0000
0010
0100
1000
0000
0001
0100
0000
0100
0001
0000
,
0011
0000
1000
0000
1010
0000
0001
0100
0001
0000
1000
0001
0000
0001
1000
0000
,
1100
0000
0001
0000
0101
0000
1000
0010
1000
0000
0001
1000
0000
1000
0001
0000
,
0110
0000
1000
0000
1001
0000
0001
1000
0001
0100
0000
0010
0000
0010
0100
0000
,
0001
0000
1000
0100
0010
0000
0010
0001
1000
0000
1000
0010
0100
0000
0100
0001
,
1000
0000
1000
0010
0100
0000
0100
0010
1000
0100
0000
1000
0010
1000
0000
0000
,
0001
0100
0010
1000
0001
0100
0010
1000
0001
0100
0010
1000
0001
0100
0010
1000
,
0001
0000
0001
0000
0001
0000
0001
0000
0200
0000
0000
0000
0310
1000
0010
1000
,
0001
0000
0001
0100
0010
0000
0010
1000
0001
0000
0001
0010
0100
0000
0100
1000
,
0001
0000
0000
0000
0000
0000
0001
0000
0000
0010
0000
0000
0100
0000
0000
0000
0000
0000
0100
0000
0000
0010
0000
0000
0001
0000
0000
0000
0100
0000
0000
0000
0010
0000
0000
0000
0001
0000
0000
0000
0010
0000
0000
0000
1000
0000
0000
0000
,
0001
0000
0010
0001
1000
0100
0010
0001
1000
0100
0010
0001
1000
0100
0010
0001
,
1000
0000
1000
0000
1000
0000
1000
0000
0200
0000
0000
0000
0310
0001
0010
0001
,
0100
0000
0010
1000
0001
0000
0010
0001
1000
0000
0100
0010
0001
0100
0001
0010
,
0100
0000
1000
0001
0100
0000
0001
1000
0100
0000
0010
0100
1000
0010
1000
0100
,
0010
0001
1000
0000
0001
1000
0000
0000
0010
1000
0001
0000
1000
0001
0000
0000
,
0100
0001
1000
0000
0001
1000
0000
0000
0100
1000
0001
0000
1000
0001
0000
0000
,
0100
0000
0001
0010
0100
0010
0100
1000
0001
0000
1000
0010
0100
0010
0100
0001
,
1000
0000
0001
0100
0010
0100
0010
1000
0001
0000
1000
0100
0010
0100
0010
0001
,
1000
0010
1000
0000
0001
0010
0001
0000
1000
0100
1000
0000
0001
0100
0001
0000
,
2002
0000
0000
3003
,
0001
0000
0000
0000
0000
0000
0000
0000
0000
0000
0000
0000
0110
0000
0000
0000
0000
0000
0000
0000
0000
0000
0000
0000
1000
0000
0000
0000
0010
0000
0000
0000
1000
0000
0000
0000
0100
0000
0000
0000
0010
0000
0000
0000
0100
0000
0000
0000
2000
0000
0000
0000
0000
0000
0000
0000
0000
0000
0000
0000
0000
0000
0000
0000
0000
0000
3001
0000
0000
0100
0000
0000
0020
0000
0000
0000
0000
0000
0000
0000
0000
0000
0000
0000
1030
0000
0000
0000
0001
0000
0000
0000
1000
0000
0000
0000
,
0001
0000
0000
0000
0000
0000
0000
0000
0000
0000
0000
0000
0110
0000
0000
0000
0000
0000
0000
0000
0000
0000
0000
0000
0001
0000
0000
0000
0010
0000
0000
0000
0001
0000
0000
0000
0100
0000
0000
0000
0010
0000
0000
0000
0100
0000
0000
0000
0002
0000
0000
0000
0000
0000
0000
0000
0000
0000
0000
0000
0000
0000
0000
0000
0000
0000
1003
0000
0000
0010
0000
0000
0100
0000
0000
0000
0001
0000
0000
0000
0010
0000
0000
0000
0100
0000
0000
0000
1000
0000
0000
0000
0001
0000
0000
0000
,
2000
0000
0000
0000
0000
0000
0000
0000
0000
0000
3100
0000
0001
0000
0100
0000
1000
0000
0001
0000
0000
0000
0000
0000
0011
0000
0000
0000
0000
0000
0101
0000
0000
0100
0000
0000
1010
0000
0000
1000
0000
0000
1001
0000
0000
0000
0000
0000
,
0002
0000
0000
0000
0000
0000
0000
0000
0000
0000
0103
0000
1000
0000
0100
0000
0001
0000
1000
0000
0000
0000
0000
0000
1010
0000
0000
0000
0000
0000
1100
0000
0000
0100
0000
0000
0010
0000
0001
0000
0010
0000
0001
0000
0000
0000
0000
0000
,
1000
0000
0000
0000
0000
0000
0010
0000
0000
0100
0000
0000
0001
0000
0000
0000
0000
0000
0100
0000
0000
0010
0000
0000
1000
0000
0000
0000
0100
0000
0000
0000
0010
0000
0000
0000
0011
0000
0000
0000
0001
0000
0000
0000
1000
0000
0000
0000
,
0001
0100
0010
0001
0010
0100
0001
0010
0100
0001
0100
0010
,
0001
0000
0000
0110
0000
0000
0001
0010
0100
1100
1000
0001
,
1000
0010
0100
1000
0100
0010
1000
0100
0010
1000
0000
0000
,
0001
0000
0100
0001
0010
0000
0100
1000
0010
0000
0100
0010
0000
0100
0010
0000
,
1000
0000
0010
1000
0100
0000
0010
0001
0100
0000
0010
0100
0000
0010
0100
0000
,
0002
0000
0000
0000
0000
0000
0000
0000
0000
0000
0000
0000
0000
0000
0000
0000
0000
0000
0000
0000
0103
0000
0000
0000
1000
0000
0000
0000
0001
0000
0000
0000
0010
0000
0000
0000
1000
0000
0000
0000
0000
0000
0000
0000
0000
0000
0000
0000
1000
0000
0000
0000
0100
0000
0000
0000
0001
0000
0000
0000
0100
0000
0000
0000
0000
0000
0010
0000
0000
0001
0000
0000
0010
0000
0000
0000
0000
0000
0000
0000
0000
0000
0000
0000
0011
0000
0000
0000
0000
0000
0001
0000
0000
0000
0000
0000
,
2000
0000
0000
0000
0000
0000
0000
0000
0000
0000
3100
0000
0001
0000
1000
0000
0010
0000
0001
0000
0000
0000
0000
0000
0011
0000
0000
0000
0000
0000
0101
0000
0000
1000
0000
0000
0010
0000
0100
0000
0010
0000
0100
0000
0000
0000
0000
0000
,
0001
0000
1000
0100
0010
0000
0001
0100
0001
1000
0010
1000
0000
1000
0100
0010
,
0001
0000
0100
0001
1000
0000
0100
0010
0001
1000
0010
1000
0000
1000
0010
0100
,
0020
0000
0000
0000
0000
0000
0000
0000
0000
0000
0000
0000
0000
0000
0000
0000
0000
0000
0000
0000
1030
0000
0000
0000
0001
0000
0000
0000
0100
0000
0000
0000
0010
0000
0000
0000
1010
0000
0000
0000
0000
0000
0000
0000
0000
0000
0000
0000
1100
0000
0000
0000
0000
0000
0002
0000
0000
0000
0000
0000
0000
0000
0000
0000
0000
0000
0103
0000
0000
1000
0000
0000
0002
0000
0000
0000
0000
0000
0000
0000
0000
0000
0000
0000
0013
0000
0000
1000
0000
0000
0010
0000
0000
0000
0000
0000
,
0200
0000
0000
0000
0000
0000
0000
0000
0000
0000
0000
0000
0000
0000
0000
0000
0000
0000
0000
0000
0301
0000
0000
0000
1000
0000
0000
0000
0100
0000
0000
0000
0010
0000
0000
0000
0011
0000
0000
0000
0000
0000
0000
0000
0000
0000
0000
0000
0001
0000
0000
0100
0000
0000
0110
0000
0000
0000
0000
0000
1000
0000
0000
0010
0000
0000
0110
0000
0000
0000
0000
0000
2002
0000
0000
0000
0000
0000
3003
0000
0000
0000
0000
0000
0220
0000
0000
0000
0000
0000
0330
0000
0000
0000
0000
0000
,
1000
0100
0010
0001
1000
0010
0000
0010
1000
0000
0100
0010
0000
0010
0001
0000
,
0100
0010
0000
1000
0010
0000
0100
0001
0000
0100
0010
0000
1000
0001
1000
0000
,
0001
0010
0000
0010
1000
0000
1000
0100
0000
0100
0001
0000
1000
0001
1000
0001
,
1000
0100
0000
0100
0001
0000
0001
0010
0000
0010
1000
0000
0001
1000
0001
1000
,
0001
0000
0100
1000
0100
0000
0001
0100
0001
0100
0001
0000
0010
1000
0010
1000
,
0010
0001
0000
0001
0100
0000
0010
1000
0000
1000
0100
0000
0001
0100
0001
0100
,
1000
0010
1000
0010
0001
0010
0001
0010
1000
0100
0010
0001
1000
0100
0010
0001
,
2000
0000
0000
3000
,
0000
0000
0000
0000
;
#NOTES:
     dance-double:
     :
     Easy:
     5:
     :
00000000
00000000
00000000
00000000
,
00000000
00000000
00000000
00000000
,
00000000
00000000
00000000
00000000
,
00000000
00000000
00000000
00000000
,
00000000
00000000
00000000
00000000
,
10000000
00100000
01000000
00010000
,
10000000
10000000
10000000
00000000
,
00010000
00100000
00001000
00010000
,
00001000
00001000
00001000
00000000
,
00010000
00001000
00010000
00000100
,
00001000
00000010
00000100
00000000
,
00000001
00000010
00000001
00000100
,
00000010
00001000
00000010
00000000
,
00000010
00010000
00000010
00010000
,
00001000
00010000
00001000
00000000
,
00100000
00001000
00100000
00001000
,
01000000
00010000
00100000
00000000
,
00010000
01000000
00100000
00000000
,
10000000
01000000
00100000
00000000
,
01100000
00000000
10010000
00000000
,
10000000
00010000
10000000
00000000
,
10000000
01000000
00100000
00000000
,
00001000
00010000
00001000
00000000
,
00010000
00000010
00001000
00000010
,
00000100
00000000
00000000
00000000
,
00000002
00000000
00000003
00000000
,
00000200
00000000
00000300
00000000
,
00002000
00000000
00003000
00000000
,
00020000
00000000
00030000
00000000
,
00001000
00100000
00010000
00010000
,
01000000
00100000
10000000
00000000
,
01000000
10000000
01000000
01000000
,
00010000
00001000
00010000
00000000
,
00001000
00010000
00000010
00000100
,
00000010
00000100
00000001
00000000
,
00002000
00000000
00003000
00000000
,
00000200
00000000
00000300
00000000
,
00010000
00001000
00010000
00010000
,
00001000
01000000
00010000
00000000
,
00200000
00000000
00300000
00000000
,
02000000
00000000
03000000
00000000
,
10000000
01000000
10000000
01000000
,
00100000
00001000
00010000
00001000
,
00100000
00000000
01100000
00000000
,
00001000
00010000
00011000
00000000
,
00001000
00010000
00000100
00010000
,
00001000
00010000
00000010
00001000
,
00000100
00000100
00000010
00000000
,
00000220
00000000
00000000
00000330
,
00000000
00000000
00000000
00000000
;
#NOTES:
     dance-double:
     :
     Medium:
     10:
     :
00000000
00000000
00000000
00000000
,
00000000
00000000
00000000
00000000
,
00000000
00000000
00000000
00000000
,
00000000
00000000
00000000
00000000
,
00000000
00000000
00000000
00000000
,
10000000
01000000
10000000
01000000
10000000
00100000
10000000
01000000
,
00100000
00000000
00101000
00000000
00001000
00010000
00001000
00000000
,
00010000
00000000
00010010
00000000
00000010
00001000
00000010
00000000
,
00001000
00000000
00001100
00000000
00000100
00000010
00000001
00000000
,
00000001
00000100
00000001
00000100
00000001
00000010
00000100
00000000
,
00001000
00000100
00001000
00000100
00010000
00001000
00010000
00000000
,
00011000
01001000
00011000
01001000
,
01010000
01100000
10100000
01100000
,
10000000
01000000
10000000
01000000
10000000
00100000
01000000
00000000
,
00010000
01000000
00010000
01000000
00002000
00000000
00003000
00000000
,
00011000
00010100
00011000
00010100
,
00001100
00000110
00000011
00000110
,
00000000
00000001
00001000
00000001
00000000
00001000
00000100
00001000
,
00000000
00000010
00010000
00000010
00000000
00010000
00001000
00010000
,
00001000
00000000
00100000
00000000
00000000
00100000
00000000
00000000
00010000
00000000
01000000
00000000
00000000
01000000
00000000
00000000
,
00100000
00000000
10000000
00000000
00000000
10000000
00000000
00000000
01000000
00000000
00100000
00000000
00000000
00100000
00000000
00000000
,
00010000
10000000
00010000
10000000
00000000
00010000
01000000
00010000
,
00000000
00100000
00001000
00100000
00000000
00001000
00010000
00001000
,
00010000
00000010
00001000
00000010
00000100
00000001
00001000
00000000
,
00002002
00000000
00000000
00003003
,
00000001
00000001
00000100
00000100
00001000
00010000
00001000
00000000
,
00010000
00010000
00100000
00100000
10000000
00010000
10000000
00000000
,
10000000
00000000
00000000
00000000
00000000
10000000
01000000
00000000
00000000
00000000
00000000
00000000
00100000
00000000
00000000
00100000
00000000
00000000
00001000
00000000
00000000
00000000
00000000
00000000
,
00010000
00000000
00000000
00000000
00000000
00010000
00000010
00000000
00000000
00000000
00000000
00000000
00001000
00000000
00000000
00001000
00000000
00000000
00000100
00000000
00000000
00000000
00000000
00000000
,
00000010
00000000
00000000
00000110
00000000
00000000
00000001
00001000
00000001
00001000
00000000
00000000
,
00000001
00000100
00000010
00000000
00010000
00001000
00010000
00000000
,
00001000
00000000
00000000
00101000
00000000
00000000
00010000
00100000
00010000
00100000
00000000
00000000
,
00010000
00000000
00010000
01000000
00000000
00000000
10000000
00000000
10000000
01000000
00000000
00000000
,
00000000
00010000
10000000
00100000
00000000
01000000
00010000
01000000
,
00000000
00010000
00100000
00001000
00000000
00010000
00001000
00010000
,
00001000
00000010
00000001
00000001
00001000
00000100
00000010
00000000
,
00000001
00000001
00000100
00001000
00010000
00010000
00100000
00000000
,
00000000
01000000
00100000
10000000
00000000
01000000
00100000
00010000
,
00000000
00010000
00100000
01000000
00000000
00010000
00001000
00000010
,
00000001
00000100
00001010
00000000
00000010
00000010
00010000
00010000
,
00001000
01000000
01100000
00000000
10000000
10000000
00010000
00010000
,
00000000
10000000
00100000
10000000
00000000
01000000
00100000
00010000
,
00000000
00100000
00001000
00100000
00000000
00001000
00010000
00000010
,
00001000
00000000
00000000
00001000
00000000
00000000
00000100
00000000
00000000
00000100
00000000
00000000
00000010
00000000
00000001
00000000
,
00000100
00000000
00000000
00000100
00000000
00000000
00001000
00000000
00000000
00001000
00000000
00000000
00011000
00000000
00000000
00000000
,
00001000
00010000
00001000
00010000
01000000
10000000
01000000
00000000
,
00100000
00010000
00100000
00001000
00010000
00001000
00010000
00000000
,
00001000
00000010
00000001
00000010
00000001
00000100
00001000
00010000
,
00022000
00000000
00000000
00033000
,
00000000
00000000
00000000
00000000
;
#NOTES:
     dance-double:
     :
     Hard:
     15:
     :
00000000
00000000
00000000
00000000
,
00000000
00000000
00000000
00000000
,
00000000
00000000
00000000
00000000
,
00000000
00000000
00000000
00000000
,
00000000
00000000
00000000
00000000
,
00000001
00000000
00000010
00000100
00001000
00000000
00000010
00000100
00000001
00000000
00000100
00001000
00000000
00001000
00010000
00000000
,
00011000
00000000
00001000
00000000
00011000
00000000
00010000
00001000
00010000
00000000
00001000
01000000
00000000
01000000
00010000
00000000
,
00110000
00000000
00100000
00000000
01100000
00000000
01000000
10000000
01000000
00000000
10000000
00100000
00000000
00100000
10000000
00000000
,
10100000
00000000
00100000
00000000
01100000
00000000
01000000
00010000
10000000
00010000
00000000
00010000
00000000
00100000
00001000
00000000
,
00011000
00000000
00010000
00000100
00001000
00000000
00001000
00000010
00000100
00000000
00000100
00000001
00000010
00000000
00000001
00000000
,
00001000
00000000
00000010
00000100
00001000
00000000
00001000
00010000
00100000
00000000
00100000
01000000
00010000
00000000
00000000
00000000
,
10000000
01000000
00100000
00010000
10000000
01000000
00100000
00010000
01000000
00001000
00010000
00001000
00100000
00001000
00010000
00001000
,
01000000
00000000
01000000
00000000
00100000
00000000
00100000
00000000
00020000
00000000
00000000
00000000
00031000
00010000
00001000
00000000
,
00011000
00000000
00001000
01000000
00010000
00000000
00010000
00100000
01000000
00000000
01000000
10000000
00100000
00000000
10000000
00000000
,
00010000
00000000
00000000
00000000
00000000
00000000
00100000
00000000
00000000
01000000
00000000
00000000
00010000
00000000
00000000
00000000
00000000
00000000
00010000
00000000
00000000
00001000
00000000
00000000
00000010
00000000
00000000
00000000
00000001
00000000
00000000
00000000
00001000
00000000
00000000
00000000
00000100
00000000
00000000
00000000
00000000
00000000
00001000
00000000
00000000
00000000
00000000
00000000
,
00000001
00000100
00000010
00001000
00000001
00000100
00000010
00001000
00000100
00010000
00001000
00010000
00000010
00010000
00001000
00010000
,
00000100
00000000
00000100
00000000
00000010
00000000
00000010
00000000
00002000
00000000
00000000
00000000
00013000
00001000
00010000
00001000
,
00010000
00000000
00001000
01000000
00001000
00000000
00100000
00010000
00100000
00000000
01000000
10000000
00010000
10000000
01000000
00100000
,
00010000
00000000
00100000
01000000
00100000
00000000
00001000
00010000
00001000
00000000
00010000
00000010
00001000
00000010
00010000
00000100
,
00001000
00000000
00000010
00000000
00000100
00000001
00000000
00000001
00000010
00000000
00000100
00000000
00001000
00000010
00000000
00000010
,
00001000
00000000
00000100
00000000
00000010
00001000
00000000
00001000
00010000
00000000
00001000
00000000
01000000
00010000
00000000
00010000
,
00100000
00000000
00010000
00100000
01000000
00000000
10000000
00010000
10000000
00000000
00100000
01000000
00100000
01000000
00010000
01000000
,
00010000
00000000
01000000
00001000
00010000
00000000
00001000
00010000
00000010
00000000
00001000
00000100
00001000
00000100
00000010
00000100
,
00000010
00000001
00000010
00000000
00000100
00001000
00000100
00000000
00001000
00000010
00001000
00000000
00000001
00000100
00000001
00000000
,
00002002
00000000
00000000
00003003
,
00001000
00000000
00000000
00000000
00000000
00000000
00000000
00000000
00000000
00000000
00000000
00000000
00000110
00000000
00000000
00000000
00000000
00000000
00000000
00000000
00000000
00000000
00000000
00000000
00000001
00000000
00000000
00000000
00000100
00000000
00000000
00000000
00001000
00000000
00000000
00000000
00000100
00000000
00000000
00000000
00001000
00000000
00000000
00000000
00010000
00000000
00000000
00000000
00200000
00000000
00000000
00000000
00000000
00000000
00000000
00000000
00000000
00000000
00000000
00000000
00310000
00000000
00000000
00000000
00000000
00000000
00001000
00000000
00000000
00010000
00000000
00000000
02000000
00000000
00000000
00000000
00000000
00000000
00000000
00000000
00000000
00000000
00000000
00000000
13000000
00000000
00000000
00000000
00100000
00000000
00000000
00000000
01000000
00000000
00000000
00000000
,
00010000
00000000
00000000
00000000
00000000
00000000
00000000
00000000
00000000
00000000
00000000
00000000
01100000
00000000
00000000
00000000
00000000
00000000
00000000
00000000
00000000
00000000
00000000
00000000
10000000
00000000
00000000
00000000
01000000
00000000
00000000
00000000
00010000
00000000
00000000
00000000
01000000
00000000
00000000
00000000
00010000
00000000
00000000
00000000
00001000
00000000
00000000
00000000
00000020
00000000
00000000
00000000
00000000
00000000
00000000
00000000
00000000
00000000
00000000
00000000
00001030
00000000
00000000
00000000
00000000
00000000
00010000
00000000
00000000
00001000
00000000
00000000
00000100
00000000
00000000
00000000
00000001
00000000
00000000
00000000
00001000
00000000
00000000
00000000
00000100
00000000
00000000
00000000
00000010
00000000
00000000
00000000
00000001
00000000
00000000
00000000
,
00002000
00000000
00000000
00000000
00000000
00000000
00000000
00000000
00000000
00000000
00003100
00000000
00010000
00000000
00001000
00000000
01000000
00000000
00010000
00000000
00000000
00000000
00000000
00000000
01010000
00000000
00000000
00000000
00000000
00000000
10010000
00000000
00000000
10000000
00000000
00000000
11000000
00000000
00000000
01000000
00000000
00000000
00100000
00000000
00000000
00000000
00000000
00000000
,
00020000
00000000
00000000
00000000
00000000
00000000
00000000
00000000
00000000
00000000
00130000
00000000
00001000
00000000
00010000
00000000
00000010
00000000
00001000
00000000
00000000
00000000
00000000
00000000
00001010
00000000
00000000
00000000
00000000
00000000
00001001
00000000
00000000
00000001
00000000
00000000
00000100
00000000
00000010
00000000
00001000
00000000
00000001
00000000
00000000
00000000
00000000
00000000
,
00000001
00000000
00000000
00000000
00000000
00000000
00000010
00000000
00000000
00000100
00000000
00000000
00000010
00000000
00000000
00000000
00000000
00000000
00000001
00000000
00000000
00000100
00000000
00000000
00000001
00000000
00000000
00000000
00000100
00000000
00000000
00000000
00000010
00000000
00000000
00000000
00001000
00000000
00000000
00000000
00000100
00000000
00000000
00000000
00010000
00000000
00000000
00000000
,
00001000
00100000
01000000
00010000
00001000
00000010
00000100
00001000
00000010
00000100
00001000
00010000
,
00100000
00000000
00000000
01100000
00000000
00000000
10000000
00100000
01000000
00010000
00100000
01000000
,
10000000
01000000
00010000
00001000
00000010
00000001
00001000
00000100
00000010
00000001
00000000
00000000
,
00001000
00000000
00000001
00000010
00000100
00000000
00001000
00000010
00000100
00000000
00001000
00010000
00000000
00001000
00010000
00000000
,
00100000
00000000
01000000
00010000
00100000
00000000
01000000
10000000
00100000
00000000
01000000
00100000
00000000
01000000
00100000
00000000
,
20000000
00000000
00000000
00000000
00000000
00000000
00000000
00000000
00000000
00000000
00000000
00000000
00000000
00000000
00000000
00000000
00000000
00000000
00000000
00000000
31000000
00000000
00000000
00000000
00010000
00000000
00000000
00000000
00001000
00000000
00000000
00000000
00000010
00000000
00000000
00000000
00000001
00000000
00000000
00000000
00000000
00000000
00000000
00000000
00000000
00000000
00000000
00000000
00000001
00000000
00000000
00000000
00000100
00000000
00000000
00000000
00000010
00000000
00000000
00000000
00001000
00000000
00000000
00000000
00000000
00000000
00000100
00000000
00000000
00000010
00000000
00000000
00000100
00000000
00000000
00000000
00000000
00000000
00000000
00000000
00000000
00000000
00000000
00000000
00000110
00000000
00000000
00000000
00000000
00000000
00000010
00000000
00000000
00000000
00000000
00000000
,
00000002
00000000
00000000
00000000
00000000
00000000
00000000
00000000
00000000
00000000
00000103
00000000
00001000
00000000
00010000
00000000
00100000
00000000
10000000
00000000
00000000
00000000
00000000
00000000
10100000
00000000
00000000
00000000
00000000
00000000
11000000
00000000
00000000
01000000
00000000
00000000
00100000
00000000
00010000
00000000
00100000
00000000
01000000
00000000
00000000
00000000
00000000
00000000
,
10000000
00000000
00100000
01000000
00010000
00000000
00100000
00001000
00100000
00001000
00010000
00001000
00000000
00001000
00010000
00000100
,
00001000
00000000
00000010
00001000
00000100
00000000
00000010
00000001
00000010
00000001
00001000
00000010
00000000
00000010
00000100
00000001
,
00000200
00000000
00000000
00000000
00000000
00000000
00000000
00000000
00000000
00000000
00000000
00000000
00000000
00000000
00000000
00000000
00000000
00000000
00000000
00000000
00000301
00000000
00000000
00000000
00000010
00000000
00000000
00000000
00001000
00000000
00000000
00000000
00010000
00000000
00000000
00000000
01000000
00000000
00000000
00000000
00000000
00000000
00000000
00000000
00000000
00000000
00000000
00000000
10000000
00000000
00000000
00010000
00000000
00000000
00200000
00000000
00000000
00000000
00000000
00000000
00000000
00000000
00000000
00000000
00000000
00000000
00310000
00000000
00000000
10000000
00000000
00000000
00200000
00000000
00000000
00000000
00000000
00000000
00000000
00000000
00000000
00000000
00000000
00000000
01300000
00000000
00000000
00010000
00000000
00000000
10000000
00000000
00000000
01000000
00000000
00000000
,
00200000
00000000
00000000
00000000
00000000
00000000
00000000
00000000
00000000
00000000
00310000
00000000
10000000
00000000
00100000
00000000
00010000
00000000
00001000
00000000
00000000
00000000
00000000
00000000
00000100
00000000
00000000
00000100
00000000
00000000
00000001
00000000
00000000
00000001
00000000
00000000
00000011
00000000
00000000
00000000
00000000
00000000
00001001
00000000
00000000
00000000
00000000
00000000
,
00000001
00000100
00000010
00000000
00001000
00000100
00010000
00000100
00001000
00000000
00000010
00010000
00000000
00010000
00001000
00010000
,
00001000
01000000
00000000
00010000
00100000
00000000
00010000
01000000
00000000
00001000
00100000
00000000
00010000
01000000
00010000
00000000
,
10000000
01000000
00000000
01000000
00010000
00000000
00010000
00001000
00000000
00001000
00000010
00000000
00000010
00000001
00001000
00000000
,
00000001
00000100
00000000
00000100
00001000
00000000
00001000
00010000
00000000
00010000
00100000
00000000
00100000
10000000
00010000
00000000
,
10000000
00100000
10000000
00100000
00010000
00000000
00100000
10000000
00100000
10000000
01000000
00000000
00010000
00001000
00000010
00000000
,
00000001
00000100
00000001
00000100
00001000
00000000
00000100
00000001
00000100
00000001
00000010
00000000
00001000
00010000
00001000
00000000
,
00010000
00001000
01000000
00010000
00100000
01000000
10000000
00100000
01000000
00010000
00100000
00001000
00010000
00000100
00001000
00000010
,
00000200
00000000
00000000
00000300
,
00000000
00000000
00000000
00000000
;
