#TITLE:Acid,Tribal & Dance (DDR EDITION);
#ARTIST:Relect;
#BANNER:Acid,Tribal & Dance (DDR EDITION).png;
#BACKGROUND:Acid,Tribal & Dance (DDR EDITION)-bg.png;
#CDTITLE:./CDTitles/DANCE aROUND.png;
#MUSIC:Acid,Tribal & Dance (DDR EDITION).ogg;
#SAMPLESTART:69.398;
#SAMPLELENGTH:15;
#DISPLAYBPM:71:286;
#BPMS:0=126,36=105,36.833=84,37.5=63,38=126,39=143,46=286,144=214.5,147=143,149=71.5,151=143,187=214.5,193=286;
#STAGE:28;
#NOTES:
     dance-single:
     :
     Beginner:
     3:
     :
0000
0000
0000
0000
,
0000
0000
0000
0000
,
0000
0000
0000
0000
,
0000
0000
0000
0000
,
1000
0000
0000
0000
,
0001
0000
0000
0000
,
1001
0000
0000
0000
,
0000
0000
0000
0000
,
1000
0000
1000
0000
,
0010
0000
0000
0000
,
0000
0000
0000
0001
,
0000
0000
0000
0000
,
0000
0000
0000
0000
,
0000
0000
0000
0000
,
0000
0000
0000
0000
,
0000
0000
0000
0000
,
0010
0000
0000
0000
,
0010
0000
0000
0000
,
1000
0000
0000
0000
,
0000
0000
0000
0000
,
1000
0000
0000
0000
,
1000
0000
0000
0000
,
0100
0000
0000
0000
,
0000
0000
0000
0000
,
0100
0000
0000
0000
,
0100
0000
0000
0000
,
0010
0000
0000
0000
,
0000
0000
0000
0000
,
0010
0000
0000
0000
,
0010
0000
0000
0000
,
0001
0000
0000
0000
,
0000
0000
0000
0000
,
0001
0000
0000
0000
,
0100
0000
0000
0000
,
0001
0000
0000
0000
,
0000
0000
0000
0000
,
0020
0000
0000
0000
,
0000
0030
0000
0000
,
0000
0010
0000
0000
,
0000
0010
0000
0000
,
0000
0100
0000
0000
,
0000
0100
0000
1001
,
0000
0000
0000
0000
,
0000
0000
0000
1001
,
0000
0000
0000
0000
,
0000
0000
0000
1000
,
0000
0000
0000
0100
,
0000
0000
0000
0000
,
0000
0010
0000
0000
,
0000
0000
0000
0000
,
0000
0001
0000
0000
,
0000
0000
0000
0000
,
0000
1001
0000
0000
,
0000
0000
0000
0000
,
0000
0000
0000
0000
,
0000
0000
0000
0000
,
0000
0001
0000
0000
,
0000
0010
0000
0000
,
0000
0010
0000
0000
,
0000
0000
0000
0000
,
0000
0010
0000
0000
,
0000
0100
0000
0000
,
0000
0010
0000
0000
,
0000
0000
0000
0000
,
0000
1000
0000
0000
,
0000
0010
0000
0000
,
0000
0010
0000
0000
,
0000
0000
0000
0000
,
0000
0100
0000
0000
,
0000
0010
0000
0000
,
0000
0100
0000
0000
,
0000
0000
0000
0000
,
0000
0002
0000
0000
,
0000
0003
0000
0000
,
0000
0200
0000
0000
,
0000
0300
0000
0000
,
0000
0010
0000
0000
,
0000
1000
0000
0000
,
0000
0010
0000
0000
,
0000
0000
0000
0000
,
0000
1000
0000
0000
,
0000
0100
0000
0000
,
0000
1000
0000
0000
,
0000
0000
0000
0000
,
0000
0001
0000
0000
,
0000
0100
0000
0000
,
0000
0001
0000
0000
,
0000
0000
0000
0000
,
0000
1001
0000
0000
,
0000
0000
0000
0000
;
#NOTES:
     dance-single:
     :
     Easy:
     5:
     :
0000
0000
0000
0000
,
0000
0000
0000
0000
,
0000
0000
0000
0000
,
0000
0000
0000
0000
,
0001
0001
0100
0000
,
1000
1000
0100
0000
,
2002
0000
0000
0000
,
3003
0000
1000
0001
,
1000
0100
0010
0001
,
0020
0000
0030
0010
,
0000
0010
0000
0100
,
0000
0100
0000
0000
,
1000
0000
0100
0000
,
1000
0000
0100
0000
,
0010
0000
0001
0000
,
1000
0000
0001
0000
,
0100
0000
0010
0000
,
0100
0000
0010
0000
,
1000
0000
0001
0000
,
1001
0000
0000
0000
,
0002
0000
0000
0000
,
0003
0000
0000
0000
,
2000
0000
0000
0000
,
3000
0000
0000
0000
,
0001
0000
0100
0000
,
0001
0000
0100
0000
,
0010
0000
1000
0000
,
0001
0000
1000
0000
,
0010
0000
1000
0000
,
0100
0000
0100
0000
,
0010
0000
0001
0000
,
0100
0000
0100
0000
,
0020
0000
0000
0000
,
0030
0000
0000
0000
,
0200
0000
0000
0000
,
0300
0000
0000
0000
,
0001
0000
0000
1000
,
0000
1001
0000
2002
,
0000
0000
0000
3003
,
0000
0000
0000
1000
,
0100
1000
0010
0100
,
0100
0100
0000
0001
,
0010
0001
0100
0001
,
0010
0100
0100
1000
,
0100
0010
0100
1000
,
0001
0100
0000
0002
,
0000
0000
0003
2000
,
0000
0000
0000
0000
0000
0000
0000
3000
,
0000
0220
0000
0000
,
0000
0000
0000
0000
,
0000
0330
0000
0000
,
0000
0000
0000
0000
,
0000
1001
0000
0000
,
0000
0000
0000
0000
,
0000
0000
0000
0000
,
0000
1000
0000
1001
,
0000
0001
0000
0100
,
0000
0001
0000
0010
,
0000
0100
0000
1000
,
0000
0001
0000
0001
,
0000
1001
0000
0000
,
0000
0110
0000
0000
,
0000
1001
0000
0000
,
0000
0110
0000
0000
,
0000
1000
0000
0010
,
0000
1000
0000
0100
,
0000
0010
0000
0001
,
0000
1000
0000
1000
,
0000
0001
0000
0010
,
0000
1000
0000
0000
,
0000
1000
0000
0010
,
0000
0001
0000
0000
,
0000
2000
0000
0000
,
0000
0000
0000
3000
,
0000
0002
0000
0000
,
0000
0000
0000
0003
,
0000
0001
0000
0100
,
0000
0010
0000
1000
,
0000
0001
0000
0010
,
0000
0110
0000
0000
,
0000
0001
0000
0100
,
0000
1000
0000
0100
,
0000
0001
0000
1000
,
0000
0001
0000
0000
,
0000
1000
0000
0100
,
0000
0001
0000
0100
,
0000
1000
0000
0001
,
0000
1000
0000
0000
,
0000
1001
0000
0000
,
0000
0000
0000
0000
;
#NOTES:
     dance-single:
     :
     Medium:
     11:
     :
0000
0000
0000
0000
,
0000
0000
0000
0000
,
0000
0000
0000
0000
,
0000
0000
0000
0000
,
0001
0010
0001
0000
1000
0010
1000
0000
,
2002
0000
0000
3003
,
0001
0000
0100
0000
1000
0100
0001
0000
,
1000
0000
0100
0000
0001
0100
1000
0000
,
0001
0010
0001
0000
0100
0000
0100
0000
,
2000
0000
3000
1000
,
0100
1000
1000
0001
,
0100
0001
1001
0000
,
1000
0100
0010
0001
,
1000
0100
0010
0001
,
0100
0010
0100
0010
,
1000
0001
1000
0000
,
0001
0000
0011
0000
,
0001
0100
0001
0000
,
1000
0000
1010
0000
,
1000
0100
1000
0000
,
0001
0100
0010
0000
,
1000
0100
0010
0000
,
0001
1000
0100
0010
,
0100
0000
0110
0000
,
0001
0010
0100
1000
,
0001
0010
0100
1000
,
0010
0100
0010
0100
,
0001
1000
0001
0000
,
1000
0100
1000
0000
,
0010
0100
0010
0000
,
0100
0001
1000
0000
,
0010
1000
0001
0000
,
1000
0000
1100
0000
,
1000
0010
1000
0000
,
0001
0000
0101
0000
,
0001
0010
0001
0000
,
1000
0000
0000
1000
0000
0000
0100
0000
,
0100
0000
0010
0010
0001
0000
2002
0000
,
0000
0000
0000
0000
,
0000
0000
3003
1000
,
0001
0000
0100
0010
0100
0000
0001
0000
,
1000
0000
0100
0010
0100
0000
1000
0010
,
0100
0001
0010
0001
0100
0000
0001
0010
,
1000
0010
0100
0010
0001
0000
1000
0100
,
0010
0001
0100
0001
0010
0000
0100
1000
,
0001
0100
1000
0100
0001
0000
1000
0100
,
1000
0000
0100
0000
0010
0000
0001
0000
0010
0000
0001
0000
1000
0000
0000
0100
,
0000
0000
1000
0000
0000
0100
0000
0000
0010
0000
0000
0001
0000
0000
0010
0000
,
0000
0001
0000
0000
1000
0000
0000
0000
0010
0000
0000
0000
0100
0000
0000
0000
,
0001
1000
0001
0100
,
0010
2000
0000
0000
,
0000
0000
0000
0000
,
0000
3000
0000
0000
,
0000
0000
0000
0000
,
0000
0000
0000
0000
,
0000
0000
0001
1000
0001
0000
1000
0000
,
0000
0001
1000
0001
,
0010
0100
0000
0010
0000
0000
0001
0000
,
0100
0010
1000
0100
,
1000
0010
0000
0100
0000
0000
0010
0000
,
0000
0010
1000
0100
,
1000
0001
0100
0101
,
0000
0010
0011
0000
,
0001
0000
1001
0000
0000
0000
0001
1000
,
0001
1000
0001
1000
,
0010
0100
0000
0010
0000
0000
1000
0000
,
0100
0010
0001
0100
,
0001
0010
0000
0100
0000
0000
0010
0000
,
0000
0010
0001
0100
,
0001
1000
0100
0110
,
0000
0010
0001
1000
,
0001
0000
0100
0000
0001
0000
1000
0001
,
1000
0200
0000
0000
,
0000
0000
0000
0000
,
0000
0000
0000
0000
,
0300
0000
1000
0001
1000
0001
1000
0001
,
1000
0001
1000
0010
,
1000
0000
0001
0010
0000
0100
1000
0000
,
0001
1000
0001
0100
,
0001
0000
1000
0010
0100
0000
0001
0000
,
0000
0000
1000
0010
0000
1000
0010
0000
,
0000
0000
0100
0001
0000
0100
0001
0000
,
0000
0000
0001
0010
0000
0001
0010
0000
,
0000
0000
0100
1000
0000
0100
1000
0000
,
0000
1000
0100
0001
,
0100
1000
0100
0001
,
0100
1000
0010
0001
,
0010
0000
1000
0001
1000
0001
1000
0000
,
0000
1001
0000
0000
,
0000
0000
0000
0000
;
#NOTES:
     dance-single:
     :
     Hard:
     14:
     :
0000
0000
0000
0000
,
0000
0000
0000
0000
,
0000
0000
0000
0000
,
0000
0000
0000
0000
,
1000
0000
0100
0000
0010
0000
0001
0000
1000
0010
1000
0000
0001
0010
0001
0000
,
2002
0000
0000
3003
,
1000
0000
0001
0000
0100
0000
0000
0010
0000
0010
0000
0000
0110
0000
0000
0000
,
0001
0000
1000
0000
0100
0000
0000
0010
0200
0000
0000
0000
0310
0100
0010
0000
,
0001
0000
0100
0000
1000
0000
0100
0000
0001
0000
1000
0000
0100
0010
0100
0000
,
2000
0000
3000
0001
,
0001
1000
1000
0001
,
1000
0001
1001
0000
,
1000
0000
0100
0000
0010
0001
0010
0000
,
0001
0100
0001
0000
1000
0010
1000
0000
,
0001
0000
0010
0000
0100
1000
0100
0000
,
1000
0010
1000
0000
0001
0000
0100
0000
,
0010
0000
0000
0010
1000
0000
1100
0000
,
0001
0100
0001
0000
0001
0000
0101
0000
,
0100
0000
0000
0100
0001
0000
0011
0000
,
1000
0010
1000
0000
1000
0100
1000
0100
,
1000
0000
0010
0000
0200
0000
0000
1000
,
0000
1000
0000
0000
0301
0000
1000
0000
,
0001
0000
0010
0000
0200
0000
0000
0001
,
0000
0001
0000
0000
1300
0000
0000
0000
,
0001
0000
0011
0000
1000
0100
0010
0000
,
0001
0100
0010
0000
1000
0100
0010
0000
,
0001
0100
0010
0000
1000
0010
0100
0000
,
0001
0010
0100
0000
1000
0010
0100
0010
,
1000
0000
0100
0000
0020
0000
0000
1000
,
0000
1000
0000
0000
0031
0000
1000
0000
,
0001
0000
0100
0000
0020
0000
0000
0001
,
0000
0001
0000
0000
1030
0000
0000
0000
,
1000
0000
0100
0010
0100
0000
1000
0000
,
0001
0010
0100
1000
0001
0000
1000
0000
,
0001
0000
0100
0010
0100
0000
0001
0000
,
1000
0100
0010
0001
1000
0000
0001
0000
,
1000
0000
0000
0010
0000
0000
1000
0000
0000
0000
0000
0000
0001
0000
0000
0100
0000
0000
0001
0000
0000
0000
0000
0000
0010
0000
0100
0000
0010
0000
0000
0000
,
0001
0000
1000
0000
0001
0000
0000
0000
1000
0100
1000
0000
0001
0010
0001
0000
2000
0000
0000
0000
3000
0000
0000
0000
1001
0000
0000
0000
0000
0000
0000
0000
,
0001
0000
0010
0100
1000
0000
1001
0000
,
1000
0000
0010
0100
0001
0000
1000
0100
,
0001
0000
0001
0100
1000
0000
0001
0100
,
1000
0000
0000
0000
1000
0000
0100
0000
0001
1000
0001
1000
0001
0000
0000
0001
,
0100
0010
0000
0100
0000
0000
0010
0000
1001
0000
0000
0000
1000
0000
0000
1000
,
0100
0010
0000
0100
0000
0000
0010
0000
1001
0000
0000
0000
0001
0000
0000
0001
,
0010
0100
0000
0010
0000
0000
0100
0000
1001
0000
0000
0000
1000
0000
0000
1000
,
0010
0100
0000
0010
0000
0000
0100
0000
0000
0000
0000
0000
0001
0100
0010
0000
,
1000
0000
0000
0000
0000
0000
0000
0000
1000
0000
0100
0000
0010
0000
0000
0000
0001
0000
0000
0000
0000
0000
0000
0000
1000
0000
0000
0010
0000
0000
0100
0000
,
0000
0000
0000
0000
0001
0000
0000
0000
0000
0000
0000
0000
0000
0000
0000
0000
0001
0000
0000
0010
0000
0000
0100
0000
0000
0000
0000
0000
1000
0000
0000
0000
,
0000
0000
1000
0001
0010
0000
0001
1000
,
0010
0000
1000
0001
1000
0001
1000
0001
,
1000
0001
2000
0000
0000
0000
0000
0000
,
0000
0000
0000
3000
,
0000
0001
1000
0100
,
0000
0010
0000
0010
0000
0000
0100
0000
,
0100
1000
0001
0100
,
0000
0010
0200
0000
0000
0000
0310
0100
,
0010
1000
0100
1000
,
0010
0100
0000
0100
0010
0000
1001
0000
,
0001
1000
0001
0000
0100
0000
0001
0000
,
0010
0100
0000
0100
0010
0000
1001
0000
,
0000
0000
1001
0000
0100
0010
0100
0000
,
0220
0330
1000
1001
,
0000
0000
1001
0000
0010
0100
0010
0000
,
0220
0000
0330
0000
0001
0000
1000
0001
,
1000
0001
1000
0000
0100
0000
0001
0000
,
0100
1000
0000
0001
0100
0000
1001
0000
,
0001
1000
0001
0000
0100
0000
1000
0000
,
0100
0001
0000
1000
0100
0000
1001
0000
,
0000
0000
1000
0010
0000
0100
0010
1000
,
0000
0001
0010
0100
0000
0010
0001
1000
,
0000
0100
0010
0000
0100
0000
0001
0000
,
0100
1000
0001
1001
,
0000
0220
0000
0000
,
0000
0000
0000
0000
,
0000
0000
0000
0330
,
0000
0000
1000
0001
1000
0000
0001
1000
,
0001
1000
0100
0010
,
0001
0100
0000
0001
1000
0000
0100
0010
,
0001
0000
0100
0010
1000
0000
0100
0000
,
0010
0001
2000
0000
0000
0000
3000
0000
,
0000
0000
0001
0010
0100
0000
0010
0100
,
1000
0000
0001
0100
0010
0000
0100
0010
,
1000
0000
0010
1000
0100
0000
0010
0100
,
1000
0000
0100
0010
0001
0000
0100
0010
,
1000
0000
0001
0010
0001
1000
0010
1000
,
0010
0000
1000
0100
1000
0001
0100
0001
,
0100
0000
0001
0010
0100
1000
0010
0000
,
0110
0000
0001
1000
0001
1000
0001
0000
,
0000
1001
0000
0000
,
0000
0000
0000
0000
;
#NOTES:
     dance-single:
     :
     Challenge:
     17:
     :
0000
0000
0000
0000
,
0000
0000
0000
0000
,
0000
0000
0000
0000
,
0000
0000
0000
0000
,
1000
0100
0010
0100
1000
0100
0010
0000
0001
0100
0010
0100
0001
0100
0010
0000
,
1000
0100
0001
0100
0010
0100
1000
0000
0001
0100
1000
0100
0010
0100
0001
0000
,
2000
0000
0000
0000
,
3200
0000
0000
0000
0000
0000
0000
0000
0310
0001
0100
0001
0010
0001
0100
0000
,
0001
0001
1000
1000
,
0010
0000
0000
0000
0000
0100
0000
0000
0000
0001
0000
0000
1000
0000
0000
0000
0000
0000
0002
0000
0000
0000
0000
0000
,
0103
2000
3100
0002
,
0013
2000
3010
0000
,
1000
0001
0100
0001
0010
0100
1000
0010
,
1000
0100
0010
0001
1000
0001
0100
0010
,
1000
0001
1000
0100
0010
0100
1000
0010
,
0100
0000
0000
0001
0000
0000
0010
0000
0000
0001
0000
0000
1000
0000
0000
0000
0000
0000
0001
0000
0010
0000
0100
0000
,
1000
0000
0001
0010
1000
0000
1010
0000
,
1000
0010
0001
1000
0100
0010
0001
1000
,
0001
0000
1000
0010
0001
0000
0011
0000
,
0001
0010
1000
0001
0100
0010
1000
0001
,
2000
0000
0010
0000
3200
0000
0301
0100
,
0000
0100
1000
0000
1001
0000
1000
0000
,
0002
0000
0010
0000
0203
0000
1300
0100
,
0000
0100
0001
0000
0000
0000
0000
0000
,
0001
1000
0010
1000
0100
0010
0001
0100
,
0001
0010
0100
1000
0001
1000
0010
0100
,
0001
1000
0001
0010
0100
0010
0001
0100
,
0010
1000
0100
1000
0001
0100
1000
0100
,
0002
0000
0100
0000
0023
0000
1030
0010
,
0000
0010
0001
0000
1001
0000
0001
0000
,
2000
0000
0100
0000
3020
0000
0031
0010
,
0000
0000
0000
0010
0000
0000
1000
0000
0000
0000
0000
0000
1001
0000
0000
0000
0000
0000
1000
0000
0100
0000
0010
0000
,
0001
0100
0010
0100
0001
0010
0100
0010
,
0001
0100
0010
1000
0001
0000
1001
0000
,
1000
0010
0100
0010
1000
0100
0010
0100
,
1000
0010
0100
0001
1000
0000
1001
0000
,
0001
0000
0000
0010
0000
0000
1000
0000
0000
0000
0000
0000
0001
0000
0000
0100
0000
0000
1000
0000
0000
0000
0000
0000
0001
0000
0100
0000
1000
0000
0000
0000
,
0001
0000
0010
0000
1000
0000
0000
0000
1000
0010
0001
0000
1000
0100
0001
0000
1000
0100
0001
0000
1000
0010
0001
0000
1000
0000
0100
0000
1000
0000
0100
0000
,
0010
0100
1000
0010
0000
0100
1000
0100
0010
0100
0001
0000
0010
0001
0010
0001
,
0100
0010
0001
0010
0000
1000
0001
0100
1000
0100
0001
0000
1000
0010
1000
0001
,
1000
0100
0010
0001
0000
0100
0001
0010
0100
1000
0010
0000
0001
0010
0001
0010
,
1000
0100
1000
0100
0001
0100
1000
0000
0001
1000
0001
1000
0001
0100
0010
1000
,
0001
1000
0000
1001
0000
0001
0100
0001
0010
0100
1000
0001
0100
0010
0100
1000
,
0100
0010
0000
0110
0000
0100
0001
1000
0100
1000
0010
0000
0001
0010
1000
0001
,
0100
0010
0000
1010
0000
1000
0001
0010
0100
0010
0001
1000
0100
0001
0100
1000
,
0001
0100
0000
0101
0000
0001
1000
0010
0000
0000
0000
0000
1000
0100
0010
0001
,
1000
0000
0100
0000
0010
0000
0001
0000
1000
0000
0010
0000
0100
0000
0001
0000
1000
0000
0010
0000
0100
0000
0001
0000
1000
0000
0000
0100
0000
0000
0010
0000
,
0000
0100
0000
0000
1000
0000
0000
0010
0000
0000
0100
0000
0000
0010
0000
0000
1000
0000
0000
0100
0000
0000
0010
0000
0000
0100
0000
0000
1000
0000
0000
0010
,
0000
0000
0100
0000
0000
0010
0000
0000
1000
0000
0000
0000
0100
0000
0000
0000
0001
0000
0000
0000
0100
0000
0000
0000
1000
0000
0000
0000
0010
0000
0000
0000
,
0001
0010
1000
0100
0001
0100
1000
0010
,
0001
0010
1000
0100
0010
0001
1000
0001
,
0010
0100
1000
0001
0100
0010
1000
0010
,
0100
0001
2000
0000
0000
0000
0000
0000
,
0000
0000
0000
0000
,
0000
0000
0000
0000
,
0000
0000
3001
1000
0001
1000
0100
0010
,
0100
0010
0100
0000
1000
0000
1010
0000
,
0010
0100
1000
0100
0001
0100
1000
0100
,
0001
0100
0010
0000
0100
0000
0101
0000
,
0001
0010
0100
0001
0100
1000
0100
0000
,
0001
0100
1000
0000
1000
0010
1000
0000
,
0011
0000
0001
0100
0001
0000
1000
0100
,
1000
0100
1000
0000
0100
0010
0001
0000
,
1001
0000
0220
0000
0330
0000
1000
0001
,
1000
0001
1000
0000
0010
0000
0110
0000
,
0001
0100
1000
0100
0010
0100
0001
0100
,
1000
0100
0001
0000
0010
0000
0110
0000
,
1000
0100
0001
0100
0010
0100
1000
0000
,
0000
0000
0001
0010
0001
0010
0100
1000
,
0100
1000
0001
0100
0010
1000
0001
0100
,
0010
1000
0001
0010
0001
0100
0010
1000
,
0100
0010
0100
1000
0010
0100
0000
0000
,
0000
0000
0001
0010
0001
0000
1000
0010
,
1000
0000
0001
0100
0001
0000
1000
0100
,
1000
0000
0001
0010
0001
0000
1000
0010
,
1000
0000
0001
0100
0001
1000
0100
1000
,
0100
0000
1000
0010
1000
0000
0101
0000
,
0001
0010
0001
0100
0000
0001
0010
0000
,
0011
0000
1000
0100
1000
0000
0011
0000
,
0001
0100
0001
0010
0001
0100
0001
0000
,
0000
0000
0001
0100
1000
0000
1001
0000
,
0011
0000
1000
0100
0001
0000
1001
0000
,
1010
0000
0001
0010
1000
0000
1001
0000
,
0101
0000
1000
0010
0001
0000
1001
0000
,
1100
0000
0001
0100
0010
1000
0001
0010
,
0100
1000
0001
0100
0010
1000
0001
0010
,
0100
1000
0001
0100
1000
0100
0001
0010
,
1000
0010
0001
1000
0001
1000
0001
1000
,
0001
1001
0000
0000
,
0000
0000
0000
0000
;
#NOTES:
     dance-double:
     :
     Easy:
     5:
     :
00000000
00000000
00000000
00000000
,
00000000
00000000
00000000
00000000
,
00000000
00000000
00000000
00000000
,
00000000
00000000
00000000
00000000
,
10000000
10000000
01000000
00000000
,
00100000
00001000
00010000
00000000
,
00022000
00000000
00000000
00000000
,
00033000
00000000
00001000
00010000
,
00001000
00000010
00000001
00000000
,
00002000
00000000
00003000
00000001
,
00000000
00000001
00000000
00000100
,
00000000
00000100
00000000
00000000
,
00000010
00000000
00001000
00000000
,
00000010
00000000
00001000
00000000
,
00000100
00000000
00010000
00000000
,
00001000
00000000
00000000
00000000
,
00010000
00000000
00001000
00000000
,
00010000
00000000
00001000
00000000
,
00100000
00000000
00010000
00000000
,
01000000
00000000
00000000
00000000
,
00200000
00000000
00000000
00000000
,
00300000
00000000
00000000
00000000
,
20000000
00000000
00000000
00000000
,
30000000
00000000
00000000
00000000
,
00010000
00000000
10000000
00000000
,
00010000
00000000
10000000
00000000
,
01000000
00000000
00100000
00000000
,
01000000
00000000
00100000
00000000
,
00001000
00000000
00010000
00000000
,
00001000
00000000
00010000
00000000
,
00000010
00000000
00001000
00000000
,
00000100
00000000
00000010
00000000
,
00000002
00000000
00000000
00000000
,
00000003
00000000
00000000
00000000
,
00002000
00000000
00000000
00000000
,
00003000
00000000
00000000
00000000
,
00000010
00000000
00000000
00000100
,
00000000
00000110
00000000
00022000
,
00000000
00000000
00000000
00033000
,
00000000
00000000
00000000
00001000
,
00010000
00001000
00000000
00010000
,
00100000
10000000
00000000
00010000
,
10000000
00010000
00000000
10000000
,
01000000
00100000
00001000
00010000
,
00001000
00010000
00000000
00001000
,
00000010
00000001
00001000
00000200
,
00000000
00000000
00000300
00000020
,
00000000
00000000
00000000
00000000
00000000
00000000
00000000
00000030
,
00000000
00002002
00000000
00000000
,
00000000
00000000
00000000
00000000
,
00000000
00003003
00000000
00000000
,
00000000
00000000
00000000
00000000
,
00000000
00001001
00000000
00000000
,
00000000
00000000
00000000
00000000
,
00000000
00000000
00000000
00000000
,
00000000
00000001
00000000
00001001
,
00000000
00000001
00000000
00000010
,
00000000
00000100
00000000
00001000
,
00000000
00000010
00000000
00000100
,
00000000
00001000
00000000
00010000
,
00000000
00100000
00000000
00010000
,
00000000
00001000
00000000
00000000
,
00000000
00001000
00000000
00010000
,
00000000
01000000
00000000
00000000
,
00000000
10000000
00000000
01000000
,
00000000
00100000
00000000
00010000
,
00000000
01000000
00000000
00100000
,
00000000
00010000
00000000
00001000
,
00000000
00000010
00000000
00000001
,
00000000
00000010
00000000
00000000
,
00000000
00000100
00000000
00001000
,
00000000
00000100
00000000
00000000
,
00000000
00020000
00000000
00000000
,
00000000
00000000
00000000
00030000
,
00000000
00002000
00000000
00000000
,
00000000
00000000
00000000
00003000
,
00000000
00001000
00000000
01000000
,
00000000
00010000
00000000
00100000
,
00000000
01000000
00000000
10000000
,
00000000
10010000
00000000
00000000
,
00000000
10000000
00000000
01000000
,
00000000
00010000
00000000
01000000
,
00000000
00010000
00000000
00001000
,
00000000
00000010
00000000
00000000
,
00000000
00000001
00000000
00000100
,
00000000
00001000
00000000
00000100
,
00000000
00001000
00000000
00010000
,
00000000
00100000
00000000
00000000
,
00000000
01100000
00000000
00000000
,
00000000
00000000
00000000
00000000
;
#NOTES:
     dance-double:
     :
     Medium:
     11:
     :
00000000
00000000
00000000
00000000
,
00000000
00000000
00000000
00000000
,
00000000
00000000
00000000
00000000
,
00000000
00000000
00000000
00000000
,
10000000
01000000
10000000
00000000
01000000
00100000
00010000
00000000
,
00100000
00001000
00010000
00001000
00020000
00000000
00030000
00000000
,
00001000
00000000
00000010
00000000
00000001
00001000
00000001
00000000
,
00000100
00000010
00010000
00011000
,
00001000
00000000
01000000
00000000
00010000
00100000
00010000
00000000
,
02000000
00000000
00000000
03010000
,
00010000
10000000
00000000
01000000
,
01000000
00100000
00000000
00000000
,
00100000
00010000
00100000
00010000
,
00100000
00001000
00010000
00000000
,
00001000
00010000
00001000
00010000
,
00000100
00001000
00000100
00000000
,
00000010
00000000
00000011
00000000
,
00000001
00000100
00000010
00000000
,
00010000
00000000
00011000
00000000
,
00001000
00100000
00010000
00000000
,
01000000
00000000
00010000
00000000
,
00100000
01000000
10000000
00000000
,
00100000
00000000
01000000
00000000
,
00001000
00010000
00001000
00000000
,
00010000
00001000
00010000
00001000
,
00000010
00000100
00000010
00000100
,
00000010
00000001
00000010
00000001
,
00001000
00000100
00001000
00000000
,
00000100
00000000
00010000
00000000
,
00001000
01000000
00001000
00000000
,
00100000
00000000
00010000
00000000
,
01000000
00000000
01100000
00000000
,
10000000
00000000
10100000
00000000
,
10000000
01000000
00100000
00000000
,
00001000
00000000
00011000
00000000
,
00010000
00000100
00001000
00000000
,
00000200
00000000
00000000
00000320
,
00000000
00000032
00000000
00002003
,
00000000
00000000
00000000
00000000
,
00000000
00000000
00003000
00000001
,
00000100
00000000
00000001
00000010
00000100
00000000
00001000
00000000
,
00000010
00000000
00010000
00001000
00010000
00000000
00001000
00100000
,
00001000
00010000
00001000
01000000
00010000
00000000
00100000
00010000
,
10000000
01000000
00100000
00010000
00100000
00000000
00001000
00010000
,
00000100
00001000
00000010
00001000
00000100
00000000
00000010
00000001
,
00000100
00000010
00001000
00000010
00000100
00000000
00000001
00000010
,
00000001
00000000
00000010
00000000
00000100
00000000
00001000
00000000
00000100
00000000
00001000
00000000
00000010
00000000
00000000
00000100
,
00000000
00000000
00000010
00000000
00000000
00000100
00000000
00000000
00001000
00000000
00000000
00010000
00000000
00000000
00001000
00000000
,
00000000
00010000
00000000
00000000
00100000
00000000
00000000
00000000
01000000
00000000
00000000
00000000
00100000
00000000
00000000
00000000
,
01000000
00100000
10000000
00100000
,
10000000
00020000
00000000
00000000
,
00000000
00000000
00000000
00000000
,
00000000
00030000
00000000
00000000
,
00000000
00000000
00000000
00000000
,
00000000
00000000
00000000
00000000
,
00000000
00000000
10000000
00010000
10000000
00000000
00010000
00000000
,
00000000
10000000
01000000
00100000
,
00001000
00010000
00000000
00001000
00000000
00000000
00010000
00000000
,
00000000
00001000
00010000
00000100
,
00001000
00000010
00000000
00000100
00000000
00000000
00000010
00000000
,
00000000
00000010
00001000
00000001
,
00000100
00001000
00000100
00000001
,
00000000
00000010
00001000
00010000
,
01000000
00000000
10000000
00000000
00000000
00000000
00010000
10000000
,
00010000
10000000
00100000
10000000
,
01000000
00100000
00000000
01000000
00000000
00000000
00010000
00000000
,
00001000
00000010
00000100
00010000
,
00001000
00010000
00000000
00001000
00000000
00000000
00000100
00000000
,
00000000
00000100
00000001
00000100
,
00000001
00000010
00000100
00000010
,
00001000
00010000
00001000
00010000
,
01000000
00000000
00100000
00000000
00010000
00000000
10000000
00010000
,
10000000
02000000
00000000
00000000
,
00000000
00000000
00000000
00000000
,
00000000
00000000
00000000
00000000
,
03000000
00000000
10000000
00010000
10000000
00000000
00010000
10000000
,
00010000
10000000
01000000
00010000
,
01000000
00000000
00100000
00010000
00000000
00100000
00001000
00000000
,
00000000
00010000
00001000
00000010
,
00000100
00000000
00001000
00000010
00001000
00000000
00000001
00000000
,
00000000
00000000
00000001
00000100
00000000
00000001
00000100
00000000
,
00000000
00000000
00000010
00001000
00000000
00000010
00001000
00000000
,
00000000
00000000
00000100
00010000
00000000
00001000
00010000
00000000
,
00000000
00000000
00001000
00100000
00000000
00010000
00100000
00000000
,
00000000
00010000
01000000
00010000
,
01000000
00100000
10000000
00100000
,
10000000
01000000
00010000
00001000
,
00000010
00000000
00000001
00001000
00000001
00001000
00000001
00000000
,
00000000
00001001
00000000
00000000
,
00000000
00000000
00000000
00000000
;
#NOTES:
     dance-double:
     :
     Hard:
     14:
     :
00000000
00000000
00000000
00000000
,
00000000
00000000
00000000
00000000
,
00000000
00000000
00000000
00000000
,
00000000
00000000
00000000
00000000
,
10000000
01000000
00100000
00010000
00001000
00000100
00000010
00000001
,
00002002
00000000
00000000
00003003
,
00000001
00000000
00000100
00000000
00000010
00000000
00000000
00000100
00000000
00000100
00000000
00000000
00001000
00000000
00010000
00000000
,
00100000
00000000
01000000
00000000
00100000
00000000
00000000
10000000
00020000
00000000
00000000
00000000
01030000
00100000
01000000
00000000
,
00100000
00000000
10000000
00000000
01000000
00000000
00100000
00000000
00010000
00000000
01000000
00000000
00010000
00100000
00010000
00000000
,
00200000
00000000
00000000
00301000
,
00001000
00010000
00010000
00001000
,
00000010
00000001
00001001
00000000
,
00000001
00000000
00000100
00000000
00000010
00000100
00000010
00000000
,
00000100
00001000
00000100
00000000
00001000
00000000
00010000
00000000
,
00100000
00000000
01000000
00000000
00100000
10000000
00100000
00000000
,
10000000
01000000
10000000
00000000
01000000
00000000
00100000
00000000
,
00010000
00000000
00000000
00010000
00100000
00000000
00101000
00000000
,
00001000
00000000
00010000
00000000
00000010
00000000
00001000
00000001
,
00001000
00000000
00000000
00001000
00000001
00000000
00000101
00000000
,
00000100
00000010
00000100
00000000
00000010
00001000
00000010
00000000
,
00001000
00000000
00000001
00000000
00000200
00000000
00000000
00001000
,
00000000
00001000
00000000
00000000
00000301
00000000
00000010
00000000
,
00001000
00000000
00010000
00000000
02000000
00000000
00000000
00010000
,
00000000
00010000
00000000
00000000
13000000
00000000
00000000
00000000
,
10000000
00000000
00100000
00000000
01000000
00010000
01000000
00000000
,
00010000
00100000
00010000
00000000
00100000
00001000
00100000
00000000
,
00001000
00010000
00001000
00000000
00010000
00000100
00010000
00000000
,
00000100
00001000
00000100
00000000
00000010
00000001
00000010
00000000
,
00000001
00000000
00000100
00000000
00000020
00000000
00000000
00000001
,
00000000
00000001
00000000
00000000
00010030
00000000
00001000
00000000
,
01000000
00000000
00010000
00000000
00200000
00000000
00000000
10000000
,
00000000
10000000
00000000
00000000
00310000
00000000
00000000
00000000
,
10000000
00000000
01000000
00100000
01000000
00000000
10000000
00000000
,
00010000
00100000
01000000
00000000
00010000
00001000
00010000
00000000
,
00001000
00000000
00010000
00000100
00010000
00000000
00001000
00000000
,
00000010
00000100
00000010
00000000
00000001
00001000
00000001
00000000
,
00001000
00000000
00000000
00000010
00000000
00000000
00001000
00000000
00000000
00000000
00000000
00000000
00000100
00000000
00000000
00001000
00000000
00000000
00000100
00000000
00000000
00000000
00000000
00000000
00010000
00000000
00001000
00000000
00010000
00000000
00000000
00000000
,
00001000
00000000
00100000
00000000
00001000
00000000
00000000
00000000
01000000
00010000
01000000
00000000
00100000
10000000
00100000
00000000
20000000
00000000
00000000
00000000
30000000
00000000
00000000
00000000
10010000
00000000
00000000
00000000
00000000
00000000
00000000
00000000
,
00010000
00000000
10000000
01000000
00010000
00000000
00001000
00000000
,
00011000
00000000
00010000
00000010
00000100
00000000
00000001
00000000
,
00001001
00000000
00001000
00000100
00000010
00000000
00000001
00000000
,
00001001
00000000
00000000
00000000
00001000
00000000
00000100
00000000
00010000
00001000
00010000
00001000
00010000
00000000
00000000
00001000
,
00100000
00010000
00000000
01000000
00000000
00000000
00100000
00000000
01100000
00000000
00000000
00000000
10000000
00000000
00000000
00010000
,
10000000
01000000
00000000
00100000
00000000
00000000
00001000
00000000
00011000
00000000
00000000
00000000
00010000
00000000
00000000
00000010
,
00001000
00000100
00000000
00000010
00000000
00000000
00000001
00000000
00001001
00000000
00000000
00000000
00000001
00000000
00000000
00000100
,
00000010
00001000
00000000
00000100
00000000
00000000
00010000
00000000
00000000
00000000
00000000
00000000
00001000
00010000
00001000
00000000
,
00100000
00000000
00000000
00000000
00000000
00000000
00000000
00000000
00010000
00000000
01000000
00000000
00010000
00000000
00000000
00000000
00100000
00000000
00000000
00000000
00000000
00000000
00000000
00000000
01000000
00000000
00000000
10000000
00000000
00000000
01000000
00000000
,
00000000
00000000
00000000
00000000
00100000
00000000
00000000
00000000
00000000
00000000
00000000
00000000
00000000
00000000
00000000
00000000
00001000
00000000
00000000
00010000
00000000
00000000
00001000
00000000
00000000
00000000
00000000
00000000
00000010
00000000
00000000
00000000
,
00000000
00000000
00000001
00000100
00000010
00000000
00001000
00000100
,
00000010
00000000
00000001
00001000
00000001
00001000
00000100
00001000
,
00000100
00010000
00002000
00000000
00000000
00000000
00000000
00000000
,
00000000
00000000
00000000
00003000
,
00000000
00010000
00001000
00010000
,
00000000
00100000
00000000
00100000
00000000
00000000
01000000
00000000
,
01000000
00010000
10000000
01000000
,
00000000
00100000
02000000
00000000
00000000
00000000
03100000
01000000
,
00100000
00010000
10000000
01000000
,
00100000
00001000
00000000
00001000
00010000
00000000
00000100
00000000
,
00001000
00000010
00001000
00000000
00000100
00000000
00000010
00000000
,
00000001
00000100
00000000
00000100
00000010
00000000
00001001
00000000
,
00000000
00001001
00001000
00000010
,
00010010
00010000
00001000
00101000
,
00000000
01001000
01000000
00010000
,
00110000
00000000
00100000
00000000
01000000
00000000
10000000
00010000
,
10000000
00010000
10000000
00000000
01000000
00000000
00100000
00000000
,
00010000
00100000
00000000
01000000
00010000
00000000
00001000
00000000
,
00010000
00001000
00010000
00000000
00001000
00000000
00000010
00000000
,
00000100
00001000
00000000
00000001
00000010
00000000
00001001
00000000
,
00000000
00000000
00001000
00000100
00000000
00001000
00000010
00001000
,
00000000
00000010
00010000
00001000
00000000
00010000
00001000
01000000
,
00000000
00010000
00100000
00000000
01000000
00000000
10000000
00000000
,
00100000
01000000
00010000
10010000
,
00000000
02200000
00000000
00000000
,
00000000
00000000
00000000
00000000
,
00000000
00000000
00000000
03300000
,
00000000
00000000
10000000
00010000
10000000
00000000
00010000
10000000
,
00010000
10000000
01000000
00100000
,
00001000
00010000
00000000
00000100
00001000
00000000
00000010
00000100
,
00000001
00000000
00000010
00000100
00001000
00000000
00000100
00000000
,
00010000
00001000
00020000
00000000
00000000
00000000
00030000
00000000
,
00000000
00000000
00001000
00100000
00001000
00000000
01000000
00010000
,
01000000
00000000
00100000
10000000
01000000
00000000
00100000
00010000
,
01000000
00000000
00100000
10000000
00100000
00000000
01000000
00001000
,
00010000
00000000
00000100
00001000
00000010
00000000
00000100
00000001
,
00000010
00000000
00000001
00001000
00000001
00001000
00000100
00001000
,
00000100
00000000
00010000
00001000
00010000
00001000
00100000
00010000
,
00100000
00000000
00010000
01000000
00100000
00000000
10000000
01000000
,
00100000
00000000
00001000
00010000
00001000
00010000
00001000
00000000
,
00000000
00011000
00000000
00000000
,
00000000
00000000
00000000
00000000
;
#NOTES:
     dance-double:
     :
     Challenge:
     17:
     :
00000000
00000000
00000000
00000000
,
00000000
00000000
00000000
00000000
,
00000000
00000000
00000000
00000000
,
00000000
00000000
00000000
00000000
,
10000000
01000000
00100000
01000000
10000000
01000000
00100000
00000000
00001000
00010000
00001000
01000000
00001000
00010000
00001000
00000000
,
00010000
00000100
00001000
00000100
00010000
00000100
00001000
00000000
00000010
00000100
00000001
00000100
00000010
00000100
00000001
00000000
,
00002000
00000000
00000000
00000000
,
00003002
00000000
00000000
00000000
00000000
00000000
00000000
00000000
00001003
00000100
00001000
00000100
00010000
00001000
00010000
00000000
,
00001000
00001000
01000000
01000000
,
00100000
00000000
00000000
00000000
00000000
01000000
00000000
00000000
00000000
00010000
00000000
00000000
10000000
00000000
00000000
00000000
00000000
00000000
00020000
00000000
00000000
00000000
00000000
00000000
,
10030000
00000000
01000000
00100000
00010000
00000000
00200000
00000000
,
00301000
00000000
00010000
00001000
00011000
00000000
00000000
00000000
,
00010000
00000100
00001000
00000100
00010000
00001000
00000010
00000100
,
00001000
00000001
00000100
00000010
00000100
00001000
00010000
00001000
,
01000000
00010000
00100000
01000000
10000000
00010000
01000000
00010000
,
00100000
00000000
00000000
01000000
00000000
00000000
00010000
00000000
00000000
00001000
00000000
00000000
00000010
00000000
00000000
00000000
00000000
00000000
00000001
00000000
00001000
00000000
00000001
00000000
,
00001000
00000000
00000001
00000100
00001000
00000000
00011000
00000000
,
00010000
00100000
10000000
00000000
00010000
01000000
10000000
01000000
,
00010000
00000000
10000000
01000000
00010000
00000000
00011000
00000000
,
00001000
00000010
00000001
00000000
00001000
00000100
00000001
00000100
,
00002000
00000000
00003002
00000000
00000203
00000000
00000310
00001000
,
00000000
00010000
01000000
00000000
00200000
00000000
10300000
00000000
,
20000000
00000000
32000000
00000000
03200000
00000000
00310000
00001000
,
00000000
00000100
00000010
00000000
00000001
00000000
00000000
00000000
,
00000001
00000100
00000001
00000010
00000100
00001000
00000010
00010000
,
00001000
00010000
00000100
00001000
00000100
00010000
00001000
01000000
,
00010000
00100000
00010000
01000000
00100000
10000000
01000000
00010000
,
01000000
00100000
00001000
00010000
00001000
00000010
00000100
00001000
,
00000002
00000000
00000203
00000000
00002300
00000000
00013000
00100000
,
00000000
00100000
10000000
00000000
10010000
00000000
00000000
00000000
,
20000000
00000000
32000000
00000000
03020000
00000000
00031000
00000010
,
00000000
00000000
00000000
00000010
00000000
00000000
00000001
00000000
00000000
00000000
00000000
00000000
00001001
00000000
00000000
00000000
00000000
00000000
00001000
00000000
00000001
00000000
00001000
00000000
,
00000001
00000010
00000100
00000010
00001000
00000001
00000100
00001000
,
00000001
00000100
00000010
00010000
00001000
01000000
00010000
00100000
,
01000000
00100000
10000000
00010000
01000000
10000000
00010000
00100000
,
00001000
00010000
00000100
00001000
00000010
00000100
00000001
00000000
,
00001000
00000000
00000000
00000100
00000000
00000000
00000001
00000000
00000000
00000000
00000000
00000000
00000001
00000000
00000000
00000100
00000000
00000000
00001000
00000000
00000000
00000000
00000000
00000000
00000001
00000000
00000100
00000000
00001000
00000000
00000000
00000000
,
00010000
00000000
00100000
00000000
10000000
00000000
00000000
00000000
00010000
01000000
10000000
00000000
10000000
01000000
00010000
00000000
10000000
01000000
00010000
00000000
00001000
00000010
00000001
00000000
00001000
00000000
00000100
00000000
00001000
00000000
00000100
00000000
,
00000010
00000001
00001000
00000001
00000000
00000100
00000010
00000100
00000001
00001000
00000100
00000000
00010000
00001000
00010000
00001000
,
00100000
00010000
01000000
00010000
00000000
00100000
01000000
10000000
00010000
10000000
01000000
00000000
10000000
00100000
10000000
00100000
,
01000000
00010000
00100000
00010000
00000000
00100000
00001000
00010000
00001000
00010000
00000010
00000000
00001000
00000100
00001000
00000100
,
00000010
00000001
00001000
00000010
00000000
00001000
00000100
00001000
00000001
00000100
00000001
00000100
00000001
00000010
00000000
00000100
,
00010000
00001000
00000000
00011000
00000000
00010000
00100000
10000000
00010000
01000000
00100000
00000000
10000000
01000000
00000000
00010000
,
00001000
00000010
00000000
00000110
00000000
00000100
00001000
00000001
00000010
00001000
00000010
00000000
00000001
00000100
00000000
00000010
,
00010000
00001000
00000000
00011000
00000000
00010000
00001000
01000000
00010000
00100000
00001000
00000000
00010000
00100000
00000000
10000000
,
00010000
01000000
00000000
01100000
00000000
00100000
10000000
01000000
00000000
00000000
00000000
00000000
10000000
01000000
00100000
00010000
,
10000000
00000000
01000000
00000000
00100000
00000000
00010000
00000000
01000000
00000000
00100000
00000000
00010000
00000000
00001000
00000000
01000000
00000000
00100000
00000000
00010000
00000000
00001000
00000000
00010000
00000000
00000000
00000010
00000000
00000000
00001000
00000000
,
00000000
00000100
00000000
00000000
00010000
00000000
00000000
00000010
00000000
00000000
00001000
00000000
00000000
00000100
00000000
00000000
00000010
00000000
00000000
00000001
00000000
00000000
00001000
00000000
00000000
00000100
00000000
00000000
00000010
00000000
00000000
00000001
,
00000000
00000000
00001000
00000000
00000000
00000100
00000000
00000000
00000010
00000000
00000000
00000000
00000001
00000000
00000000
00000000
00000100
00000000
00000000
00000000
00001000
00000000
00000000
00000000
00010000
00000000
00000000
00000000
00100000
00000000
00000000
00000000
,
10000000
00010000
10000000
01000000
00010000
00001000
00000010
00000001
,
00001000
00000001
00000010
00000100
00010000
00001000
00000100
00000010
,
00001000
00010000
01000000
00100000
10000000
01000000
00100000
00010000
,
01000000
00100000
20000000
00000000
00000000
00000000
00000000
00000000
,
00000000
00000000
00000000
00000000
,
00000000
00000000
00000000
00000000
,
00000000
00000000
30010000
10000000
00010000
10000000
01000000
00100000
,
01000000
00100000
01000000
00000000
10000000
00000000
10100000
00000000
,
00100000
01000000
00010000
00100000
00001000
00010000
00000100
00001000
,
00000010
00000100
00000001
00000000
00000010
00000000
00000011
00000000
,
00000001
00000100
00000010
00001000
00000100
00010000
00001000
00100000
,
00010000
01000000
00100000
10000000
01000000
00000000
01100000
00000000
,
00100000
00001000
00010000
00000000
00011000
00000000
00001000
00010000
,
00000100
00001000
00000100
00000000
00000010
00000001
00000100
00000000
,
00000010
00000000
00002002
00000000
00003003
00000000
00000001
00001000
,
00000001
00001000
00000001
00000000
00000100
00000000
00000110
00000000
,
00000010
00010000
00001000
00010000
00001000
00100000
00010000
01000000
,
00100000
00010000
00100000
10000000
00010000
00000000
01010000
00000000
,
01000000
00100000
00010000
00100000
00010000
00001000
00010000
00000000
,
00000000
00000000
00001000
00000010
00001000
00000010
00000001
00000010
,
00000001
00001000
00000100
00000001
00000100
00001000
00000010
00010000
,
00001000
00010000
00001000
01000000
00010000
00100000
00010000
01000000
,
00001000
00010000
00100000
01000000
00100000
10000000
00000000
00000000
,
00000000
00000000
10000000
01000000
00100000
00000000
01000000
00100000
,
00010000
00000000
00100000
00001000
00010000
00000000
00001000
00010000
,
00000100
00000000
00001000
00000100
00000010
00000000
00000100
00000010
,
00000001
00000000
00001000
00000100
00001000
00000001
00000100
00000001
,
00000100
00000000
00000001
00000010
00000100
00001000
00000010
00000100
,
00001000
00010000
00001000
00010000
00000000
00010000
00001000
00000000
,
00011000
00000000
00001000
00010000
00100000
01000000
00010000
00100000
,
01000000
10000000
00010000
01000000
00100000
01000000
00010000
00000000
,
00000000
00000000
10000000
01000000
00000000
00010000
00001000
00000000
,
00000110
00000000
00000001
00000100
00000000
00001000
00010000
00000000
,
01100000
00000000
10000000
00100000
00000000
00010000
00001000
00000000
,
00000110
00000000
00000001
00000010
00000000
00001000
00010000
00000000
,
01100000
00000000
10000000
01000000
10000000
01000000
00010000
01000000
,
00010000
01000000
00100000
00001000
00010000
00001000
00000100
00000010
,
00001000
00000100
00000010
00000001
00000010
00000001
00000010
00001000
,
00000010
00001000
00000010
00000001
00001000
00000100
00010000
00001000
,
00010000
00011000
00000000
00000000
,
00000000
00000000
00000000
00000000
;
