
//----- song ID: abma -----//
#TITLE:Abrupt Madness;
#ARTIST:Mameyudoufu;
#BANNER:Abrupt Madness.png;
#BACKGROUND:Abrupt Madness-bg.png;
#CDTITLE:./CDTitles/DDR A3.png;
#MUSIC:Abrupt Madness.ogg;
#SAMPLESTART:2.595;
#SAMPLELENGTH:15;
#BPMS:0=185;
#STAGE:31;
#NOTES:
     dance-single:
     :
     Beginner:
     3:
     :
0000
0000
0000
0000
,
0000
0000
0000
0000
,
0000
0000
0000
0000
,
0000
0000
0000
0000
,
0000
0000
0000
0000
,
0000
0000
0000
0000
,
1000
0000
0000
0000
,
0100
0000
0000
0000
,
1000
0000
0000
0000
,
0010
0000
0000
0000
,
0001
0000
0000
0000
,
0001
0000
0000
0000
,
0010
0000
0010
0000
,
0100
0000
0000
0000
,
1001
0000
0000
0000
,
1000
0000
0100
0000
,
1000
0000
0000
0000
,
1001
0000
0000
0000
,
0002
0000
0000
0000
,
0003
0000
0000
0000
,
0200
0000
0000
0000
,
0300
0000
0000
0000
,
2000
0000
0000
0000
,
3000
0000
0000
0000
,
0020
0000
0000
0000
,
0030
0000
0000
0000
,
1000
0000
1000
0000
,
0010
0000
0000
0000
,
0100
0000
0100
0000
,
0010
0000
0000
0000
,
0010
0000
1000
0000
,
0010
0000
0000
0000
,
1001
0000
0000
0000
,
0000
0000
0000
0000
,
0001
0000
0001
0000
,
0010
0000
0000
0000
,
0100
0000
0001
0000
,
0100
0000
0000
0000
,
0100
0000
0100
0000
,
0001
0000
0000
0000
,
1001
0000
0000
0000
,
0000
0000
0000
0000
,
0020
0000
0000
0000
,
0030
0000
0000
0000
,
0200
0000
0000
0000
,
0300
0000
0000
0000
,
2000
0000
0000
0000
,
3000
0000
0000
0000
,
0002
0000
0000
0000
,
0003
0000
0000
0000
,
1001
0000
0000
0000
,
0000
0000
0000
0000
,
0000
0000
0000
0000
,
0000
0000
0000
0000
,
0001
0000
0010
0000
,
0001
0000
0000
0000
,
0100
0000
0000
0000
,
1000
0000
0000
0000
,
1000
0000
0010
0000
,
0100
0000
0000
0000
,
1000
0000
0000
0000
,
0100
0000
0000
0000
,
0001
0000
0010
0000
,
0100
0000
0000
0000
,
2002
0000
0000
0000
,
3003
0000
0000
0000
,
0001
0000
0001
0000
,
0010
0000
0001
0000
,
0010
0000
0000
0000
,
0000
0000
0000
0000
,
1000
0000
1000
0000
,
0100
0000
1000
0000
,
0100
0000
0000
0000
,
0000
0000
0000
0000
,
0001
0000
0001
0000
,
0010
0000
0100
0000
,
0010
0000
0000
0000
,
1001
0000
0000
0000
,
1000
0000
1000
0000
,
0100
0000
0010
0000
,
0100
0000
0000
0000
,
0001
0000
0000
0000
,
2002
0000
0000
0000
,
3003
0000
0000
0000
,
0000
0000
0000
0000
,
0000
0000
0000
0000
,
0001
0000
0000
0000
,
0010
0000
0000
0000
,
0100
0000
0100
0000
,
1000
0000
1000
1000
,
0000
0000
0000
0000
;
#NOTES:
     dance-single:
     :
     Easy:
     8:
     :
0000
0000
0000
0000
,
0000
0000
0000
0000
,
0000
0000
0000
0000
,
0000
0000
0000
0000
,
0000
0000
0000
0000
,
0000
0000
0000
0000
,
1000
0001
1001
0000
,
0100
0010
0110
0000
,
1000
0010
0100
0001
,
1000
1000
1000
0000
,
0001
0010
0001
0100
,
0001
0010
0001
0000
,
1000
0010
1000
0100
,
1000
0010
1000
0000
,
0001
0100
0101
0000
,
1000
0100
1100
0000
,
0001
0000
0010
0000
0001
0000
1000
0001
,
0000
0000
0000
0000
,
1001
0000
0000
0000
,
0110
0000
0000
0000
,
1001
0000
0000
0000
,
0100
0100
0010
0010
,
0110
0000
0000
0000
,
1001
0000
0000
0000
,
0110
0000
0000
0000
,
1000
1000
0001
0000
,
0002
0000
1003
0000
,
0001
0010
0100
0000
,
2000
0000
3001
0000
,
1000
0100
0010
0000
,
0001
0010
0001
0000
,
1000
0010
1000
0000
,
0011
0000
1010
0000
,
0001
1000
1001
0000
,
2000
0000
0000
3000
,
0002
0000
0000
0003
,
1000
0100
0001
0100
,
1000
0001
1000
0000
,
0001
0100
1000
0100
,
0001
1000
0001
0000
,
0200
0000
0000
0300
,
0020
0000
0000
0030
,
1001
0000
0010
0000
,
1001
0000
0100
0000
,
0110
0000
1000
0000
,
0110
0000
0001
0000
,
1010
0000
0100
0000
,
0011
0000
0100
0000
,
1100
0000
0000
1000
0000
0000
2002
0000
,
0000
0000
3003
0000
,
0002
0000
0000
0003
,
0200
0000
0000
0300
,
0001
0010
0001
0100
,
0010
1000
0010
0000
,
2000
0000
0000
3000
,
0200
0000
0000
0300
,
1000
0100
1000
0010
,
0100
0001
0010
0000
,
0001
1000
0001
1000
,
0100
0000
0010
0000
0100
1000
0100
0000
,
1000
0010
0100
0010
,
1000
0000
0001
0000
0010
0001
0010
0000
,
0002
0010
0010
0013
,
2000
0010
0010
3010
,
1000
0100
1000
0000
0001
0000
1000
0002
,
0000
0000
0000
0003
,
0001
0010
1000
0010
,
0001
0010
0001
0000
1000
0100
1000
0000
,
0001
0001
0100
0100
,
1000
0100
0110
0000
,
1000
0000
0010
0000
0100
0000
0001
1000
,
0000
0001
1000
0000
0010
0000
0110
0000
,
0001
0000
0100
0000
0010
0000
1000
0010
,
0000
1000
0010
0000
1001
0000
1001
0000
,
1000
1000
0100
0100
,
0010
0001
0010
0000
0001
0100
0001
0000
,
0100
0100
0010
0010
,
1000
0001
1000
0000
1001
0000
0000
0000
,
0101
0000
0001
0000
1000
0000
0010
1000
,
0000
0010
0000
1000
0000
0000
1001
0000
,
0001
0000
0010
0000
1000
0000
0010
0001
,
0000
0010
0001
0010
0000
0000
0100
0000
,
0220
0000
0000
0000
,
0330
0000
0000
0000
,
0001
0000
1000
0000
,
0010
1000
0100
0000
,
1000
0000
0001
0000
,
0010
0001
0100
0000
,
0010
0000
1000
0000
0010
0000
0100
0001
,
0000
0010
0001
0010
0000
0000
1001
0000
,
0000
0000
0000
0000
;
#NOTES:
     dance-single:
     :
     Medium:
     13:
     :
0000
0000
0000
0000
,
0000
0000
0000
0000
,
0000
0000
0000
0000
,
0000
0000
0000
0000
,
0000
0000
0000
0000
,
0000
0000
0000
0000
,
1001
0000
0000
0000
0001
0100
0000
0010
1000
0000
0001
0000
0000
0001
0000
0000
,
1001
0000
0000
0000
1000
0100
0000
0010
0001
0000
1000
0000
0000
1000
0000
0000
,
1001
0000
0000
0000
0001
0000
0100
0010
0000
0100
0010
0000
1000
0000
0010
0000
,
0000
0100
0001
0100
0000
0001
1000
0000
,
1000
0100
1000
0100
0010
0001
0100
0001
,
0010
0100
0010
0100
1000
0001
0100
1000
,
0100
0010
1000
0100
0010
0001
0100
0010
,
0001
0010
1000
0100
0002
0000
0103
0000
,
1000
1000
1000
0010
0000
0010
0100
0000
,
0001
0001
0001
0010
0000
0010
0100
0000
,
1000
0000
0100
0000
0010
0000
0001
0000
1000
0000
0001
0000
1000
0001
2000
0000
,
0000
0000
0000
3000
,
1001
0000
0000
0000
0001
0000
0000
0100
0000
0000
0001
0000
0100
0000
0000
0000
,
1001
0000
0000
0000
1000
0000
0000
0100
0000
0000
1000
0000
0100
0000
0000
0000
,
1001
0000
0000
0000
0001
0000
0000
0010
0000
0000
0001
0000
0010
0000
0000
0000
,
0001
0000
0000
0000
0100
0000
0000
0100
0000
0000
1000
0000
0000
0010
0000
0000
,
1001
0000
0000
0000
0100
0000
0000
0010
0000
0000
0100
0000
0010
0000
0000
0000
,
1001
0000
0000
0000
0010
0000
0000
0100
0000
0000
0010
0000
0100
0000
0000
0000
,
1001
0000
0000
0000
0100
0000
0000
0010
0000
0000
0100
0000
0010
0000
0000
0000
,
0110
0000
0000
0000
0001
0000
0000
1001
0000
0000
0000
0000
0000
0000
0000
0000
,
1000
0000
0100
0010
0000
0001
1000
0001
,
0000
0001
0100
0001
0000
0001
0010
0100
,
1000
0000
0010
0001
0000
0010
0000
1010
,
0000
1100
0000
0110
0000
0010
0001
0000
,
1000
0100
1000
0010
0000
0100
0001
0010
,
0000
0011
0000
0001
0100
1000
0100
0001
,
1000
0000
0001
0010
0000
0001
1000
0100
,
0000
0001
0100
2000
0000
0000
3001
0000
,
1001
0000
0000
0000
1000
0000
0000
0010
0100
0000
0010
0000
0000
0000
1000
0000
,
0000
0001
0100
0001
0000
1000
0010
1000
,
0100
0000
0000
0000
1000
0000
0000
0001
0010
0000
0001
0000
0100
0000
0001
0000
,
0000
0001
0010
0001
0000
1000
0010
0100
,
0002
0000
0000
0000
0003
0000
0001
1000
0001
0000
0100
0000
0010
0000
0100
0000
,
0000
0001
0100
1000
0000
1000
0100
0002
,
0000
0100
1000
0103
,
1000
0100
1000
0100
0010
0001
0010
0000
,
0001
0000
0000
0000
0101
0000
0000
0000
1000
0000
0010
0000
0000
1000
0000
0000
,
0010
0000
0000
0000
1010
0000
0000
0000
0001
0000
0010
0000
0000
0001
0000
0000
,
0010
0000
0000
0000
0011
0000
0000
0000
1000
0000
0100
0000
0000
1000
0000
0000
,
0100
1100
0101
1100
,
1000
0000
0000
0000
0001
0010
0001
0000
1000
0000
0001
0000
0000
1000
0000
0000
,
0002
0000
0000
0000
0003
0000
1000
0010
1000
0000
0001
0000
0100
0000
0010
0000
,
1000
0100
0010
0001
0000
0010
0200
0000
,
0000
0000
0000
0000
,
1300
0000
0000
0001
0000
0001
0000
0100
,
0000
0100
0000
0110
0000
0010
1000
0000
,
0001
0000
0100
1000
0000
0100
0000
0001
,
0000
0011
0000
0010
0001
0100
0010
0000
,
1000
0100
1000
0010
0000
0100
0001
1000
,
0000
0001
0010
0100
0000
1000
0001
1000
,
0000
0010
0100
0010
0000
1000
0000
1001
,
0000
0001
0010
1000
0000
0010
0001
0000
,
0001
0100
0010
0100
0001
0100
0010
0000
,
1000
0100
0010
0100
1000
0010
0100
0000
,
0001
1000
0100
0010
0100
1000
0001
0100
,
0010
1000
0010
0000
0100
0001
1000
0000
,
0010
1000
0010
1000
0100
0010
0001
0010
,
0100
1000
0100
1000
0001
0100
0010
0100
,
0001
0010
0100
1000
0010
0100
0001
2000
,
0000
0000
0000
3001
,
1000
0100
1000
0100
0001
0100
0001
0100
,
1000
0010
0100
0010
1000
0100
0010
0001
,
0100
0000
0010
0100
0010
0000
0100
0010
0100
0000
0010
0000
1000
0000
0001
0000
,
0000
0001
0010
0200
0000
1000
1300
0000
,
1000
0000
0010
0000
0100
0001
0100
0000
0010
0000
1000
0000
0001
0000
1000
0000
,
0000
1000
0010
0001
0000
0001
0010
1000
,
0002
0000
0000
0000
0103
0000
0010
1000
0020
0000
0000
0000
1030
0000
0100
0000
,
0000
0010
0001
0010
0011
0000
1001
0000
,
1000
0100
0010
0001
0100
0010
1000
0100
,
0010
0001
0100
1000
0100
0001
0010
0100
,
1000
0000
0001
0010
0001
0000
1000
0010
1000
0000
0100
0000
0010
0000
0100
0000
,
0000
1000
0001
1000
0000
0001
0001
0000
,
0110
0000
1001
0000
1000
0100
0010
0001
,
0000
0011
0000
1010
0000
1000
0100
1000
,
0001
0100
0001
0100
0010
1000
0010
1000
,
0100
0010
0001
0010
0000
0010
0001
0000
,
2000
0000
0000
0000
,
0000
0000
0000
3000
,
1000
0000
0010
0100
0000
0010
0000
0001
,
0000
0010
0000
1000
0100
0010
0001
0000
,
1000
0001
1000
0001
0010
0001
0010
0000
,
0001
0100
0001
0100
0010
0100
0010
0000
,
1000
0100
0001
0100
1000
0010
0001
0010
,
0000
0010
0100
0010
0000
0010
1001
0000
,
0000
0000
0000
0000
;
#NOTES:
     dance-single:
     :
     Hard:
     17:
     :
0000
0000
0000
0000
,
0000
0000
0000
0000
,
0000
0000
0000
0000
,
0000
0000
0000
0000
,
0000
0000
0000
0000
,
0000
0000
0000
0000
,
1001
0000
0000
0000
1000
0010
0000
0001
0010
0000
1000
0100
0000
0001
0100
0000
,
1001
0000
0000
0000
0110
0000
0001
0010
0000
0000
1000
0010
0000
0001
0100
1000
,
0100
0000
0000
0000
0001
0000
0010
0100
0000
0100
1000
0000
0001
0000
0020
0000
,
0000
1030
0010
0002
0000
0100
0103
0000
,
1000
0000
0100
0000
0010
0001
0000
0001
0100
0000
0010
0000
1000
0100
0000
0100
,
1000
0000
0001
0000
0100
0010
0000
0010
1000
0000
0001
0000
0010
0100
0000
0100
,
0010
0000
0001
0000
0100
0000
1000
0100
0000
0001
0100
0000
0010
0000
0010
1000
,
0100
0000
0010
0000
0001
0000
0100
0002
0000
0000
0010
0000
1000
0000
0103
0000
,
0101
0000
0001
0000
0001
0000
1100
0000
1000
0000
1000
0000
1001
0000
0001
0010
,
0100
0000
0100
0000
0100
0000
0011
0000
0010
0000
0010
0000
0001
0000
1000
0100
,
0001
0100
0001
0100
0010
0100
0010
0100
1000
0010
0100
0001
0010
0100
2000
0000
,
0000
3010
0100
0002
0000
0010
1003
0000
,
1001
0000
0000
0000
1000
0000
0000
1000
0000
0000
1000
0000
1000
0000
0000
0000
,
1001
0000
0000
0000
0001
0000
0000
0001
0000
0000
0100
0000
0010
0000
0000
0000
,
1001
0000
0000
0000
1000
0000
0000
1000
0000
0000
1000
0000
1000
0000
0000
0000
,
1100
0000
0000
0000
0011
0000
0000
0101
0000
0000
1010
0000
0000
1100
0000
0000
,
1001
0000
0000
0000
0001
0000
0000
0001
0000
0000
0001
0000
0001
0000
0000
0000
,
1001
0000
0000
0000
1000
0000
0000
1000
0000
0000
0010
0000
0100
0000
0000
0000
,
1001
0000
0000
0000
0001
0000
0000
0001
0000
0000
0001
0000
0001
0000
0000
0000
,
0011
0000
0000
0000
1100
0000
0000
1010
0000
0000
0001
0100
0001
0010
0100
1000
,
0001
0000
0000
0100
1010
0000
0000
1000
,
0000
0110
0000
0001
1001
0000
1000
0001
,
0100
0000
0000
1000
0100
0001
0000
0011
,
0000
0000
0110
0000
0000
0100
1000
0000
0001
0000
0100
0000
0100
0000
0010
0000
,
1010
0000
1000
0000
0001
0000
0101
0000
0000
0000
0100
0000
0001
1000
0001
0000
,
0000
0101
0000
0011
0010
0001
0100
0010
,
1000
0100
0001
0100
0000
1100
0000
1001
,
0000
0000
0001
0000
0000
1000
0010
0000
0200
0000
0000
0000
1000
0000
0000
0000
,
0301
0000
0000
0000
1000
0000
0000
0100
0010
0000
0001
0000
1000
0000
0100
0000
,
0000
0001
0100
0010
0000
0001
1000
0001
,
1000
0100
1000
0000
0001
0000
0100
0000
0010
1000
0010
0000
0100
0000
0001
0000
,
0010
1000
0001
0100
1000
0001
0010
1000
,
0010
0001
1000
0000
0100
0000
1000
0000
0010
0100
0001
0000
0010
0000
0001
0000
,
1000
0010
0001
1000
0100
0001
1000
0010
,
0100
0001
0100
0001
1000
0000
0100
0000
0010
0100
0010
0100
1000
0000
0010
0000
,
0100
0001
0100
0000
0001
0010
0001
0000
1000
0100
1000
0000
0010
1000
0010
0000
,
0110
0000
0000
0000
1000
0010
0100
0001
0100
0000
0101
0000
0000
1001
0000
0000
,
1100
0000
0000
0000
1000
0001
0010
0100
0010
0000
0011
0000
0000
0101
0000
0000
,
1001
0000
0000
0000
0001
0100
1000
0100
0001
0000
0011
0000
0000
1100
0000
0000
,
0110
0000
0010
0001
0100
0000
0010
1000
0100
0000
0010
0001
0100
0000
0000
0000
,
0101
0000
0000
0000
0001
0100
0010
0001
0010
0000
1010
0000
0000
0101
0000
0000
,
1001
0000
0000
0000
1000
0100
0010
1000
0010
0000
0011
0000
0000
1100
0000
0000
,
1001
0100
0010
0110
0000
0100
2002
0000
,
0000
0000
0000
3003
,
1000
0000
1000
0100
0000
0010
0000
0011
,
0000
0001
0000
1001
0000
1000
0100
0001
,
0100
0000
1000
1010
0000
0011
0000
1010
,
0000
1000
0000
0001
0100
1000
0100
0001
,
1000
0100
1000
0100
0010
0001
0010
0001
,
0100
0010
1000
0010
0100
0001
0100
0010
,
1000
0100
1000
0000
0010
0000
1000
0000
0100
0000
0010
0000
0001
0000
1000
0000
,
0000
1000
0001
0010
0000
0110
0110
0000
,
0001
0000
1000
0000
0010
0000
1000
0100
1000
0100
1000
0000
0010
0000
0100
0000
,
0001
0000
1000
0000
0010
0000
0100
0001
0100
0001
0100
0000
0010
0000
0100
0000
,
0001
0000
0010
0000
0100
0000
1000
0010
1000
0010
1000
0000
0001
0000
0010
0000
,
0100
0000
1000
0000
0010
0000
1000
0001
1000
0001
1000
0000
0001
0000
0000
0000
,
1000
0000
0010
0000
0100
0000
0001
0000
1000
0000
0010
0000
0100
0001
1000
0000
,
0001
0000
0010
0000
0100
1000
0001
0000
0010
0100
1000
0000
0001
0000
0010
0000
,
0001
0100
0010
0001
0010
0100
0001
0010
0100
0001
1000
0010
0100
1000
0002
0000
,
0000
0100
0100
0100
0000
0003
1001
0000
,
1000
0000
0100
0010
0001
0000
0100
0010
1000
0100
1000
0000
0001
0100
0001
0000
,
0010
0000
0100
1000
0001
1000
0100
0000
0000
0000
0110
0000
0001
1000
0010
0000
,
0100
0000
1000
0001
0010
0000
1000
0001
0010
0000
1000
0000
0010
0000
0001
0000
,
0000
0000
0001
0100
0001
0000
0010
0000
0000
0000
0011
0000
1001
0000
0000
0000
,
1000
0000
0100
0000
0001
0100
1000
0000
0001
0000
0100
0000
0010
0000
1010
0000
,
0000
0000
1000
0010
0100
0001
0010
0000
0000
0000
0011
0000
0001
0000
0100
0010
,
2000
0000
0000
0000
3002
0000
0013
0100
0020
0000
0000
0000
0130
0000
1000
0000
,
0000
1000
0100
0100
1100
0000
0101
0000
,
0001
0100
0010
0100
0001
0100
0010
0000
1000
0100
0010
0100
1000
0000
0001
0000
,
0010
0100
1000
0010
0100
0001
0010
0000
0002
0000
0203
0000
2300
0000
3200
0000
,
0301
0000
0010
0100
1000
0000
0010
0100
0001
0000
0010
0000
0100
1000
0100
0000
,
0000
0000
0100
0000
1000
0000
0010
0000
1000
0001
0100
0010
1000
0000
0000
0000
,
1010
0000
0101
0000
1000
0100
0010
1001
,
0000
0001
0100
1001
0000
1000
0001
0001
,
1000
0100
0010
0001
0100
0010
1000
0100
0010
0001
0010
0100
1000
0010
0100
0000
,
0000
0000
1000
0100
0001
0000
0011
0000
0000
0000
0000
0000
1010
0000
0000
0000
,
2002
0000
0000
0000
,
0000
0000
0000
3003
,
1000
0010
0100
0001
0000
1000
0001
1000
,
0000
1001
0000
0001
0010
0100
1000
0000
,
0001
0000
0100
0010
1000
0000
0001
0000
0010
0000
0100
1000
0100
0000
0010
0000
,
0001
1000
0010
0100
0001
1000
0010
0100
,
0001
0001
0010
0010
0100
0100
1000
1000
,
0001
0100
0010
1000
0010
0100
1001
0000
,
0000
0000
0000
0000
;
#NOTES:
     dance-double:
     :
     Easy:
     8:
     :
00000000
00000000
00000000
00000000
,
00000000
00000000
00000000
00000000
,
00000000
00000000
00000000
00000000
,
00000000
00000000
00000000
00000000
,
00000000
00000000
00000000
00000000
,
00000000
00000000
00000000
00000000
,
10000000
00100000
10000000
00000000
,
00010000
00100000
00010000
00000000
,
10000000
01000000
00100000
00010000
,
00100000
00001000
00010000
00000000
,
00001000
00010000
00001000
00010000
,
00000100
00001000
00000100
00000000
,
00001000
00000010
00001000
00000010
,
00000100
00000001
00000100
00000000
,
00000101
00000000
00000110
00000000
,
00001010
00000000
00001100
00000000
,
00000100
00000000
00010000
00000000
00001000
00000000
00010000
00001000
,
00000000
00000000
00000000
00000000
,
00011000
00000000
00000000
00000000
,
00011000
00000000
00000000
00000000
,
01100000
00000000
00000000
00000000
,
01000000
01000000
00100000
00100000
,
01100000
00000000
00000000
00000000
,
01100000
00000000
00000000
00000000
,
00011000
00000000
00000000
00000000
,
00010000
00010000
00001000
00000000
,
00020000
00000000
00031000
00000000
,
00000010
00000100
00000010
00000000
,
00000002
00000000
00001003
00000000
,
00000001
00000010
00000100
00001000
,
00000001
00000001
00000100
00000000
,
00001000
00001000
00000100
00000000
,
00000001
00000010
00000100
00010000
,
00002000
00000000
00003000
00000000
,
00020000
00000000
00000000
00030000
,
00002000
00000000
00000000
00003000
,
00010000
00001000
00010000
00001000
,
01000000
00100000
01000000
00000000
,
00010000
10000000
01000000
00100000
,
00010000
00100000
01000000
00000000
,
00200000
00000000
00000000
00300000
,
00002000
00000000
00000000
00003000
,
00011000
00000000
00010000
00000010
,
00001000
00000000
00001010
00000000
,
00001001
00000000
00000001
00000100
,
00001000
00000000
00011000
00000000
,
00010000
00001000
01000000
00000000
,
00010000
00100000
00010000
00000000
,
10000000
00000000
00000000
10000000
00000000
00000000
20020000
00000000
,
00000000
00000000
30030000
00000000
,
00020000
00000000
00000000
00030000
,
02000000
00000000
00000000
03000000
,
00001000
00010000
00001000
00010000
,
00000100
00001000
00000010
00000100
,
00000002
00000000
00000000
00000003
,
00002000
00000000
00000000
00003000
,
00000001
00000100
00000010
00001000
,
00000100
00010000
00001000
00000000
,
00001000
00010000
00001000
00010000
,
00001000
00000000
00100000
00000000
00010000
01000000
00010000
00000000
,
00100000
00010000
01000000
00100000
,
10000000
00010000
10000000
00000000
00010000
10000000
00010000
00000000
,
10000000
01000000
10000000
01000000
,
00100000
00010000
00100000
00001000
,
00010000
00000000
00001000
00000000
00010000
00000000
00000100
00002000
,
00000000
00000000
00000000
00003000
,
00001000
00000100
00000001
00000100
,
00001000
00000001
00001000
00000000
00000010
00000100
00000010
00000000
,
00001000
00001000
00000100
00000100
,
00010000
00001000
00011000
00000000
,
00001000
00000000
00010000
00000000
00001000
00000000
00100000
00010000
,
00000000
01000000
00010000
01000000
00000000
00000000
01100000
00000000
,
10000000
00000000
00100000
00000000
00010000
00000000
00100000
10000000
,
00000000
00100000
10000000
00000000
00010000
00000000
10010000
00000000
,
10000000
10000000
01000000
01000000
,
00100000
00001000
00100000
00000000
00001000
00010000
00001000
00000000
,
00010000
00001000
00000010
00000001
,
00001000
00000100
00001000
00000000
00000001
00000000
00000000
00000000
,
00001001
00000000
00001000
00000000
00000001
00000000
00000010
00000100
,
00000000
00000010
00000000
00001000
00000000
00000000
00011000
00000000
,
00010000
00000000
00001000
01000000
00000000
00010000
00100000
00010000
,
00000000
01000000
00100000
01000000
00000000
00000000
00100000
00000000
,
20020000
00000000
00000000
00000000
,
30030000
00000000
00000000
00000000
,
00010000
00000000
10000000
00000000
,
00100000
01000000
00100000
00000000
,
10000000
00000000
01000000
00000000
,
00010000
00001000
00010000
00000000
,
00001000
00000000
00010000
00000000
00000010
00000000
00001000
00000100
,
00000000
00000010
00000100
00000010
00000000
00000000
00000110
00000000
,
00000000
00000000
00000000
00000000
;
#NOTES:
     dance-double:
     :
     Medium:
     13:
     :
00000000
00000000
00000000
00000000
,
00000000
00000000
00000000
00000000
,
00000000
00000000
00000000
00000000
,
00000000
00000000
00000000
00000000
,
00000000
00000000
00000000
00000000
,
00000000
00000000
00000000
00000000
,
00011000
00000000
00000000
00000000
00001000
00010000
00000000
00001000
00010000
00000000
00000010
00000000
00000000
00000010
00000000
00000000
,
00000110
00000000
00000000
00000000
00000001
00001000
00000000
00000001
00001000
00000000
00000100
00000000
00000000
00000100
00000000
00000000
,
00000110
00000000
00000001
00000010
00000100
00000010
00001000
00010000
,
00000000
00010000
00001000
00010000
00000000
00001000
00100000
00000000
,
00010000
00100000
00010000
00100000
01000000
10000000
00100000
10000000
,
01000000
00100000
01000000
00100000
00010000
10000000
00010000
00000000
,
10000000
01000000
00100000
01000000
00100000
00001000
00010000
00001000
,
00010000
00001000
00000010
00000001
00002000
00000000
00003001
00000000
,
00000001
00000100
00000001
00000100
00000010
00001000
00000010
00000000
,
00001000
00000010
00010000
00001000
01000000
00010000
00100000
00000000
,
00010000
00000000
00100000
00000000
01000000
00000000
10000000
00000000
00100000
00000000
01000000
00000000
00100000
01000000
00200000
00000000
,
00000000
00000000
00000000
00300000
,
01100000
00000000
00000000
00000000
10000000
00000000
00000000
00100000
00000000
00000000
10000000
00000000
00100000
00000000
00000000
00000000
,
01100000
00000000
00000000
00000000
00010000
00000000
00000000
01000000
00000000
00000000
00010000
00000000
01000000
00000000
00000000
00000000
,
00101000
00000000
00000000
00000000
00001000
00000000
00000000
00010000
00000000
00000000
00001000
00000000
00010000
00000000
00000000
00000000
,
00001000
00000010
00000001
00000000
00001000
00000100
00000010
00000000
,
00000110
00000000
00000000
00000000
00000001
00000000
00000000
00000100
00000000
00000000
00000001
00000000
00000100
00000000
00000000
00000000
,
00000110
00000000
00000000
00000000
00001000
00000000
00000000
00000010
00000000
00000000
00001000
00000000
00000010
00000000
00000000
00000000
,
00010100
00000000
00000000
00000000
00010000
00000000
00000000
00001000
00000000
00000000
00010000
00000000
00001000
00000000
00000000
00000000
,
00010000
00000000
00000000
00000000
01000000
00000000
00000000
10000000
00000000
00000000
00000000
00000000
00000000
00000000
00000000
00000000
,
10010000
00000000
10000000
00100000
00000000
01000000
00010000
01000000
,
00000000
00010000
00100000
00010000
00000000
10000000
01000000
00100000
,
00010000
00000000
00100000
00001000
00000000
00010000
00000000
00011000
,
00000000
00001000
00010000
00000100
00001000
00000100
00000010
00000000
,
00000001
00000010
00000001
00000100
00000000
00000001
00000010
00000100
,
00000000
00000110
00000000
00000010
00000001
00000100
00000010
00000000
,
00000100
00001000
00010000
00001000
00000000
00010000
00001000
00100000
,
00000000
00010000
01000000
00200000
00000000
00000000
00300000
00000000
,
10100000
00000000
11000000
00000000
00100000
10000000
01000000
00100000
,
00000000
00001000
00010000
00001000
00000000
00001000
00010000
00000000
,
00001000
00010000
00001000
00010000
00000100
00001000
00000010
00001000
,
00000100
00000010
00000001
00001000
00000001
00000000
00001001
00000000
,
00000001
00000100
00001000
00000100
00000001
00000100
00000010
00001000
,
00000100
00000010
00000100
00001000
00000100
00010000
00001000
00010000
,
00002000
00010000
00100000
00013000
,
00001000
00010000
00100000
01000000
00010000
10000000
00010000
00000000
,
10010000
00000000
00000000
00000000
10000000
00000000
00010000
00000000
01000000
00000000
00100000
00000000
00000000
00100000
00000000
00000000
,
10100000
00000000
10000000
00010000
00000000
00010000
01000000
00001000
,
00010000
00000000
00000000
00000000
00001000
00000000
00001000
00000000
00000000
00000000
00010000
00000000
00000000
00010000
00000000
00000000
,
00011000
00000000
00001000
00000010
00000100
00000010
00000001
00000000
,
00001000
00000000
00000000
00000000
00000001
00000100
00000001
00000000
00000000
00000000
00001000
00000000
00000000
00000010
00000000
00000000
,
00000220
00000000
00000330
00000001
00000100
00001000
00010000
00000000
,
00100000
10000000
00010000
01000000
00000000
01000000
00200000
00000000
,
00000000
00000000
00000000
00000000
,
10300000
00000000
00000000
10000000
00000000
01000000
00000000
00100000
,
00000000
00010000
00000000
00100000
00000000
00010000
10000000
00000000
,
01000000
00000000
01000000
00010000
00000000
00001000
00000000
00011000
,
00000000
00010000
00000000
00001000
00000010
00000001
00000010
00000000
,
00000001
00000100
00000001
00000100
00000000
00000010
00001000
00000010
,
00000000
00001000
00000100
00001000
00000000
00000100
00010000
00001000
,
00000000
00010000
00001000
00100000
00000000
00001000
00010000
00100000
,
00000000
01000000
00100000
01000000
00000000
00000000
10010000
00000000
,
10000000
00100000
01000000
00010000
10000000
01000000
00010000
00000000
,
00001000
00100000
00001000
00010000
00001000
00000010
00000001
00000000
,
00001000
00000100
00001000
00000100
00000010
00000001
00000010
00000001
,
00001000
00000100
00010000
00000100
00001000
00000010
00000100
00000000
,
00000001
00000010
00000001
00000010
00000100
00001000
00000100
00010000
,
00001000
00010000
00001000
00100000
00010000
00100000
01000000
10000000
,
00010000
01000000
00100000
10000000
01000000
00100000
00010000
20000000
,
00000000
00000000
00000000
30000000
,
10000000
01000000
00010000
01000000
10000000
01000000
00100000
00001000
,
00010000
00000100
00010000
00001000
00010000
00000100
00001000
00000010
,
00000100
00000000
00000001
00001000
00000001
00000000
00001000
00000001
00001000
00000000
00000010
00000000
00000100
00000000
00000001
00000000
,
00000000
00000001
00000100
00002000
00000000
00010000
00013000
00000000
,
00001000
00000000
00100000
00000000
00010000
00100000
00010000
00000000
01000000
00000000
00010000
00000000
00100000
00000000
01000000
00000000
,
00000000
10000000
00010000
10010000
00000000
10000000
00100000
00010000
,
00002000
00000000
00013000
01000000
20000000
00000000
30100000
00010000
,
00000000
00001000
00010000
00010000
00011000
00000000
00011000
00000000
,
00010000
00000100
00001000
00000010
00010000
00000010
00001000
00000100
,
00010000
00001000
00000010
00000100
00010000
00001000
00000100
00000010
,
00001000
00000000
00000001
00000100
00000001
00000000
00001000
00000010
00001000
00000000
00000100
00000000
00000010
00000000
00000001
00000000
,
00001000
00000010
00000100
00000001
00000000
00001000
00001000
00000000
,
00000001
00000100
00001000
00000000
00010000
00100000
01000000
00100000
,
00000000
10000000
00100000
10000000
00000000
00010000
10000000
01000000
,
00000000
10000000
00010000
00100000
00000000
00100000
00001000
00010000
,
00000000
00010000
00001000
00000010
00000000
00000010
00000001
00000000
,
00002000
00000000
00000000
00000000
,
00000000
00000000
00000000
00003000
,
00000001
00000000
00001000
00000100
00000000
00000010
00000000
00000010
,
00000000
00000001
00000000
00000010
00000100
00000010
00001000
00000000
,
00010000
00001000
00010000
00001000
00100000
00010000
00100000
01000000
,
00000000
10000000
01000000
10000000
00000000
00100000
01000000
00100000
,
00000000
10000000
01000000
00010000
00000000
01000000
00010000
00001000
,
00000000
00010000
00001000
00000010
00000000
00000001
00001001
00000000
,
00000000
00000000
00000000
00000000
;
#NOTES:
     dance-double:
     :
     Hard:
     17:
     :
00000000
00000000
00000000
00000000
,
00000000
00000000
00000000
00000000
,
00000000
00000000
00000000
00000000
,
00000000
00000000
00000000
00000000
,
00000000
00000000
00000000
00000000
,
00000000
00000000
00000000
00000000
,
10010000
00000000
00000000
00000000
10000000
01000000
00000000
00010000
01000000
00000000
10000000
00100000
00000000
01000000
00010000
00000000
,
10010000
00000000
00000000
00000000
10000000
00000000
01000000
00010000
00000000
00010000
00001000
00000000
00001000
00000010
00000000
00000010
,
00000001
00000000
00000010
00000000
00000100
00000000
00001000
00000001
00000000
00000001
00000100
00000000
00001000
00000000
00010000
00000000
,
00000000
00010000
00001000
00000020
00000000
00000001
00000031
00000000
,
00001001
00000000
00000000
00000000
00000001
00000010
00000000
00001000
00000010
00000000
00000001
00000100
00000000
00000010
00001000
00000000
,
00001001
00000000
00000000
00000000
00000001
00000000
00000010
00001000
00000000
00001000
00010000
00000000
00010000
01000000
00000000
01000000
,
10000000
00000000
01000000
00000000
00100000
00000000
00010000
10000000
00000000
10000000
00100000
00000000
00010000
00000000
00001000
00010000
,
00001000
00000000
00010000
00000000
01000000
00000000
10000000
00010000
00000000
00000000
10000000
00000000
10000000
00000000
00000000
00000000
,
10010000
01000000
00100000
01100000
00000000
10000000
01000000
00010000
,
00011000
00000010
00000100
00000110
00000000
00000001
00001000
00000000
,
00000001
00000100
00000001
00000100
00000010
00001000
00000010
00001000
00000010
00010000
00001000
00010000
00001000
00000000
00022000
00000000
,
00000000
00000000
00000000
00033000
,
00011000
00000000
00000000
00000000
01000000
00000000
00000000
00100000
00000000
00000000
01000000
00000000
01000000
00000000
00000000
00000000
,
01100000
00000000
00000000
00000000
10000000
00000000
00000000
01000000
00000000
00000000
00010000
00000000
01000000
00000000
00000000
00000000
,
01100000
00000000
00000000
00000000
10000000
00000000
00000000
00010000
00000000
00000000
10000000
00000000
10000000
00000000
00000000
00000000
,
00010000
00000000
00000000
00000000
01010000
00000000
00000000
00110000
00000000
00000000
00101000
00000000
00000000
00001000
00000000
00000000
,
00011000
00000000
00000000
00000000
00000100
00000000
00000000
00000010
00000000
00000000
00000100
00000000
00000100
00000000
00000000
00000000
,
00000110
00000000
00000000
00000000
00000001
00000000
00000000
00000100
00000000
00000000
00001000
00000000
00000100
00000000
00000000
00000000
,
00000110
00000000
00000000
00000000
00000001
00000000
00000000
00001000
00000000
00000000
00000001
00000000
00000001
00000000
00000000
00000000
,
00001000
00000000
00000000
00000000
00001100
00000000
00000000
00001010
00000000
00000000
00000010
00010000
00001000
00010000
00001000
00000000
,
00011000
00000000
00010000
00001000
01000000
00010000
00000000
00110000
,
00000000
01100000
00000000
11000000
00000000
00010000
01000000
10000000
,
01000000
00000000
00100000
10000000
00000000
11000000
00000000
01100000
,
00000000
00101000
00000000
00011000
00000000
00010000
00001000
00010000
,
00000010
00001000
00000100
00001000
00000000
00001010
00000000
00001001
,
00000000
00000001
00000000
00000100
00000010
00001000
00000100
00000001
,
00000100
00000000
00000100
00000010
00000000
00000011
00000000
00001001
,
00000000
00001000
00000100
00020000
00000000
00000000
00030000
00000000
,
00001000
00010000
00100000
01000000
,
00001000
00010000
01000000
00100000
,
00001000
00010000
00100000
01000000
00001000
00010000
01000000
00100000
,
00010000
00000000
01000000
00000000
10000000
00000000
00010000
00000000
00100000
00000000
10000000
00010000
10000000
00000000
00010000
00000000
,
10000000
01000000
00010000
00001000
00100000
01000000
00010000
00001000
,
00000010
00000100
00010000
00001000
00000100
00000010
00010000
00001000
,
00000010
00000001
00000100
00000000
00000010
00001000
00000100
00000000
00000001
00000000
00000100
00000000
00010000
00000000
00001000
00000000
,
00101000
01001000
00010010
00010100
,
00011000
00000000
00000000
00000000
00001000
00000000
01000000
00010000
00100000
00000000
01000000
00000000
10000000
00010000
00000000
01000000
,
00010000
00000000
10000000
00000000
01000000
00000000
00010000
00000000
00000000
00000000
00010000
00000000
00001000
00000000
00001000
00000010
,
00000001
00000000
00001000
00000000
00000100
00000010
00000001
00000000
00000000
00000000
00001000
00000000
00000001
00000010
00000000
00000100
,
00001000
00000000
00000001
00000000
00000100
00000010
00000100
00000000
00001000
00000000
00010000
00001000
00010000
00001000
00010000
00001000
,
00010000
00000000
00000000
00000000
00010000
00001000
01000000
00000000
00000000
00000000
00010000
00000000
00100000
01000000
00000000
00100000
,
00020000
00000000
00000000
00000000
00030000
00000000
00010000
01000000
10000000
00000000
01000000
00000000
00010000
00000000
00100000
00000000
,
00110000
00010000
01000000
01001000
00000000
00001000
00022000
00000000
,
00000000
00000000
00000000
00033000
,
00010000
00000100
00010000
00000100
00000000
00001000
00000100
00000010
,
00000000
00000011
00000000
00001001
00000000
00000001
00000100
00000001
,
00000100
00000000
00000100
00001000
00000000
00010000
00001000
00010000
,
00000000
00011000
00000000
00001000
00010000
00100000
10000000
00100000
,
10000000
01000000
10000000
01000000
00100000
00010000
00100000
00010000
,
00001000
00000100
00001000
00000100
00000010
00000001
00000010
00000001
,
00000100
00000010
00000100
00000000
00000001
00000000
00000010
00000000
00001000
00000000
00000010
00000000
00001000
00000000
00010000
00000000
,
00000000
00010000
00001000
00010000
00000000
00011000
00011000
00000000
,
00010000
00000000
00001000
00000000
01000000
00000000
00010000
00100000
00010000
00100000
00010000
00000000
01000000
00000000
00100000
00000000
,
10000000
00000000
00010000
00000000
01000000
00000000
00100000
01000000
00100000
01000000
00100000
00000000
10000000
00000000
00100000
00000000
,
01000000
00000000
00001000
00000000
00010000
00000000
00001000
00010000
00001000
00010000
00001000
00000000
00000100
00000000
00000001
00000000
,
00001000
00000000
00000100
00000000
00000010
00000000
00000001
00000010
00000001
00000000
00001000
00000100
00001000
00000000
00000000
00000000
,
00000001
00000000
00000010
00000000
00000100
00000000
00001000
00000000
00000010
00000000
00000100
00000000
00001000
00010000
00001000
00000000
,
00010000
00000000
00100000
00000000
01000000
00010000
01000000
00000000
00010000
00100000
01000000
00000000
10000000
00000000
00000000
00000000
,
10000000
01000000
10000000
00010000
00100000
00010000
00100000
00001000
00010000
00001000
00010000
00000100
00001000
00000100
00000020
00000000
,
00000000
00000001
00000001
00000001
00000000
00000030
00001001
00000000
,
00000001
00000000
00000100
00001000
00010000
00000000
00001000
00000100
00000001
00000000
00000010
00000000
00000100
00001000
00000001
00000000
,
00000100
00000000
00001000
00000000
00010000
00000000
01100000
00000000
00000000
00000000
10000000
00000000
00010000
10000000
00010000
00000000
,
00100000
00000000
01000000
10000000
00100000
00000000
01000000
00010000
00100000
00000000
01000000
00000000
10000000
00000000
00010000
00000000
,
00000000
00000000
00010000
00100000
00010000
00000000
01000000
00000000
00100000
00000000
00010000
00000000
00011000
00000000
00000000
00000000
,
00010000
00000000
00001000
00000000
00000010
00000001
00000010
00000000
00001000
00000000
00000001
00000000
00000100
00000000
00000110
00000000
,
00000000
00000000
00000001
00000010
00000100
00001000
00000001
00000000
00000000
00000000
00000001
00000000
00000100
00000000
00001000
00010000
,
00002000
00000000
00000000
00000000
00013000
00000000
00010000
00001000
00200000
00000000
00000000
00000000
00310000
00000000
00010000
01000000
,
00100000
10000000
01000000
01000000
01100000
00000000
10010000
00000000
,
10000000
01000000
00010000
00001000
00000010
00000000
00000001
00000000
00001000
00000100
00000010
00000000
00000001
00000000
00001000
00000000
,
00000001
00000100
00000010
00000000
00001000
00000100
00000010
00000000
00000002
00000000
00000203
00000000
00002300
00000000
00003200
00000000
,
00000301
00000000
00000010
00000100
00000010
00000000
00001000
00010000
00001000
00000000
00010000
00000000
01000000
00000000
01100000
00000000
,
00000000
00000000
10000000
00000000
00010000
00000000
10000000
00000000
01000000
00100000
01000000
00100000
00001000
00000000
00000000
00000000
,
00011000
00000000
00010000
00001000
00000010
00000100
00001000
00001001
,
00000000
00000001
00000010
00001001
00000000
00000001
00001000
00000000
,
00000001
00000100
00001000
00010000
00100000
00000000
10000000
00000000
01000000
00010000
01000000
10000000
00010000
00000000
00100000
00000000
,
00000000
00000000
00001000
00010000
00001000
00000000
00011000
00000000
00000000
00000000
00000000
00000000
00000110
00000000
00000000
00000000
,
00002002
00000000
00000000
00000000
,
00000000
00000000
00000000
00003003
,
00000001
00000100
00000001
00000100
00000010
00001000
00000100
00001000
,
00000000
00001000
00000100
00010000
00001000
00100000
00010000
00000000
,
01000000
00000000
00100000
10000000
00100000
00000000
01000000
00000000
00010000
00000000
00100000
01000000
00100000
00000000
00001000
00000000
,
00010000
00000000
00000100
00001000
00000100
00000000
00001000
00000000
00000010
00000000
00000100
00000010
00000100
00000000
00000000
00000000
,
00000001
00000001
00000100
00000100
00001000
00001000
00010000
00100000
,
00000000
00100000
10000000
00010000
00000000
00010000
10010000
00000000
,
00000000
00000000
00000000
00000000
;
