
//----- song ID: abil -----//
#TITLE:Ability;
#ARTIST:Stessie;
#BANNER:Ability.png;
#BACKGROUND:Ability-bg.png;
#CDTITLE:./CDTitles/DDR A3.png;
#MUSIC:Ability.ogg;
#SAMPLESTART:31.169;
#SAMPLELENGTH:15;
#BPMS:0=154;
#STAGE:15;
#NOTES:
     dance-single:
     :
     Beginner:
     2:
     :
0000
0000
0000
0000
,
0000
0000
0000
0000
,
0000
0000
0000
0000
,
0000
0000
0000
0000
,
0001
0000
0000
0000
,
0001
0000
0000
0000
,
0010
0000
0000
0000
,
0000
0000
0000
0000
,
1000
0000
0000
0000
,
1000
0000
0000
0000
,
0010
0000
0000
0000
,
0000
0000
0000
0000
,
2000
0000
0000
0000
,
3000
0000
0000
0000
,
0200
0000
0000
0000
,
0300
0000
0000
0000
,
0010
0000
0000
0000
,
0010
0000
0000
0000
,
0001
0000
0000
0000
,
0000
0000
0000
0000
,
0001
0000
0001
0000
,
0100
0000
0000
0000
,
0010
0000
0000
0000
,
0000
0000
0000
0000
,
1000
0000
1000
0000
,
0010
0000
0000
0000
,
0100
0000
0000
0000
,
0000
0000
0000
0000
,
0001
0000
0001
0000
,
0100
0000
0000
0000
,
0010
0000
0000
0000
,
0000
0000
0000
0000
,
1000
0000
1000
0000
,
0100
0000
0000
0000
,
0010
0000
0000
0000
,
0000
0000
0000
0000
,
1001
0000
0000
0000
,
0000
0000
0000
0000
,
1001
0000
0000
0000
,
0000
0000
0000
0000
,
0001
0000
0100
0000
,
0001
0000
0000
0000
,
0020
0000
0000
0000
,
0030
0000
0000
0000
,
0001
0000
0001
0000
,
0100
0000
0100
0000
,
0010
0000
0000
0000
,
0000
0000
0000
0000
,
1000
0000
1000
0000
,
0100
0000
0100
0000
,
0010
0000
0000
0000
,
0000
0000
0000
0000
,
0001
0000
0100
0000
,
0001
0000
0010
0000
,
0001
0000
0000
0000
,
0000
0000
0000
0000
,
1000
0000
0100
0000
,
1000
0000
0010
0000
,
1000
0000
0000
0000
,
0000
0000
0000
0000
,
1001
0000
0000
0000
,
0000
0000
0000
0000
;
#NOTES:
     dance-single:
     :
     Easy:
     5:
     :
0000
0000
0000
0000
,
0000
0000
0000
0000
,
0000
0000
0000
0000
,
0000
0000
0000
0000
,
0001
1000
0001
1000
,
0010
0000
0100
0000
,
0001
1000
0001
1000
,
0100
0000
0110
0000
,
1000
0001
1000
0001
,
0010
0000
0100
0000
,
1000
0001
1000
0001
,
0100
0000
0110
0000
,
2002
0000
0000
0000
,
3003
0000
0000
0000
,
0220
0000
0000
0000
,
0330
0000
0000
0000
,
1000
0100
0010
0000
,
0100
0010
0001
0000
,
0001
0100
0010
0000
,
1001
0000
0000
0000
,
0001
0100
0001
0010
,
0001
1000
0001
0000
,
0001
0010
1000
0000
,
0110
0000
1001
0000
,
1000
1000
0100
0000
,
0001
0001
0010
0000
,
1001
0000
0110
0000
,
1001
0000
0000
0000
,
1000
0100
1000
0010
,
1000
0001
1000
0000
,
1000
0010
0001
0000
,
0110
0000
1001
0000
,
0001
0001
0100
0000
,
1000
1000
0010
0000
,
1001
0000
0110
0000
,
1001
0000
0000
0000
,
2000
0000
0000
3000
,
0200
0000
0000
0300
,
0020
0000
0000
0000
,
0030
0000
0000
0000
,
0002
0000
0000
0003
,
0200
0000
0000
0300
,
0020
0000
0000
0000
,
0030
0000
0000
0000
,
1000
0010
0100
0001
,
1000
0001
1000
0000
,
0001
0010
0100
1000
,
0001
1000
0001
0000
,
1000
0001
0100
0010
,
1000
0001
0010
0100
,
1000
0100
1000
0001
,
0100
0001
0010
0000
,
0001
0100
0010
1000
,
0001
0100
1000
0000
,
0110
0000
1001
0000
,
1000
0001
1000
0000
,
1000
0100
0010
0001
,
1000
0100
0001
0000
,
1000
0000
0000
0001
0000
0000
2002
0000
,
0000
0000
0000
0000
,
3003
0000
0000
0000
,
0000
0000
0000
0000
;
#NOTES:
     dance-single:
     :
     Medium:
     11:
     :
0000
0000
0000
0000
,
0000
0000
0000
0000
,
0000
0000
0000
0000
,
0000
0000
0000
0000
,
1000
0100
1000
0100
0010
0001
1000
0000
,
0001
0100
0010
0000
0010
0100
0001
0000
,
0001
0010
0001
0010
0100
1000
0001
0000
,
1000
0010
0100
0000
0100
0010
1000
0000
,
1000
0100
0010
0001
0100
0010
1000
0000
,
0001
0100
0001
0000
0001
0010
0001
0000
,
0001
0010
0100
1000
0010
0100
0001
0000
,
1000
0010
1000
0000
1000
0100
1000
0000
,
0002
0000
0000
0003
,
0200
0000
0000
0000
0000
0000
0300
0100
,
0020
0000
0000
0030
,
2000
0000
0000
0000
3000
0000
0000
0000
0001
0000
0000
1000
0000
0000
0001
0000
,
1000
0100
0010
0001
1000
0100
0010
0000
,
0001
0010
0100
1000
0001
0010
0100
0000
,
1000
0001
0100
0010
1000
0001
0100
0010
,
1000
0000
0000
0000
,
1000
0000
0000
0100
0000
0000
1000
0000
0010
0000
0100
0000
0001
0000
0100
0000
,
0010
0010
1000
0000
0010
0010
0001
0000
,
0110
0000
1001
0000
0001
0010
0100
0000
,
0110
0000
1001
0000
1000
0010
0100
0000
,
0001
0000
0011
0000
1000
0100
1100
0000
,
0001
0101
1000
1010
,
0001
0000
0000
0010
0000
0000
0010
0000
1000
0000
0000
0010
0000
0000
0010
0000
,
0001
0010
0100
1000
0010
0100
0001
0000
,
0001
0000
0000
0010
0000
0000
0001
0000
0100
0000
0010
0000
1000
0000
0010
0000
,
0100
0000
0100
0000
0001
0000
0000
0100
0000
0000
0100
0000
1000
0000
0000
0000
,
0110
0000
1001
0000
1000
0100
0010
0000
,
0110
0000
1001
0000
0001
0100
0010
0000
,
1000
0000
1100
0000
0001
0010
0011
0000
,
1000
0000
1010
0000
0001
0100
0101
0000
,
1000
0100
0010
0001
1000
0100
0010
0001
,
1000
0000
1001
0000
0100
0010
0100
0000
,
0000
1000
0100
1000
0010
0000
0000
0000
,
0000
0001
0100
0001
0010
0000
0000
0000
,
0000
0001
1000
0001
1000
0000
0000
0000
,
1000
0000
0001
1000
0001
0000
0000
0000
,
1000
0010
0100
0001
0010
0001
0100
0000
,
0001
0010
0100
1000
0010
1000
0100
0000
,
1000
0100
0001
0100
1000
0000
0001
0000
,
2002
0000
0000
3003
,
0001
0000
0000
0100
0000
0000
0010
0000
0000
0000
0010
0000
0000
0000
1000
0000
,
0001
0100
0001
0000
1000
0100
1000
0000
,
0001
0000
0000
0010
0000
0000
0011
0000
0001
0000
0000
1000
0000
0000
1010
0000
,
0010
0100
0001
1000
0001
0001
0001
0000
,
1000
0000
0100
0000
1000
0000
0000
1010
0000
0000
0010
0000
0100
0000
0010
0000
,
1000
1000
0100
0000
0001
0001
0100
0000
,
0001
0000
0000
0101
0000
0000
0001
0000
1000
0000
0000
1100
0000
0000
1000
0000
,
0001
0100
0010
1000
0001
0100
0010
1000
,
0001
0000
0000
0010
0000
0000
0001
0000
0000
0000
0001
0000
0000
0000
1000
0000
,
0010
0000
0100
0000
0010
0000
1000
0001
0000
0000
0001
0000
0000
0001
0000
0000
,
1000
0100
0001
0000
0001
0100
1000
0000
,
0001
0010
0001
1000
0001
0000
1001
0000
,
1000
0000
0000
0010
0000
0000
0110
0000
0001
0000
0000
0010
0000
0000
0110
0000
,
1000
0010
0001
0010
2000
0000
3000
0000
,
1010
0000
0000
0011
0000
0000
2002
0000
,
0000
0000
0000
0000
,
3003
0000
0000
0000
,
0000
0000
0000
0000
;
#NOTES:
     dance-single:
     :
     Hard:
     16:
     :
0000
0000
0000
0000
,
0000
0000
0000
0000
,
0000
0000
0000
0000
,
0000
0000
0000
0000
,
0001
0010
0100
0000
0010
0100
1000
0000
0001
0100
0010
0000
0100
0010
1000
0000
,
0001
0000
0010
0100
0000
0010
0100
0000
1000
0000
0010
0100
0000
0010
0100
0000
,
0001
0000
1000
0100
1000
0000
0001
0000
1000
0010
1000
0100
0010
0000
0001
0000
,
1000
0000
0010
0100
0000
0001
0100
0000
0001
1000
0000
0100
0000
0010
0100
0000
,
1000
0100
0010
0000
0100
0010
0001
0000
1000
0010
0100
0000
0010
0100
0001
0000
,
1000
0000
0100
0010
0000
0100
0010
0000
0001
0000
0100
0010
0000
0100
0010
0000
,
1000
0000
0001
0010
0001
0000
1000
0000
0001
0100
0001
0010
0100
0000
1000
0000
,
0001
0100
0000
0010
0100
0000
0001
1000
0100
0010
0000
0010
0100
0000
0000
0000
,
0220
0000
0000
0330
,
2002
0000
0000
0000
0000
0000
3003
0001
,
0022
0000
0000
0033
,
2200
0000
0000
0000
3300
0000
0000
0000
1000
0000
0000
1000
0000
0000
1000
0000
,
0001
0100
0001
0100
0010
1000
0010
1000
,
0100
0010
0100
0010
0001
1000
0001
1000
,
0001
0000
0001
0000
0100
0000
0100
0000
0010
1000
0010
1000
0100
0010
0001
0010
,
0002
0000
0000
0000
0000
0000
0000
0000
0000
0000
0000
0000
1003
0100
0010
0001
,
1000
0000
0001
0010
0000
0001
0100
0001
0000
1000
0100
0000
1000
0010
0100
0000
,
0010
1000
0001
0000
0100
0000
0001
0010
0000
0001
0100
0000
0001
0010
0100
1000
,
0001
0010
0000
0010
0000
0010
0001
0000
1000
0000
0010
1000
0010
0000
1000
0010
,
2000
0000
3200
0000
0302
0000
0203
0000
1300
0001
1000
0000
1001
0000
0000
0000
,
0001
0000
1000
0100
0000
1000
0010
1000
0000
0001
0010
0000
0001
0100
0010
0000
,
0200
0000
0302
0000
0013
0100
0010
0100
2000
0000
3020
0000
0230
0000
0302
0000
,
1003
0000
0100
0010
0001
0000
0100
0010
1000
0000
0100
0001
0100
0000
1000
0000
,
0002
0000
0023
0000
2030
0000
3020
0000
0031
1000
0001
0000
1001
0000
0000
0000
,
1000
0000
0010
0100
0000
0001
0010
0001
0000
1000
0100
0000
0001
0000
0100
0000
,
1000
0001
0010
0000
0001
0000
1000
0010
0000
0001
0010
0000
1000
0010
0000
0000
,
0100
0001
0100
0001
0010
0001
0010
0000
0100
1000
0100
1000
0010
1000
0010
0000
,
1000
0000
0010
0001
0010
0000
1000
0100
0002
0000
2003
0000
3020
0000
0032
0000
,
1003
0000
0010
0100
0000
0000
0110
0000
0001
0000
1000
0000
0010
0000
0100
0000
,
0001
0000
0010
0100
0000
0000
0110
0000
1000
0000
0001
0010
0100
0010
0001
0000
,
1000
0010
1000
0010
0100
0001
0100
0001
0010
0001
1000
0001
0100
0010
1000
0010
,
0100
0000
0100
0000
0100
0010
1001
0000
,
0002
0000
2003
0000
,
3200
0000
0300
0100
,
2000
0000
3002
0000
,
0203
0000
0320
0000
,
1030
0001
1000
0000
0100
0000
0010
0000
0001
1000
0001
0000
0100
0000
0010
0000
,
1000
0100
1000
0000
0010
0000
0100
0000
0001
0010
0001
0000
0100
0000
0010
0000
,
1000
0100
1000
0000
0100
0010
0100
0000
0010
0001
0010
0000
0001
1000
0001
0000
,
1000
0001
1000
0001
1000
0001
1000
0001
1000
0100
0010
0001
0010
0100
1000
0100
,
1000
0000
0001
0100
0000
0010
1000
0010
0000
1000
0100
0000
0000
0010
0001
0000
,
0100
0010
0100
0000
0001
1000
0001
0100
0001
0000
0010
0000
0100
1000
0001
1000
,
0100
0000
0001
0100
0000
1000
0100
0000
0010
0000
1000
0010
0000
0001
0010
0000
,
0001
0100
0010
0000
1000
0010
0100
0000
0001
0010
1000
0000
0010
0000
0001
0000
,
1000
0000
0100
0010
0000
0001
1000
0001
0000
0100
0010
0000
1000
0010
0100
0001
,
0200
0000
0302
0000
0013
0100
1000
0010
0200
0000
0302
0000
2003
0000
3002
0000
,
0103
0000
0010
1000
0000
0010
1000
0000
0100
0000
0010
0001
0000
0010
0001
0000
,
0100
0001
0010
0100
1000
0001
0010
0100
1000
0001
0010
0100
1000
0100
0010
0000
,
0001
0000
0100
0010
0000
1000
0100
1000
0000
0010
0100
0000
0000
0001
1000
0000
,
0001
0100
1000
0000
0100
0001
0010
0001
0000
0001
1000
0000
1000
0010
0000
0010
,
0100
0001
0100
0001
0000
0010
0001
0000
1000
0000
0100
1000
0001
0100
0001
1000
,
0100
0000
0010
0001
0010
0000
0100
1000
0200
0000
2300
0000
3020
0000
0230
0000
,
0301
0000
0010
1000
0000
0010
0001
0000
1000
0000
0100
0001
0000
0100
1000
0000
,
0001
0010
0100
1000
0001
0100
0010
1000
0001
0000
0000
0001
0000
0000
0001
0000
,
0101
0000
0100
0001
1000
0000
1100
0000
0100
0010
0001
0000
2002
0000
0000
0000
,
0000
0000
0000
0000
,
3003
0000
0000
0000
,
0000
0000
0000
0000
;
#NOTES:
     dance-double:
     :
     Easy:
     5:
     :
00000000
00000000
00000000
00000000
,
00000000
00000000
00000000
00000000
,
00000000
00000000
00000000
00000000
,
00000000
00000000
00000000
00000000
,
10000000
00010000
10000000
00010000
,
01000000
00000000
00010000
00000000
,
00100000
00001000
00100000
00001000
,
00010000
00000000
00011000
00000000
,
00001000
00010000
00001000
00010000
,
00000100
00000000
00001000
00000000
,
00000010
00000100
00000010
00000100
,
00000001
00000000
00001000
00000000
,
00002002
00000000
00000000
00000000
,
00003003
00000000
00000000
00000000
,
00022000
00000000
00000000
00000000
,
00033000
00000000
00000000
00000000
,
10000000
10000000
01000000
00100000
,
00010000
00100000
00010000
00000000
,
00100000
00001000
00010000
00001000
,
00010000
00000000
00000000
00000000
,
00001000
00010000
00001000
00010000
,
00000010
00001000
00000010
00000000
,
00001000
00000100
00000010
00000001
,
00001000
00000000
00001001
00000000
,
00000001
00000001
00000100
00000000
,
00000010
00000010
00001000
00000000
,
00000010
00010000
00001000
00010000
,
00002000
00000000
00000000
00003000
,
00010000
00001000
00010000
00001000
,
01000000
00010000
01000000
00000000
,
00010000
00100000
01000000
10000000
,
00010000
00000000
10010000
00000000
,
10000000
10000000
00100000
00000000
,
01000000
01000000
00010000
00000000
,
01000000
00001000
00010000
00001000
,
00020000
00000000
00000000
00030000
,
00001000
00000000
00010000
00000000
,
00000100
00001000
00000100
00000000
,
00010000
00000000
00001000
00000000
,
00100000
00010000
00100000
00000000
,
00001000
00010000
00001000
01000000
,
00001000
00000000
00011000
00000000
,
00010000
00000010
00010000
00001000
,
00010000
00000000
00011000
00000000
,
00010000
00001000
00000010
00000001
,
00001000
00000001
00001000
00000000
,
00001001
00000000
00000110
00000000
,
00001001
00000000
00000000
00000000
,
00000001
00000100
00001000
00010000
,
00100000
10000000
00100000
00000000
,
10010000
00000000
01100000
00000000
,
10010000
00000000
00000000
00000000
,
10000000
00100000
01000000
00010000
,
00100000
01000000
00100000
00000000
,
00001000
00010000
00001000
00010000
,
00000100
00001000
00000010
00000000
,
00001000
00000100
00000010
00000001
,
00001000
00000100
00001000
00000000
,
00000100
00000000
00000000
00010000
00000000
00000000
00022000
00000000
,
00000000
00000000
00000000
00000000
,
00033000
00000000
00000000
00000000
,
00000000
00000000
00000000
00000000
;
#NOTES:
     dance-double:
     :
     Medium:
     11:
     :
00000000
00000000
00000000
00000000
,
00000000
00000000
00000000
00000000
,
00000000
00000000
00000000
00000000
,
00000000
00000000
00000000
00000000
,
10000000
01000000
10000000
01000000
00010000
01000000
10000000
00000000
,
00010000
01000000
00010000
00100000
00001000
00010000
00001000
00000000
,
00010000
00000100
00010000
00000100
00001000
00000100
00000010
00000000
,
00000001
00000100
00000010
00000000
00001010
00000000
00001001
00000000
,
00000001
00000100
00000001
00000100
00001000
00000100
00000001
00000000
,
00001000
00000100
00001000
00000010
00010000
00001000
00010000
00000000
,
00001000
01000000
00001000
01000000
00010000
01000000
00100000
00000000
,
10000000
01000000
00100000
00000000
00010000
00100000
00010000
00000000
,
20000000
00000000
00000000
30000000
,
02000000
00000000
00000000
03000000
,
00020000
00000000
00000000
00030000
,
00002000
00000000
00000000
00003000
,
00010000
00001000
00000010
00001000
00010000
00000000
00011000
00000000
,
00001000
00010000
00100000
00010000
00001000
00000000
00011000
00000000
,
00010000
00000100
00001000
00000010
00010000
00000100
00001000
00000010
,
00000100
00000000
00000000
00000000
,
00000001
00000100
00000010
00001000
00000100
00010000
00001000
00000000
,
00101000
00011000
01001000
00011000
,
00001000
00010000
00100000
00000000
01000000
00100000
10000000
00000000
,
00100000
01000000
00100000
01000000
00100000
00000000
10010000
00000000
,
10000000
01000000
00100000
00001000
00010000
00001000
00000010
00000000
,
00001000
00010000
00000100
00010000
00001000
00000000
00011000
00000000
,
00001000
00000000
00000000
00010000
00000000
00000000
00010000
00000000
00100000
00000000
00000000
10000000
00000000
00000000
10000000
00000000
,
01000000
00100000
00010000
00100000
00001000
00100000
00010000
00000000
,
10000000
01000000
00100000
00010000
01000000
00001000
00010000
00000000
,
00010010
00011000
00010100
00011000
,
00010000
00001000
00000010
00000000
00000100
00000010
00000001
00000000
,
00000010
00000100
00000010
00000100
00000010
00000000
00001001
00000000
,
00000001
00000100
00000010
00010000
00001000
00010000
00100000
00000000
,
00010000
00001000
01000000
00001000
00010000
00000000
00011000
00000000
,
00010000
00001000
00010000
00001000
00000010
00000001
00000010
00000001
,
00000100
00000100
00000100
00000000
,
00000000
00000001
00000100
00000001
00000100
00000000
00000000
00000000
,
00000000
00000010
00001000
00000010
00001000
00000000
00000000
00000000
,
00000000
00010000
01000000
00010000
01000000
00000000
00000000
00000000
,
00100000
00000000
10000000
00100000
10000000
00000000
00000000
00000000
,
10000000
01000000
00100000
00010000
00100000
01000000
10000000
00000000
,
00100000
10000000
01000000
00100000
00010000
00100000
00001000
00000000
,
00010000
00000100
00001000
00000100
00001000
00000010
00000100
00000001
,
00002000
00000000
00000000
00003000
,
00000001
00000100
00000010
00000000
00001000
00000100
00000010
00000000
,
00000001
00000100
00000001
00001000
00000010
00010000
00001000
00000000
,
00100000
00001000
00010000
00000000
01000000
00100000
00010000
00000000
,
10000000
01000000
00010000
01000000
10000000
00000000
10010000
00000000
,
00010000
00000000
00100000
00000000
01000000
00000000
00000000
00100000
00000000
00000000
00001000
00000000
00010000
00000000
00001000
00000000
,
00010000
00000100
00000010
00000100
00001000
00000001
00000100
00000000
,
00000001
00000000
00000000
00000100
00000000
00000000
00000100
00000000
00001000
00000000
00000000
00010000
00000000
00000000
00010000
00000000
,
01000000
10000000
01000000
00100000
00010000
10000000
00010000
00000000
,
10000000
01000000
00100000
00000000
00010000
01000000
00100000
00000000
,
10000000
00000000
01000000
00000000
10000000
00000000
00000000
00010000
00000000
00000000
00100000
00000000
00000000
00001000
00000000
00000000
,
00010000
00000100
00001000
00000000
00000100
00000010
00000001
00000000
,
00001000
00000100
00000001
00000100
00001000
00000000
00001001
00000000
,
00001000
00000000
00000000
00000010
00000000
00000000
00000100
00000000
00000010
00000000
00000000
00010000
00000000
00000000
00001000
00000000
,
00010000
00001000
00100000
00010000
01000000
00000000
01100000
00000000
,
10000000
00000000
01000000
00010000
00000000
00001000
00022000
00000000
,
00000000
00000000
00000000
00000000
,
00033000
00000000
00000000
00000000
,
00000000
00000000
00000000
00000000
;
#NOTES:
     dance-double:
     :
     Hard:
     16:
     :
00000000
00000000
00000000
00000000
,
00000000
00000000
00000000
00000000
,
00000000
00000000
00000000
00000000
,
00000000
00000000
00000000
00000000
,
10000000
00100000
10000000
00000000
00010000
00100000
00010000
00000000
01000000
00001000
01000000
00000000
00001000
00010000
00001000
00000000
,
00100000
00000000
00001000
00010000
00000000
00001000
00010000
00000000
00000100
00000000
00010000
00001000
00000000
00010000
00001000
00000000
,
00000010
00000000
00000001
00000010
00000001
00000000
00001000
00000100
00001000
00000000
00000010
00001000
00000010
00000000
00000100
00000000
,
00000001
00000000
00000010
00000100
00000000
00000010
00000100
00000000
00001000
00000000
00000010
00000100
00000000
00000010
00000000
00000100
,
00000001
00000100
00000001
00000000
00001000
00000100
00001000
00000000
00000010
00010000
00000010
00000000
00010000
00001000
00010000
00000000
,
00000100
00000000
00010000
00001000
00000000
00010000
00001000
00000000
00100000
00000000
00001000
00010000
00000000
00001000
00010000
00000000
,
01000000
00000000
10000000
01000000
10000000
00000000
00010000
00100000
00010000
00000000
01000000
00010000
01000000
00000000
00100000
00000000
,
10000000
01000000
00000000
01000000
00100000
00000000
00010000
01000000
00100000
01000000
00000000
01000000
00100000
00000000
00000000
00000000
,
02200000
00000000
00000000
03300000
,
20020000
00000000
00000000
00000000
30030000
00000000
00010000
00100000
,
00202000
00000000
00000000
00303000
,
00022000
00000000
00000000
00000000
00033000
00000000
00000000
00000000
00010000
00000000
00000000
00001000
00000000
00000000
00010000
00000000
,
00000100
00001000
00000100
00001000
00000010
00000100
00000001
00000010
,
00001000
00010000
00001000
00010000
00100000
10000000
00010000
01000000
,
00100000
10000000
00100000
00000000
01000000
00010000
01000000
00000000
00010000
00100000
00010000
00100000
00001000
00010000
00001000
00000000
,
00022000
00000000
00000000
00000000
00000000
00000000
00000000
00000000
00033000
00000000
00000000
00000000
00010000
00001000
00010000
00001000
,
00010000
00000000
00000010
00001000
00000000
00000100
00000010
00000001
00000000
00000100
00000001
00000000
00000010
00000100
00001000
00000000
,
00000010
00000100
00001000
00000000
00010000
00000000
00100000
01000000
00000000
00010000
01000000
00000000
10000000
01000000
00010000
00000000
,
10000000
00000000
01000000
00100000
00000000
00100000
01000000
00000000
00010000
00000000
00001000
00010000
00001000
00000000
00010000
00001000
,
00000020
00000000
00000032
00000000
00000203
00000000
00000320
00000000
00001030
00000001
00001000
00000000
00001001
00000000
00000000
00000000
,
00000001
00000000
00000100
00000010
00000000
00010000
00001000
00010000
00000000
00000100
00000010
00000000
00000100
00010000
00001000
00000000
,
00020000
00000000
02030000
00000000
03100000
00010000
00100000
00010000
20000000
00000000
32000000
00000000
03200000
00000000
00320000
00000000
,
00031000
00000000
00000100
00000001
00000000
00000100
00001000
00000000
00000001
00000000
00000100
00001000
00000000
00000100
00000001
00000000
,
00000020
00000032
00000203
00000320
00020030
00031000
00011000
00000000
,
00001000
00000000
00100000
00010000
00000000
01000000
00100000
10000000
00000000
01000000
10000000
00000000
00100000
01000000
00010000
00000000
,
00100000
01000000
00010000
00000000
00001000
00000000
00000010
00000100
00000000
00001000
00000100
00000000
00000001
00000100
00000000
00001000
,
00000001
00000100
00000001
00000100
00000010
00000100
00000010
00000000
00001000
00000010
00001000
00000010
00010000
00001000
00010000
00000000
,
00002000
00000000
02003000
00000000
03020000
00000000
00030000
00000000
00100000
01000000
00100000
00000000
01100000
00000000
00000000
00000000
,
10000000
00000000
01000000
00100000
00000000
00001000
00010000
00000000
00001000
00000000
01000000
00010000
00100000
00000000
01000000
00010000
,
00001000
00000000
00000010
00000100
00000000
00000010
00000001
00000000
00001000
00000000
00000010
00000100
00000001
00000100
00000010
00000000
,
00001000
00000100
00001000
00000100
00010000
00001000
00010000
00001000
00100000
00010000
01000000
00100000
10000000
01000000
00100000
00010000
,
20000000
32000000
03020000
00031000
,
00020000
00000000
00030200
00000000
,
00000320
00000000
00000030
00000000
,
00000002
00000000
00000203
00000000
,
00002300
00000000
00023000
00000000
,
00031000
00000000
00010000
00000000
00100000
10000000
00100000
00000000
10000000
00000000
01000000
00000000
00010000
00001000
00010000
00000000
,
00001000
00000000
00000010
00000000
00000001
00000010
00000001
00000000
00000100
00000000
00001000
00000000
00010000
00001000
00010000
00000000
,
00001000
01000000
00001000
00000000
00100000
00010000
00100000
00000000
01000000
10000000
01000000
00000000
10000000
00100000
10000000
00000000
,
00100000
01000000
00100000
01000000
00010000
01000000
00010000
01000000
00001000
00010000
00001000
00010000
00000100
00001000
00000100
00001000
,
00000010
00000000
00000100
00000001
00000000
00000010
00000001
00000100
00000000
00000010
00001000
00000000
00000000
00000001
00000100
00000000
,
00001000
00010000
00001000
00000000
00010000
00001000
00100000
00001000
00010000
00000000
01000000
00000000
00100000
00010000
00100000
00010000
,
00100000
00000000
01000000
10000000
00000000
10000000
00100000
00000000
01000000
00000000
00010000
00100000
00000000
00100000
00001000
00000000
,
00010000
00001000
00010000
00000000
00000100
00001000
00000010
00000000
00000100
00000000
00001000
00000000
00000100
00000000
00000001
00000000
,
00000010
00000000
00000100
00001000
00000000
00000010
00001000
00000010
00000000
00000100
00001000
00000000
00000100
00000010
00001000
00000100
,
00020000
00000000
00032000
00000000
01003000
00010000
00100000
01000000
20000000
00000000
32000000
00000000
03020000
00000000
20030000
00000000
,
30100000
00000000
00010000
01000000
00000000
01000000
00100000
00000000
10000000
00000000
01000000
00100000
00000000
00100000
00010000
00000000
,
10000000
01000000
00100000
00010000
00100000
00001000
00010000
00000100
00001000
00000100
00000010
00000001
00000010
00000100
00001000
00000000
,
00000001
00000000
00000100
00000010
00000000
00010000
00001000
00010000
00000000
00010000
00001000
00000000
00100000
00000000
00001000
00000000
,
00010000
00000000
00100000
00000000
01000000
00100000
10000000
00100000
00000000
00100000
10000000
00000000
10000000
01000000
00000000
01000000
,
00010000
00001000
00010000
00001000
00000000
00001000
00010000
00000000
00000010
00000000
00001000
00000100
00001000
00000001
00000100
00000001
,
00001000
00000000
00000100
00000000
00000001
00000000
00000100
00001000
00000200
00000000
00000320
00000000
00000032
00000000
00002003
00000000
,
00003010
00000000
00000100
00001000
00000000
00001000
00010000
00000000
00100000
00000000
01000000
00100000
00000000
00100000
10000000
00000000
,
00010000
01000000
00010000
01000000
00010000
00100000
00001000
00010000
00002000
00000000
00000000
00000000
00013000
00000000
00000000
00000000
,
00011000
00000000
00001000
00010000
00000100
00000000
00001100
00000000
00001000
00000010
00000100
00000000
00000220
00000000
00000000
00000000
,
00000000
00000000
00000000
00000000
,
00000330
00000000
00000000
00000000
,
00000000
00000000
00000000
00000000
;
