
//----- song ID: albi -----//
#TITLE:ALBIDA;
#ARTIST:DJ YOSHITAKA;
#BANNER:ALBIDA.png;
#BACKGROUND:ALBIDA-bg.png;
#CDTITLE:./CDTitles/jb ripples APPEND.png;
#MUSIC:ALBIDA.ogg;
#SAMPLESTART:23.352;
#SAMPLELENGTH:15;
#BPMS:0=185;
#STAGE:27;
#NOTES:
     dance-single:
     :
     Beginner:
     3:
     :
0000
0000
0000
0000
,
0000
0000
0000
0000
,
0000
0000
0000
0000
,
0000
0000
0000
0000
,
0000
0000
0000
0000
,
0000
0000
0000
0000
,
0000
0000
0000
0000
,
0000
0000
0000
0000
,
0000
0000
0000
0000
,
0000
0000
0000
0000
,
0001
0000
1000
0000
,
0010
0000
0000
0000
,
1000
0000
0001
0000
,
0100
0000
0000
0000
,
0001
0000
1000
0000
,
0100
0000
0010
0000
,
0001
0000
0000
0000
,
0200
0000
0300
0000
,
0001
0001
0000
0000
,
0001
0000
0000
0000
,
1000
0000
0001
0000
,
0100
0000
0010
0000
,
1000
1000
0000
0000
,
1000
0000
0000
0000
,
0001
0000
0100
0000
,
0010
0000
0100
0000
,
0001
0001
0000
0000
,
0001
0000
0000
0000
,
1000
0000
0100
0000
,
0010
0000
0001
0000
,
0100
0100
0000
0000
,
0100
0000
0000
0000
,
0010
0000
1000
0000
,
0001
0000
0100
0000
,
0001
0001
0001
0000
,
1000
1000
1000
0000
,
1001
0000
0000
0000
,
0000
0000
0000
0000
,
1000
0001
1000
0000
,
0010
0100
0010
0000
,
1000
0000
0001
0000
,
0100
0000
0000
0000
,
0001
0001
0001
0000
,
1000
1000
1000
0000
,
1001
0000
0000
0000
,
0000
0000
0000
0000
,
1000
0001
1000
0000
,
0010
0100
0010
0000
,
1000
0000
0001
0000
,
0010
0000
0100
0000
,
2000
0000
0000
0000
,
0000
0000
0000
0000
,
3000
0000
0000
0000
,
0000
0000
0000
0000
,
0001
0000
0000
0000
,
0100
0000
0000
0000
,
0010
0000
0000
0000
,
0000
0000
0000
0000
,
1000
0000
0000
0000
,
0000
0000
0000
0000
,
0001
0000
0000
0000
,
0000
0000
0000
0000
,
1000
0000
0000
0000
,
0000
0000
0000
0000
,
0010
0000
0010
0000
,
0010
0000
0010
0000
,
0020
0000
0000
0000
,
0030
0000
0000
0000
,
1000
1000
1000
0000
,
0001
0001
0001
0000
,
0110
0000
0000
0000
,
0000
0000
0000
0000
,
0001
0001
1000
0000
,
0010
0010
0100
0000
,
0001
0000
0010
0000
,
0100
0000
0000
0000
,
1000
1000
1000
0000
,
0001
0001
0001
0000
,
0110
0000
0000
0000
,
0000
0000
0000
0000
,
0010
0010
0010
0000
,
0100
0100
0100
0000
,
0001
0000
1000
0000
,
0010
0000
0100
0000
,
0002
0000
0000
0000
,
0000
0000
0000
0000
,
0003
0000
0000
0000
,
0000
0000
0000
0000
;
#NOTES:
     dance-single:
     :
     Easy:
     9:
     :
0000
0000
0000
0000
,
0000
0000
0000
0000
,
0000
0000
0000
0000
,
0000
0000
0000
0000
,
0000
0000
0000
0000
,
0000
0000
0000
0000
,
0000
0000
0000
0000
,
0000
0000
0000
0000
,
0000
0000
0000
0000
,
0000
0000
0000
0000
,
0001
0001
1000
1000
,
1010
0000
0001
0001
0000
1000
0000
0001
,
0100
0100
0001
0001
,
0011
0000
0010
0010
0000
0001
0000
1000
,
0010
0010
0100
0100
,
0101
0001
0010
0100
,
1100
0000
0000
0011
0000
0000
0110
0000
,
2002
0000
0000
3003
,
0001
0000
0100
0100
0000
0010
0000
0010
,
0000
0100
0000
0100
0000
0001
0001
0000
,
1000
0100
0010
0001
,
1000
0010
0100
0001
,
1000
0000
0010
0010
0000
0100
0000
0100
,
0000
0010
0000
0010
0000
1000
1000
0000
,
0001
0010
0100
1000
,
0001
0100
0010
1000
,
0001
0000
1000
1000
0000
0010
0000
0010
,
0000
0100
0000
0100
0000
0001
0001
0000
,
0010
0100
1000
0001
,
0100
0010
0100
0001
,
1000
0000
0001
0001
0000
0100
0000
0100
,
0000
0010
0000
0010
0000
1000
1000
0000
,
0001
0010
0001
0010
,
0100
1000
0100
1000
,
1001
1000
0001
0010
,
0100
1000
0001
0100
,
0010
0000
0100
0100
0000
0001
0000
0001
,
0000
1000
0000
1000
1000
0000
0110
0000
,
0001
1000
0100
1000
,
0010
0000
0100
0000
0001
0000
1000
0001
,
1000
0001
0100
0010
,
0010
0010
0000
0000
0000
0000
1001
0000
,
1000
0100
0010
0001
,
0010
0100
1000
0001
,
0100
0000
0010
0010
0000
1000
0000
1000
,
0000
0001
0000
0001
0001
0000
0110
0000
,
0001
1000
0100
1000
,
0001
0100
0001
1000
,
1100
0001
0101
1000
,
1100
0001
0100
0110
,
2002
0000
0000
0000
,
0000
0000
0000
0000
,
3003
0000
0000
0000
,
0000
0000
0000
0000
,
2000
0000
3000
0000
,
0020
0000
0030
0000
,
0100
0000
0000
0000
,
0000
0000
0000
0000
,
0002
0000
0003
0000
,
0020
0000
0030
0000
,
0001
0000
0000
0100
0000
0000
0000
0010
,
0000
0000
0000
1000
0000
0000
0001
0000
,
0100
0000
0000
0010
0000
0010
0000
0010
,
0000
0010
0000
0010
0000
0010
0100
0000
,
0001
0010
0100
1000
,
0001
0100
0010
1000
,
0001
0100
0001
0000
1000
0100
1000
0000
,
2002
3003
0000
0110
,
0001
1000
0100
1000
,
0001
0100
0010
0100
,
0001
0000
1000
1000
0000
1001
0000
0110
,
0000
1001
0000
0001
1000
0000
0100
0000
,
0010
0001
1000
0001
,
0100
0000
0010
0000
1000
0000
0001
0100
,
0100
0001
0011
1000
,
0100
0100
0000
0000
0000
0000
0110
0000
,
1001
0001
0100
0010
,
1000
0100
0010
0001
,
0100
0000
0010
0010
0000
0110
0000
1001
,
0000
0110
0000
0100
0100
0000
0001
0000
,
1000
0001
0100
0001
,
0011
0100
1000
0010
,
1000
0001
0010
0100
,
1000
0001
1000
0000
0000
0000
0010
0000
,
2002
0000
0000
0000
,
0000
0000
0000
0000
,
3003
0000
0000
0000
,
0000
0000
0000
0000
;
#NOTES:
     dance-single:
     :
     Medium:
     13:
     :
0000
0000
0000
0000
,
0000
0000
0000
0000
,
0000
0000
0000
0000
,
0000
0000
0000
0000
,
0000
0000
0000
0000
,
0000
0000
0000
0000
,
0000
0000
0000
0000
,
0000
0000
0000
0000
,
0000
0000
0000
0000
,
0000
0000
0000
0000
,
1000
0100
1000
0100
0010
0001
1000
0000
,
1010
0000
0010
0010
0000
0110
0000
1000
,
0001
0100
0001
0100
0010
1000
0001
0000
,
0011
0000
0010
0010
0000
0110
0000
0001
,
1000
0010
1000
0010
0100
0001
1000
0000
,
1100
0000
0001
0010
0100
1000
0001
0100
,
0110
0000
0000
1001
0000
0000
0110
0000
,
2002
0000
0000
3003
,
0001
0010
0100
2000
0000
3010
0100
0002
,
0000
1003
0100
0020
0000
1030
0010
0001
,
0100
0010
0100
0001
0010
0001
0100
0010
,
0100
0001
0010
0100
1000
0100
0010
0001
,
1000
0010
0100
0002
0000
1003
0100
0020
,
0000
0031
0100
0020
0000
0031
0010
1000
,
0100
0010
0100
1000
0010
1000
0100
0010
,
0100
1000
0010
0100
0001
0100
0010
1000
,
0001
0010
0100
1100
0000
0001
0100
0110
,
0000
1000
0100
0110
0000
0001
0100
0100
,
0010
1000
0100
1000
0010
0100
0010
1000
,
0100
1000
0010
0100
0001
0010
0100
1000
,
0001
0100
0010
1010
0000
0001
0010
0011
,
0000
1000
0010
0110
0000
0001
1000
0100
,
0010
0001
0100
0001
0010
0100
0010
0001
,
0100
0001
0010
0100
1000
0001
0100
0000
,
0001
0000
0010
0000
0001
0000
0000
0100
0000
0000
0010
0000
1000
0000
0001
0000
,
0010
0000
0100
0000
1000
0000
0000
0010
0000
0000
0100
0000
0001
0000
0010
0000
,
0011
0000
1000
1000
0000
0101
0000
1001
,
0000
0110
0000
0001
0001
0010
0100
1000
,
0001
0100
0010
0100
0001
0010
0100
1000
,
0010
0100
0010
1000
0100
0010
0001
1000
,
0010
0100
0000
0000
0001
0000
0000
1000
0000
0000
0001
0000
0010
0000
0100
0000
,
1000
1000
0000
0000
0000
0000
1001
0000
,
0001
0000
1000
0000
0100
0000
0000
0001
0000
0000
0100
0000
1000
0000
0010
0000
,
1000
0000
0001
0000
0100
0000
0000
1000
0000
0000
0100
0000
0001
0000
0010
0000
,
0011
0000
1000
1000
0000
0110
0000
1001
,
0000
0011
0000
1000
1000
0100
0010
0001
,
1000
0100
0001
0100
1000
0100
0001
0100
,
1000
0010
0001
0010
1000
0010
0001
0000
,
0010
0100
0001
1000
0100
0010
0001
0000
,
0100
0000
0100
0000
0001
0000
0010
0000
0001
0000
0000
1000
0000
0000
0010
0000
,
0200
0000
0000
0000
,
0000
0000
0000
0000
,
0300
0000
0000
0000
,
0000
0000
0000
0000
,
0002
0000
0003
0000
,
0010
0000
0100
0000
,
2000
0000
3000
0000
,
0000
0000
0000
0000
,
0020
0000
0030
0000
,
1000
0000
0001
0000
,
0001
0010
0001
0010
0000
0100
1000
0010
,
0000
0100
0001
0010
0000
0001
0010
0100
,
1000
0000
0001
0100
0000
0100
0000
0100
,
0000
0100
0000
0100
0000
0001
1000
0000
,
0001
0001
0100
0100
0001
0001
0010
0010
,
0100
0100
1000
1000
0010
0010
0100
0100
,
0001
0010
0100
1000
0010
0100
0001
1000
,
0100
0010
0011
0000
0000
0000
1001
0000
,
1000
0000
0010
0000
1000
0000
0000
0100
0000
0000
0010
0000
0001
0000
1000
0000
,
0010
0000
0100
0000
0001
0000
0000
0010
0000
0000
0100
0000
1000
0000
0010
0000
,
0110
0000
1000
1010
0000
1001
0000
0101
,
0000
1001
0000
0110
1000
0010
0100
0001
,
1000
0100
0010
0100
1000
0010
0001
0010
,
1000
0100
0010
0100
1000
0010
0001
0010
,
1000
0100
0000
0000
0010
0000
0000
0001
0000
0000
1000
0000
0010
0000
0100
0000
,
0001
0001
0000
0000
0000
0000
1001
0000
,
1000
0000
0001
0000
0100
0000
0000
1000
0000
0000
0100
0000
0001
0000
0010
0000
,
0001
0000
1000
0000
0100
0000
0000
0001
0000
0000
0100
0000
1000
0000
0010
0000
,
0110
0000
0100
0101
0000
0011
0000
1100
,
0000
1010
0000
1001
0001
0100
0010
1000
,
0001
0100
1000
0100
0001
0100
1000
0100
,
0001
0010
1000
0010
0001
0010
1000
0000
,
0010
0100
1000
0001
0100
0010
1000
0000
,
0100
0000
0100
0000
1000
0000
0010
0000
1000
0000
0000
0001
0000
0000
0010
0000
,
0200
0000
0000
0000
,
0000
0000
0000
0000
,
0300
0000
0000
0000
,
0000
0000
0000
0000
;
#NOTES:
     dance-single:
     :
     Hard:
     16:
     :
0000
0000
0000
0000
,
0000
0000
0000
0000
,
0000
0000
0000
0000
,
0000
0000
0000
0000
,
0000
0000
0000
0000
,
0000
0000
0000
0000
,
0000
0000
0000
0000
,
0000
0000
0000
0000
,
0000
0000
0000
0000
,
2002
0000
0000
3003
,
0001
0100
0001
0100
0001
0010
0100
1000
,
1010
0000
0001
0101
0000
0011
0000
0001
,
1000
0100
1000
0100
1000
0010
0100
0001
,
0011
0000
1000
1100
0000
1010
0000
1000
,
0001
0010
0001
0010
0001
0100
0010
1000
,
1001
0001
0100
0010
1000
1000
0001
0001
,
0011
0000
0000
1100
0000
0000
0110
0000
,
2002
0000
0000
3003
,
0001
0000
1000
0100
1000
0000
0010
0000
0000
0000
1000
0100
1000
0000
0010
0000
,
0000
0000
1000
0100
1000
0000
0010
0000
0000
0000
0100
0000
0001
0000
0001
0000
,
0100
0010
0100
1000
0100
0010
0100
0001
,
0010
0100
1000
0100
0010
0001
0100
0010
,
1000
0000
0001
0100
0001
0000
0010
0000
0000
0000
0001
0100
0001
0000
0010
0000
,
0000
0100
1000
0010
0000
0100
0001
1000
,
0010
1000
0010
0100
0010
0001
0010
0100
,
0010
0000
1000
0000
0001
0000
0100
0000
0001
1000
0001
1000
0100
0010
0001
1000
,
0001
0000
0100
0010
0100
0000
0001
0000
0000
0000
0010
0100
0010
0000
0001
0000
,
0000
0000
0100
0010
0100
0000
0001
0000
0000
0000
1000
0000
0010
0000
0010
0000
,
0100
0001
0010
0001
1000
0001
0100
0001
,
0010
0100
1000
0001
0100
0100
0010
0010
,
1000
0000
0001
0010
0100
0000
1000
0000
0000
0000
0001
0100
0010
0000
1000
0000
,
0000
0001
0010
0100
0000
1000
1000
0001
,
1000
0100
1000
0010
1000
0001
0100
0001
,
0010
0000
0100
0000
1000
0000
0001
0000
0100
0010
0100
0001
1000
0001
0010
0100
,
1000
0000
0001
0100
0010
0000
1000
0100
0000
0010
0001
0000
1000
0000
0010
0000
,
0100
0000
0001
1000
0100
0000
1000
0010
0000
0100
0001
0000
0010
0000
0100
0000
,
1100
0000
0001
0110
0000
1010
0000
0101
,
0000
0011
0000
1100
0001
0100
0010
1000
,
0001
0000
1000
0100
0010
0000
0001
0100
0010
0000
1000
0100
0010
0000
0001
0100
,
0010
0000
1000
0010
0100
0000
0001
0010
0100
0000
1000
0010
0100
0000
0001
0000
,
1000
0100
0000
1000
0010
0000
1000
0100
0000
1000
0010
0000
0100
0000
0001
0000
,
0010
0110
0000
0000
0000
0000
1001
0000
,
0001
0000
0100
0010
1000
0000
0001
0100
0000
0010
0001
0000
0010
0000
1000
0000
,
0001
0000
0010
0100
1000
0000
0001
0010
0000
0100
0001
0000
0100
0000
1000
0000
,
1001
0000
0001
0011
0000
1100
0000
1001
,
0000
0110
0000
1001
0001
0010
0100
1000
,
0001
0100
0001
0100
0010
0000
1000
0100
1000
0100
0010
0000
0001
0100
0010
0100
,
0001
0000
1000
0100
0010
0100
1000
0000
0010
0100
0001
0100
0010
0000
1000
0001
,
1000
0000
0100
0010
0001
0000
1000
0000
0001
0100
0010
0000
1000
0001
1000
0001
,
0100
0000
0010
0000
0100
0001
0010
0100
1000
0000
0000
0001
0000
0000
0100
0000
,
0020
0000
0000
0000
,
0000
0000
0000
0000
,
0130
0000
0000
0001
0000
0000
0000
0010
,
0000
0000
0000
0100
0000
0000
0000
0000
,
1000
0000
0000
0000
,
0020
0000
0030
0000
,
1000
0100
1000
0200
0300
0010
0001
2000
,
3000
0010
0100
0002
0003
0010
0100
1000
,
0002
0000
0000
0000
0000
0000
0000
0000
0003
0000
0000
0000
0000
0000
0100
0010
,
0200
0300
0002
0003
,
1000
0000
0001
0100
0002
0000
0010
0000
0000
0000
1003
0100
2000
0000
0010
0000
,
0000
0000
3001
0100
0002
0000
0010
0000
0000
0000
1003
0000
0100
0000
1000
0000
,
0010
0100
0001
0010
0001
0100
0010
1000
,
0100
0010
0001
0010
0100
1000
0001
0100
,
0001
0000
1000
0100
1000
0000
0010
0000
0100
0000
0001
0010
0001
0000
0100
0000
,
0010
0000
1000
0100
1000
0000
0010
0000
0100
0000
0001
0010
0001
0000
1000
0000
,
0001
0100
0001
0100
0001
0100
0010
1000
0001
0010
0001
0010
0001
0010
0100
1000
,
0001
0100
0010
0000
1000
0000
1001
0000
,
1000
0000
0001
1000
0100
0000
1000
0010
0000
0100
0001
0000
0010
0000
0100
0000
,
1000
0000
0001
1000
0010
0000
1000
0100
0000
0010
0001
0000
0100
0000
0010
0000
,
1010
0000
1000
1001
0000
0011
0000
1100
,
0000
1010
0000
0110
0010
0010
0100
0100
,
0001
0000
1000
0100
0010
0000
0001
0100
0010
0000
1000
0100
0010
0000
0001
0100
,
0010
0000
0100
0001
0010
0000
0100
1000
0010
0000
0100
0001
0010
0000
0100
0000
,
1000
0010
0000
0100
0001
0000
0001
0010
0000
0100
1000
0000
0001
0000
0100
0000
,
0010
0110
0000
0000
0000
0000
1001
0000
,
0001
0000
1000
0100
0010
0000
0001
0100
0000
1000
0100
0000
0001
0000
0010
0000
,
0001
0000
1000
0010
0100
0000
0001
0010
0000
1000
0010
0000
0001
0000
1000
0000
,
1100
0000
0001
0011
0000
1001
0000
1100
,
0000
0101
0000
1001
0001
0010
0100
1000
,
0001
0100
0010
0100
0001
0000
1000
0100
0010
0100
1000
0000
0010
0100
0001
0100
,
0010
0000
1000
0100
0010
0001
1000
0000
0001
0100
0010
1000
0001
0000
0010
0100
,
0010
0000
0001
1000
0010
0000
0100
0000
0010
1000
0001
0000
1000
0100
1000
0100
,
0010
0000
0001
0000
0010
0100
1000
0001
0100
0000
0000
0010
0000
0000
1000
0000
,
2002
0000
0000
0000
,
0000
0000
0000
0000
,
3003
0000
0000
0000
,
0000
0000
0000
0000
;
#NOTES:
     dance-double:
     :
     Easy:
     9:
     :
00000000
00000000
00000000
00000000
,
00000000
00000000
00000000
00000000
,
00000000
00000000
00000000
00000000
,
00000000
00000000
00000000
00000000
,
00000000
00000000
00000000
00000000
,
00000000
00000000
00000000
00000000
,
00000000
00000000
00000000
00000000
,
00000000
00000000
00000000
00000000
,
00000000
00000000
00000000
00000000
,
00000000
00000000
00000000
00000000
,
00001000
00001000
00010000
00010000
,
00001000
00000000
01000000
01000000
00000000
00010000
00000000
10000000
,
10000000
01000000
00100000
00010000
,
00100000
00000000
00001000
00001000
00000000
00010000
00000000
00000100
,
00000100
00001000
00000001
00000100
,
00000110
00000010
00001000
00000100
,
00010100
00000000
00000000
00011000
00000000
00000000
00101000
00000000
,
00022000
00000000
00000000
00033000
,
00001000
00000000
00100000
00010000
00000000
00010000
00000000
10000000
,
00000000
10000000
00000000
00010000
00000000
00010000
01000000
00000000
,
00010000
00100000
01000000
10000000
,
10000000
01000000
00010000
00001000
,
00010000
00000000
00000010
00001000
00000000
00001000
00000000
00000001
,
00000000
00000001
00000000
00001000
00000000
00001000
00000100
00000000
,
00001000
00000010
00000100
00000001
,
00000001
00000100
00001000
00010000
,
00001000
00000000
01000000
00010000
00000000
00010000
00000000
10000000
,
00000000
10000000
00000000
00010000
00000000
00010000
00100000
00000000
,
00010000
01000000
00100000
10000000
,
10000000
00100000
00010000
00001000
,
00010000
00000000
00000100
00001000
00000000
00001000
00000000
00000001
,
00000000
00000001
00000000
00001000
00000000
00001000
00000010
00000000
,
00001000
00000100
00000010
00000001
,
00000001
00000010
00001000
00010000
,
00000100
00001000
00000010
00010000
,
00001000
01000000
00010000
00100000
,
00001000
00000000
00010000
00010000
00000000
00000100
00000000
00000010
,
00000000
00000001
00000000
00001000
00001000
00000000
00000010
00000000
,
00001000
00000001
00000100
00001000
,
00010000
01000000
10000000
00100000
,
10000000
01000000
00010000
00001000
,
00010000
00010000
00000000
00000000
00000000
00000000
00001000
00000000
,
01000000
00010000
00100000
00001000
,
00010000
00000100
00001000
00000010
,
00010000
00000000
00001000
00001000
00000000
01000000
00000000
00100000
,
00000000
10000000
00000000
00010000
00010000
00000000
00100000
00000000
,
00010000
10000000
01000000
00010000
,
00001000
00000100
00000001
00000010
,
00000001
00000100
00001000
00010000
,
00001000
00001000
00000000
00000000
00000000
00000000
00010000
00000000
,
00022000
00000000
00000000
00000000
,
00000000
00000000
00000000
00000000
,
00033000
00000000
00000000
00000000
,
00000000
00000000
00000000
00000000
,
00020000
00000000
00030000
00000000
,
00000100
00000000
00010000
00000000
,
00002000
00000000
00003000
00000000
,
00000000
00000000
00000000
00000000
,
00200000
00000000
00300000
00000000
,
00010000
00000000
00100000
00000000
,
00001000
00000000
00000000
00010000
00000000
00000000
00000000
00001000
,
00000000
00000000
00000000
00010000
00000000
00000000
00000000
00000000
,
00001000
00000000
00010000
00010000
00000000
00010000
00000000
00010000
,
00000000
00010000
00000000
00010000
00000000
00010000
00010000
00000000
,
00001000
01000000
00010000
00100000
,
01000000
10000000
00010000
01000000
,
00001000
00010000
00001000
00000000
00010000
00001000
00010000
00000000
,
00022000
00000000
00000000
00033000
,
00010000
00000100
00000010
00001000
,
00010000
00000100
00001000
00000010
,
00001000
00000000
00000010
00000010
00000000
00000110
00000000
00001001
,
00000000
00000110
00000000
00000100
00000100
00000000
00000010
00000000
,
00001000
00000001
00000100
00001000
,
00010000
00100000
10000000
01000000
,
10000000
00100000
00010000
00001000
,
00010000
00010000
00000000
00000000
00000000
00000000
00011000
00000000
,
00001000
00100000
01000000
00010000
,
00001000
01000000
00010000
00100000
,
01000000
00000000
00100000
00100000
00000000
01100000
00000000
10010000
,
00000000
01100000
00000000
00100000
00100000
00000000
10000000
00000000
,
00010000
10000000
00100000
00010000
,
00001000
00000010
00000001
00000100
,
00000001
00000010
00001000
00010000
,
00001000
00001000
00200000
00000000
00300000
00000000
00010000
00000000
,
20020000
00000000
00000000
00000000
,
00000000
00000000
00000000
00000000
,
30030000
00000000
00000000
00000000
,
00000000
00000000
00000000
00000000
;
#NOTES:
     dance-double:
     :
     Medium:
     13:
     :
00000000
00000000
00000000
00000000
,
00000000
00000000
00000000
00000000
,
00000000
00000000
00000000
00000000
,
00000000
00000000
00000000
00000000
,
00000000
00000000
00000000
00000000
,
00000000
00000000
00000000
00000000
,
00000000
00000000
00000000
00000000
,
00000000
00000000
00000000
00000000
,
00000000
00000000
00000000
00000000
,
00000000
00000000
00000000
00000000
,
00001000
00010000
00001000
00010000
00000010
00001000
00000010
00000000
,
00001010
00000000
00010000
00010000
00000000
00011000
00000000
00001000
,
00010000
00001000
00010000
00001000
00100000
00010000
00100000
00000000
,
00110000
00000000
00001000
00001000
00000000
00011000
00000000
00010000
,
00000100
00000010
00001000
00000000
00010000
00000010
00001000
00000000
,
00001001
00000000
00001000
00000100
00000010
00000001
00000010
00000000
,
00000110
00000000
00000000
00001001
00000000
00000000
00000110
00000000
,
00002002
00000000
00000000
00003003
,
00000001
00000010
00000100
00002000
00000000
00003010
00000100
00002000
,
00000000
00013000
00001000
00200000
00000000
00310000
00100000
01000000
,
10000000
00000000
00010000
01000000
00000000
00100000
00000000
00010000
,
00000000
00001000
00000000
00010000
00000000
01000000
10000000
00000000
,
10000000
01000000
00100000
00020000
00000000
01030000
00100000
00020000
,
00000000
00031000
00010000
00000200
00000000
00001300
00000010
00000100
,
00000001
00000000
00001000
00000100
00000000
00000010
00000000
00001000
,
00010000
00001000
00010000
00001000
00000100
00000001
00000010
00000000
,
00000100
00001000
00000001
00000200
00000000
00000301
00000100
00002000
,
00000000
00013000
00001000
02000000
00000000
03100000
10000000
00010000
,
00100000
00000000
01000000
10000000
00000000
01000000
00000000
00010000
,
00000000
00001000
00000000
00000100
00000000
00000001
00001000
00000000
,
00000001
00000010
00000100
00020000
00000000
01030000
10000000
00200000
,
00000000
01300000
00010000
20000000
00000000
31000000
00100000
00000000
,
00001000
00000000
00010000
00001000
00000000
00000010
00000000
00000001
,
00001000
00000010
00000100
00000001
00000010
00000100
00001000
00000000
,
00000001
00000000
00000100
00000000
00001000
00000000
00000000
00010000
00000000
00000000
00001000
00000000
00100000
00000000
01000000
00000000
,
10000000
00000000
01000000
00000000
00010000
00000000
00000000
00001000
00000000
00000000
00010000
00000000
00000010
00000000
00000100
00000000
,
00000010
00000000
00001000
00001000
00000000
00001010
00000000
00010010
,
00000000
00001010
00000000
00000010
00000100
00001000
00010000
00000000
,
00001000
00010000
01000000
00100000
00001000
00010000
00100000
01000000
,
00001000
00010000
01000000
00100000
00001000
00010000
00100000
01000000
,
00010000
00100000
00000000
00000000
01000000
00000000
00000000
10000000
00000000
00000000
00010000
00000000
01000000
00000000
00100000
00000000
,
01000000
01000000
00000000
00000000
00000000
00000000
10010000
00000000
,
10000000
00000000
00100000
00000000
00010000
00000000
00000000
00001000
00000000
00000000
00010000
00000000
00000100
00000000
00000010
00000000
,
00000001
00000000
00000010
00000000
00001000
00000000
00000000
00010000
00000000
00000000
00001000
00000000
01000000
00000000
00100000
00000000
,
01000000
00000000
00010000
00010000
00000000
01010000
00000000
01001000
,
00000000
01010000
00000000
01000000
00100000
00010000
00001000
00000000
,
00010000
00001000
00000010
00000100
00010000
00001000
00000100
00000010
,
00010000
00001000
00000010
00000100
00010000
00001000
00000100
00000010
,
00001000
00000001
00000010
00000100
,
00001000
00000000
00000001
00000000
00000100
00000000
00001000
00000000
00010000
00000000
00000000
01000000
00000000
00000000
00100000
00000000
,
00002000
00000000
00000000
00000000
,
00000000
00000000
00000000
00000000
,
00003000
00000000
00000000
00000000
,
00000000
00000000
00000000
00000000
,
00020000
00000000
00030000
00000000
,
00000100
00000000
00001000
00000000
,
00000020
00000000
00000030
00000000
,
00000000
00000000
00000000
00000000
,
00010000
00000000
00000000
00000000
,
00002000
00000000
00013000
00000000
,
00010000
00001000
00010000
00000100
00000000
00001000
00000010
00000100
,
00000000
00000001
00001000
00000001
00000000
00001000
00000100
00001000
,
00000100
00000000
00010000
00001000
00000000
00001000
00000000
00001000
,
00000000
00001000
00000000
00001000
00000000
00001000
00010000
00000000
,
00001000
00001000
00010000
00010000
00001000
00001000
01000000
01000000
,
00010000
00100000
01000000
10000000
00010000
01000000
00100000
10000000
,
01000000
00100000
00001000
00010000
00000100
00000010
00000001
00001000
,
00000010
00000100
00000110
00000000
00000000
00000000
00001001
00000000
,
00000001
00000000
00000100
00000000
00000010
00000000
00000000
00010000
00000000
00000000
00100000
00000000
10000000
00000000
00000000
00000000
,
10000000
00000000
01000000
00000000
00100000
00000000
00000000
00001000
00000000
00000000
00000010
00000000
00000001
00000000
00000000
00000000
,
00000101
00000000
00000100
00000100
00000000
00000110
00000000
00001010
,
00000000
00010010
00000000
00010000
00001000
00000100
00000010
00000010
,
00001000
00000100
00000010
00000100
00001000
00000010
00000100
00001000
,
00010000
00000010
00001000
00000100
00000010
00000100
00001000
00000001
,
00000100
00000010
00000000
00000000
00001000
00000000
00000000
00000100
00000000
00000000
00001000
00000000
00000010
00000000
00010000
00000000
,
00001000
00001000
00000000
00000000
00000000
00000000
00011000
00000000
,
00010000
00000000
01000000
00000000
10000000
00000000
00000000
00100000
00000000
00000000
10000000
00000000
01000000
00000000
00010000
00000000
,
00001000
00000000
00000100
00000000
00000001
00000000
00000000
00000010
00000000
00000000
00000001
00000000
00000100
00000000
00001000
00000000
,
00010000
00000000
01000000
01000000
00000000
01100000
00000000
00110000
,
00000000
00101000
00000000
00001000
00010000
00100000
01000000
01000000
,
00010000
00100000
00001000
00010000
00100000
01000000
00010000
00100000
,
00001000
00010000
00100000
01000000
00010000
00100000
00001000
00000000
,
00010000
01000000
10000000
00100000
,
00100000
00000000
10000000
00000000
01000000
00000000
00010000
00000000
00001000
00000000
00000000
00000100
00000000
00000000
00000001
00000000
,
00000020
00000000
00000000
00000000
,
00000000
00000000
00000000
00000000
,
00000030
00000000
00000000
00000000
,
00000000
00000000
00000000
00000000
;
#NOTES:
     dance-double:
     :
     Hard:
     16:
     :
00000000
00000000
00000000
00000000
,
00000000
00000000
00000000
00000000
,
00000000
00000000
00000000
00000000
,
00000000
00000000
00000000
00000000
,
00000000
00000000
00000000
00000000
,
00000000
00000000
00000000
00000000
,
00000000
00000000
00000000
00000000
,
00000000
00000000
00000000
00000000
,
00000000
00000000
00000000
00000000
,
00022000
00000000
00000000
00033000
,
00001000
00010000
00000100
00001000
00000010
00000100
00000001
00000010
,
00000100
00000000
00001000
00001100
00000000
00010100
00000000
00011000
,
00010000
00001000
00100000
00010000
01000000
00100000
10000000
00010000
,
00100000
00000000
00001000
00011000
00000000
00010100
00000000
00001100
,
00000010
00000001
00001000
00000010
00000100
00000001
00000010
00000100
,
00001100
00000001
00000100
00000010
00001000
00000100
00010000
00001000
,
00011000
00000000
00000000
00110000
00000000
00000000
01100000
00000000
,
20020000
00000000
00000000
30030000
,
10000000
00000000
01000000
00100000
01000000
00000000
10000000
00000000
00000000
00000000
00100000
01000000
00100000
00000000
10000000
00000000
,
00000000
00000000
01000000
00100000
01000000
00000000
10000000
00000000
00000000
00000000
00010000
00000000
01000000
00000000
00100000
00000000
,
00010000
00001000
00010000
00000100
00010000
00001000
00010000
01000000
,
00010000
00001000
00010000
00000010
00001000
00000001
00001000
00000100
,
00010000
00000000
00001000
00010000
00001000
00000000
00100000
00000000
00000000
00000000
00001000
00010000
00001000
00000000
00000010
00000000
,
00000000
00000100
00010000
00001000
00000000
00001000
00010000
00100000
,
01000000
00010000
00100000
01000000
00010000
10000000
00100000
00010000
,
10000000
00100000
00010000
00001000
00000100
00000001
00000010
00000010
,
00000001
00000000
00000100
00000010
00000100
00000000
00000001
00000000
00000000
00000000
00000010
00000100
00000010
00000000
00000001
00000000
,
00000000
00000000
00000100
00000010
00000100
00000000
00000001
00000000
00000000
00000000
00001000
00000000
00000100
00000000
00000010
00000000
,
00001000
00010000
00001000
01000000
00001000
00010000
00001000
00000100
,
00001000
00010000
00001000
00100000
00010000
10000000
00010000
01000000
,
00001000
00000000
00010000
00001000
00010000
00000000
00000010
00000000
00000000
00000000
00010000
00001000
00010000
00000000
01000000
00000000
,
00000000
00100000
00001000
00010000
00000000
00010000
00001000
00000100
,
00000010
00001000
00000100
00000010
00001000
00000001
00000100
00001000
,
00000001
00000100
00001000
00010000
00100000
01000000
00010000
10000000
,
01000000
00000000
00100000
00010000
10000000
00000000
01000000
00010000
00000000
00001000
00010000
00000000
00000100
00000000
00000010
00000000
,
00000001
00000000
00000100
00000010
00001000
00000000
00000001
00000100
00000000
00001000
00010000
00000000
00001000
00000000
01000000
00000000
,
00010000
00000000
00100000
00000000
00010000
00000000
10000000
00000000
00010000
01000000
00100000
00000000
10000000
00000000
00010000
00000000
,
00000000
10000000
01000000
00010000
00001000
01000000
00010000
00100000
,
01000000
00000000
10000000
01000000
00100000
00000000
00010000
01000000
00100000
00000000
00010000
00001000
00100000
00000000
00001000
00010000
,
00000100
00000000
00010000
00001000
00000010
00000000
00001000
00000010
00000001
00000000
00001000
00000010
00000100
00000000
00000001
00000000
,
00001000
00000100
00000000
00000010
00000001
00000000
00000001
00000100
00000000
00001000
00010000
00000000
00100000
00000000
01000000
00000000
,
00010000
00010000
00000000
00000000
00000000
00000000
10010000
00000000
,
10000000
00000000
00010000
00100000
01000000
00000000
10000000
01000000
00000000
00010000
00001000
00000000
00010000
00000000
00000100
00000000
,
00000010
00000000
00000001
00001000
00000010
00000000
00000100
00000001
00000000
00000100
00001000
00000000
00010000
00000000
00100000
00000000
,
01000000
00000000
00010000
00000000
00100000
00000000
01000000
00000000
10000000
00010000
10000000
00000000
00100000
00000000
01000000
00000000
,
00000000
00000000
01000000
00000000
00100000
00000000
00010000
00000000
00001000
00010000
00001000
00000000
00100000
00000000
00001000
00000000
,
00010000
00001000
00010000
00001000
00010000
00000000
00000100
00001000
00000100
00001000
00000100
00000000
00000010
00000001
00000010
00000001
,
00000010
00000000
00000100
00001000
00000100
00001000
00000100
00000000
00010000
00001000
00010000
00001000
00010000
00000000
00001000
00000000
,
00100000
00000000
00010000
00100000
01000000
00000000
10000000
00010000
01000000
00000000
00100000
00000000
10000000
00010000
10000000
00010000
,
00100000
00000000
01000000
00000000
10000000
00000000
01000000
00000000
00010000
00000000
00000000
00001000
00000000
00000000
00000100
00000000
,
00000020
00000000
00000000
00000000
,
00000000
00000000
00000000
00000000
,
00001030
00000000
00000000
00000001
00000000
00000000
00000000
00000010
,
00000000
00000000
00000000
00000100
00000000
00000000
00000000
00000000
,
00020000
00000000
00030000
00000000
,
00002000
00000000
00013000
00000000
,
00010000
00001000
00010000
00001000
00000000
01000000
00010000
00100000
,
00000000
00001000
00010000
00100000
00000000
01000000
00010000
00100000
,
02000000
00000000
00000000
00000000
00000000
00000000
00000000
00000000
03000000
00000000
00000000
00000000
00000000
00000000
10000000
01000000
,
00100000
00000000
00001000
00000000
,
00010000
00000000
00001000
00010000
00001000
00000000
00000100
00000000
00000000
00000000
00001000
00010000
00001000
00000000
00100000
00000000
,
00000000
00000000
00001000
00010000
00001000
00000000
00000010
00000000
00000000
00000000
00001000
00000000
00010000
00000000
01000000
00000000
,
10000000
00100000
10000000
01000000
10000000
00100000
10000000
01000000
,
10000000
00100000
01000000
00010000
00100000
01000000
00010000
00001000
,
00010000
00000000
00000100
00001000
00000100
00000000
00010000
00000000
00001000
00000000
01000000
00010000
01000000
00000000
00001000
00000000
,
00010000
00000000
00000010
00001000
00000010
00000000
00010000
00000000
00001000
00000000
00100000
00010000
00100000
00000000
00001000
00000000
,
00010000
00001000
00010000
00001000
00010000
00001000
00010000
00001000
00020000
00000000
00000000
00000000
00000000
00000000
00030000
00000000
,
00001000
00010000
00012000
00000000
00000000
00000000
00003010
00000000
,
00000001
00000000
00000100
00000010
00001000
00000000
00000001
00000100
00000000
00001000
00010000
00000000
00001000
00000000
01000000
00000000
,
00010000
00000000
10000000
01000000
00100000
00000000
00010000
10000000
00000000
01000000
00010000
00000000
00001000
00000000
00100000
00000000
,
00001000
00000000
00010000
00000000
00100000
00000000
00010000
00000000
00001000
00010000
00001000
00000000
00010000
00000000
00000100
00000000
,
00000000
00000000
00010000
00000000
00001000
00000000
00000100
00000000
00000001
00001000
00000001
00000000
00000010
00000000
00000100
00000000
,
00001000
00000000
00000001
00000100
00000010
00000000
00001000
00000100
00010000
00000000
00001000
00100000
00010000
00000000
01000000
00100000
,
10000000
00000000
00010000
00100000
01000000
00000000
10000000
01000000
00010000
00000000
01000000
00010000
00001000
00000000
00010000
00000000
,
00000100
00001000
00000000
00001000
00000010
00000000
00001000
00000100
00000000
00000010
00000001
00000000
00001000
00000000
00000001
00000000
,
00000100
00000110
00000000
00000000
00000000
00000000
00001001
00000000
,
00000001
00000000
00001000
00000100
00000010
00000000
00000001
00000100
00000000
00001000
00010000
00000000
00001000
00000000
01000000
00000000
,
00100000
00000000
10000000
00010000
00100000
00000000
01000000
10000000
00000000
01000000
00010000
00000000
00001000
00000000
00000010
00000000
,
00000100
00000000
00001000
00000000
00000001
00000000
00000100
00000000
00000001
00001000
00000001
00000000
00000010
00000000
00000100
00000000
,
00000000
00000000
00000100
00000000
00010000
00000000
00001000
00000000
00010000
00001000
00010000
00000000
00000010
00000000
00010000
00000000
,
00001000
00010000
00001000
00010000
00001000
00000000
01000000
00010000
01000000
00010000
01000000
00000000
00100000
10000000
00100000
10000000
,
00100000
00000000
01000000
00010000
01000000
00010000
01000000
00000000
00001000
00010000
00001000
00010000
00001000
00000000
00010000
00000000
,
00000010
00000000
00001000
00000100
00000010
00000000
00000001
00000000
00001000
00000010
00000100
00000000
00000001
00001000
00000001
00001000
,
00000100
00000000
00000010
00000000
00000001
00000000
00000100
00000000
00001000
00000000
00000000
00010000
00000000
00000000
01000000
00000000
,
00200000
00000000
00000000
00000000
,
00000000
00000000
00000000
00000000
,
00300000
00000000
00000000
00000000
,
00000000
00000000
00000000
00000000
;
