
//----- song ID: niou -----//
#TITLE:9th Outburst;
#ARTIST:Zekk;
#BANNER:9th Outburst.png;
#BACKGROUND:9th Outburst-bg.png;
#CDTITLE:./CDTitles/DDR A3.png;
#MUSIC:9th Outburst.ogg;
#SAMPLESTART:14.642;
#SAMPLELENGTH:15;
#DISPLAYBPM:82:163;
#BPMS:0=163,136=81.5,152=163,216=326,216.5=163,216.75=81.5,217=163;
#BGSTAGE:14;
#NOTES:
     dance-single:
     :
     Beginner:
     3:
     :
0000
0000
0000
0000
,
0000
0000
0000
0000
,
0000
0000
0000
0000
,
0000
0000
0000
0000
,
0000
0000
0000
0000
,
0000
0000
0000
0000
,
0001
0000
0000
0000
,
0001
0000
0000
0000
,
0010
0000
0010
0000
,
0010
0000
0000
0000
,
1000
0000
0000
0000
,
1000
0000
0000
0000
,
0001
0000
0000
0000
,
0100
0000
0100
0000
,
0001
0000
0000
0000
,
0001
0000
0000
0000
,
1000
0000
0000
0000
,
0010
0000
0010
0000
,
2000
3000
0000
0000
,
0100
0000
0000
0000
,
0100
0000
0000
0000
,
1000
0000
0000
0000
,
0001
0000
0001
0000
,
0001
0000
0001
0000
,
0001
0000
0000
0000
,
0200
0000
0300
0000
,
0001
0000
0000
0000
,
0001
0000
0000
0000
,
1000
0000
0000
0000
,
2000
0000
3000
0000
,
0100
0000
0000
0000
,
0100
0000
0000
0000
,
0010
0000
0000
0000
,
0100
0000
0000
0000
,
1001
0000
0000
0000
,
0002
0000
0003
0000
,
0200
0000
0300
0000
,
0020
0000
0030
0000
,
1001
0000
0000
0000
,
1000
0000
0000
0000
,
0010
0000
0000
0000
,
0010
0000
0000
0000
,
0001
0000
0000
0000
,
1000
0000
0000
0000
,
0100
0000
0100
0000
,
0200
0000
0300
0000
,
1000
0000
1000
0000
,
1000
0000
0000
0000
,
0001
0000
0001
0000
,
0001
0000
0000
0000
,
0010
0000
0010
0000
,
0010
0000
0000
0000
,
0100
0000
0100
0000
,
0100
0000
0000
0000
,
0220
0000
0000
0330
0000
0000
0000
0000
0000
0000
0000
0000
0000
0000
0000
0000
,
0010
0000
0000
0000
,
0001
0000
0001
0000
,
1000
0000
0000
0000
,
1000
0000
1000
0000
,
0010
0000
0000
0000
,
0100
0000
0000
0000
,
0110
0000
0000
0000
,
0200
0000
0300
0000
,
0002
0000
0003
0000
,
2000
0000
0000
0000
,
3000
0000
0000
0000
,
0001
0000
0000
0000
,
0001
0000
0000
0000
,
0200
0000
0000
0000
,
0020
0000
0000
0000
0000
0000
0000
0330
,
0000
0000
0000
0000
;
#NOTES:
     dance-single:
     :
     Easy:
     7:
     :
0000
0000
0000
0000
,
0000
0000
0000
0000
,
0000
0000
0000
0000
,
0000
0000
0000
0000
,
0000
0000
0000
0000
,
0000
0000
0000
0000
,
1000
1000
1000
0000
,
0001
0001
0001
0000
,
0010
0100
0010
0100
,
0020
0000
0030
0000
,
0001
0010
0100
1000
,
0100
0100
1000
0000
,
1000
0010
0100
0001
,
0100
0100
0002
0003
,
0001
0100
0010
1000
,
0010
0010
1000
0000
,
1000
0100
0010
0001
,
0010
0010
0002
0000
,
2003
3000
0001
0100
,
0010
0010
1000
0000
,
1000
0100
0010
0100
,
0010
0010
0002
0003
,
2000
3000
0020
0030
,
0200
0300
0002
0003
,
2000
3000
0200
0300
,
2000
0000
3000
0000
,
0001
1000
0100
0010
,
0001
1000
0010
0100
,
0001
1000
0100
1000
,
0002
0000
1003
0000
,
1000
0001
0100
0010
,
1000
0001
0020
0030
,
0110
0000
0000
0000
,
1000
0001
1000
0000
0020
0000
0030
0000
,
0110
0000
0200
0000
,
0302
0000
2003
0000
,
3200
0000
2300
0000
,
3002
0000
0203
0300
,
0110
0010
0010
0000
,
1000
1000
1000
0000
,
0001
0001
0001
0000
,
0100
0100
0100
0000
,
0001
0100
0010
0000
,
1000
0100
0010
0000
,
0100
0010
0100
0010
,
0200
0000
0000
0300
,
0010
0000
0001
0000
1000
0001
1000
0000
,
0010
0000
1000
0000
0001
1000
0001
0000
,
0010
0010
0100
0100
,
0010
0100
0020
0030
,
0100
0000
1000
0000
0001
1000
0001
0000
,
0100
0000
0001
0000
1000
0001
1000
0000
,
0002
0003
2000
3000
,
0010
0100
0010
0100
,
0220
0000
0000
0330
0000
0000
0000
0000
1000
0000
0010
0000
1000
0000
0000
0000
,
2000
0000
3000
0000
0001
0010
0001
0000
,
0002
0003
0200
0300
,
0001
0100
0001
0000
1000
0100
1000
0000
,
0100
0001
0010
1000
,
1000
0010
0001
0100
,
2000
0000
3200
0000
,
0320
0000
0032
0000
,
2003
0000
3010
0000
,
0002
0000
0013
0000
,
0020
0000
0000
0000
,
0230
0000
0000
0000
,
0310
0000
0010
0000
,
0100
0000
0100
0000
,
1000
0100
0010
0001
,
1000
0000
0001
0000
0100
0001
0100
0001
,
0000
0000
0000
0000
;
#NOTES:
     dance-single:
     :
     Medium:
     11:
     :
0000
0000
0000
0000
,
0000
0000
0000
0000
,
0000
0000
0000
0000
,
0000
0000
0000
0000
,
0000
0000
0000
0000
,
0000
0000
0000
0000
,
0001
0010
0100
1000
,
0001
0100
0010
1000
,
0001
0000
0000
0010
0000
0000
0001
0000
1000
0000
0000
0010
0000
0000
1000
0000
,
0002
0000
2000
3003
,
0001
0010
0001
0100
0001
0010
0001
0000
,
1000
0010
1000
0100
1000
0010
1000
0000
,
0001
0010
0100
1000
0100
0010
0001
0000
,
1000
0010
0100
0001
0100
0100
0002
0003
,
1000
0100
1000
0010
1000
0100
1000
0000
,
0001
0100
0001
0010
0001
0100
0001
0000
,
1000
0100
0010
0001
0100
0010
1000
0000
,
0001
0000
0001
0000
1000
0000
1000
0000
0001
0000
0000
0100
0000
0000
0010
0000
,
0200
0300
0010
0100
0001
0100
0010
0000
,
1000
0100
0010
0100
1000
0100
0010
0000
,
0001
1000
0010
1000
0001
1000
0100
0000
,
1000
0001
0010
0100
0020
0000
0030
0000
,
0010
0000
0000
0001
0000
0000
0100
0000
0010
0000
0000
1000
0000
0000
0100
0000
,
1000
0000
0000
0010
0000
0000
0100
0000
0001
0000
0000
0010
0000
0000
0100
0000
,
1000
0001
1000
0001
0100
0010
0200
0300
,
0220
0000
0330
0000
,
1000
1010
0001
0101
,
0001
0100
0001
0000
1000
0100
1000
0000
,
0001
0011
1000
1100
,
2000
0000
3002
0000
,
1003
1100
0001
0101
,
1000
1100
2002
3003
,
1000
0100
0010
0001
,
0220
0000
0330
0000
,
2001
0000
0000
3200
,
0320
0000
0000
0032
,
2003
0000
0000
3020
,
0230
0300
0110
0000
,
0100
0010
0100
0010
0100
0010
0100
0000
,
0001
1000
0001
1000
0001
1000
0001
0000
,
1000
0100
0010
0001
0010
0001
0100
0000
,
0001
0000
0100
0000
0010
0000
1000
0000
0010
0000
1000
0200
0000
0300
0000
0000
,
1000
0100
0001
0100
1000
0100
0010
0000
,
0001
0100
1000
0100
0001
0100
0010
0000
,
0101
0000
0000
0001
0000
0000
0001
0000
1100
0000
0000
1000
0000
0000
1000
0000
,
0202
0000
0000
0303
,
0001
0100
1000
0100
0001
0100
1000
0100
,
0001
0010
1000
0010
0001
0010
1000
0010
,
0001
0001
0001
0010
0100
1000
0001
0100
,
0010
0000
1000
0000
0010
0000
0100
0000
0010
0000
0100
0020
0000
0030
0000
0000
,
1000
0010
0001
0010
1000
0010
0001
0010
,
1000
0100
0001
0100
1000
0100
0001
0100
,
1000
0100
1000
0001
0100
0001
1000
0010
,
1000
0001
0010
0001
1000
0001
1000
0000
,
2002
0000
0000
3003
0001
0000
0100
0000
0010
0000
1000
0000
0001
0000
0010
0000
,
0100
1000
0001
0100
0010
1000
0001
1000
,
0001
0001
0001
0010
0001
0100
0010
1000
,
0100
0000
0010
0000
0001
0000
1000
0000
0001
0000
1000
0002
0000
0003
0000
0000
,
1000
0100
0001
0100
1000
0010
0001
0010
,
1000
0100
0001
0100
1000
0010
0001
0010
,
2000
0000
3002
0000
,
0023
0000
0130
0000
,
1000
0000
0100
2000
0000
0000
3001
0010
,
0001
0000
0100
0002
0000
0000
1003
0010
,
2000
0000
0000
0000
0000
0000
3000
0001
,
0100
0010
2000
0000
0000
0000
0000
0000
,
3200
0000
0000
0000
,
0320
0000
0000
0000
,
0031
0010
0100
0010
0100
1000
0010
0100
,
0001
0100
1000
0100
0001
0010
0100
0010
,
0000
0000
0000
0000
;
#NOTES:
     dance-single:
     :
     Hard:
     15:
     :
0000
0000
0000
0000
,
0000
0000
0000
0000
,
0000
0000
0000
0000
,
0000
0000
0000
0000
,
0000
0000
0000
0000
,
0000
0000
0000
0000
,
1000
0100
0010
0001
,
1000
0010
0100
0001
,
0101
0000
0000
0001
0000
0000
0010
0000
1100
0000
0000
1000
0000
0000
0010
0000
,
2002
0000
0000
0000
0000
0000
3003
0000
1000
0010
0100
0001
0100
0000
0000
0000
,
0001
0100
0000
0001
0010
0100
1000
0000
0100
0000
0010
0001
0000
1000
0010
0000
,
1000
0100
0000
1000
0010
0100
0001
0000
0100
0000
0010
1000
0000
0001
0010
0000
,
0100
1000
0000
0010
1000
0001
0100
0000
0001
0000
0100
0010
0000
1000
0001
0000
,
0100
0001
0000
0010
0001
1000
0010
0000
0200
0300
0200
0300
0002
0000
0003
0000
,
1000
0100
0000
1000
0010
0100
0001
0000
0100
0000
0010
1000
0000
0001
0010
0000
,
0001
0100
0000
0001
0010
0100
1000
0000
0100
0000
0010
0001
0000
1000
0010
0000
,
0100
0001
0000
0010
0001
1000
0100
0000
1000
0000
0100
0010
0000
0001
1000
0000
,
0001
0100
0010
1000
0100
0010
0001
0000
0011
0000
0000
0110
0000
0000
1100
0000
,
2002
0000
3003
0000
0001
0000
0100
0000
0001
0000
1000
0100
0000
0010
0001
0000
,
1000
0001
0000
1000
0010
0001
0010
0000
1000
0000
0100
1000
0000
0001
0100
0000
,
0001
1000
0000
0001
0010
1000
0010
0000
0001
0000
0100
0001
0000
1000
0100
0000
,
0010
0100
0000
0010
0100
0010
0001
0000
2002
0000
0000
0000
3003
0000
0000
0000
,
1000
0000
0000
0100
0000
0000
0110
0000
0001
0000
0000
0100
0000
0000
0110
0000
,
1000
0000
0000
0010
0000
0000
0110
0000
0001
0000
0000
0010
0000
0000
0110
0000
,
0100
0000
0100
0000
0010
0000
0010
0000
0001
1000
0001
1000
0010
0100
0010
0100
,
0020
0000
0000
0000
0030
0000
1000
0001
1000
0001
0000
0001
0000
0000
1000
0000
,
0001
0100
0010
1000
0100
0010
0100
1000
,
0001
0010
0100
1000
0010
0100
0010
1000
,
0001
0010
1000
0010
0001
0100
1000
0100
,
0001
0100
0010
1000
0001
0100
0010
1000
0002
0000
0023
0000
0230
0000
2300
0000
,
3001
0100
0010
0010
1000
0100
0010
0010
,
0001
0100
0010
0100
0020
0030
1000
0100
,
0020
0230
2300
3002
,
1003
0000
0001
0100
1000
0000
0100
0000
0020
0000
0000
0000
0030
0000
0000
0000
,
0110
0100
0001
0020
0000
0030
0001
0002
0000
0003
0010
0020
0000
0030
0100
0200
,
0000
1300
0010
0200
0000
0300
0001
0002
0000
0003
0100
0200
0000
0300
0010
0020
,
0000
0030
1000
2010
0000
3000
0001
0012
0000
0003
1000
2100
0000
3000
0001
0102
,
0000
0000
0003
0000
1000
0000
2001
0000
0000
0000
3000
0000
0001
0000
1002
0000
0200
0000
0003
0000
0000
0000
0300
0000
0010
0100
0000
0010
0000
0000
1000
0000
,
0001
0000
0010
0000
1000
0000
0010
0100
0000
0100
0000
0100
0010
0000
0001
0000
,
1000
0000
0010
0000
0001
0000
0010
0100
0000
0100
0000
0100
0010
0000
1000
0000
,
0001
0000
0001
0000
0001
0000
0001
0100
0000
0100
0000
0100
0001
0000
1000
0000
,
0001
0000
1000
0100
0000
0010
0001
0000
0100
0000
0010
0200
0000
0300
0000
0000
,
0001
0000
0100
0000
1000
0000
0100
0010
0000
0010
0000
0010
0100
0000
0001
0000
,
1000
0000
0100
0000
0001
0000
0100
0010
0000
0010
0000
0010
0100
0000
1000
0000
,
0011
0000
0000
0001
0000
0000
0100
0000
1010
0000
0000
1000
0000
0000
0100
0000
,
1000
0100
0010
0001
1000
0010
0100
0001
1000
0100
0001
0200
0000
0300
0000
0000
,
1000
0000
0100
0000
0010
0000
0100
0001
0000
0001
0000
0001
0100
0000
1000
0000
,
0001
0000
0100
0000
0010
0000
0100
1000
0000
1000
0000
1000
0100
0000
0001
0000
,
1000
0000
1000
0000
1000
0000
0100
0001
0000
0001
0000
0001
0100
0000
1000
0000
,
0001
0100
0010
1000
0100
0010
0001
0000
0010
0100
0010
0200
0000
0300
0000
0000
,
1000
0000
0010
0000
0100
0000
1000
0100
0000
0010
0000
1000
0100
0000
0010
0000
,
0001
0000
0010
0000
0100
0000
0001
0100
0000
0010
0000
0001
0100
0000
0010
0000
,
1000
0000
1000
0000
0010
0100
0000
0001
0000
0001
0000
0010
0100
0000
1000
0000
,
0010
1000
0010
0000
0100
0010
0000
0100
0001
0000
0100
0001
2000
0000
3000
0000
,
2002
0000
0000
3003
0001
0000
0010
1000
0000
0001
0000
0100
1000
0000
0001
0000
,
0100
0000
0010
0000
1000
0000
0010
0001
0000
1000
0000
0100
0001
0000
1000
0000
,
0001
0000
0001
0000
0001
0000
0010
0001
0000
0100
0000
0010
1000
0000
0100
0000
,
1000
0010
0100
0001
0010
0100
1000
0000
0001
0100
0010
2000
0000
3000
0000
0000
,
0001
0000
0100
0000
0001
0000
0100
0010
0000
0100
0000
1000
0100
0000
0010
0000
,
1000
0000
0100
0000
1000
0000
0100
0010
0000
0100
0000
0001
0100
1000
0100
0000
,
1000
0100
1000
0001
0100
0010
0100
0001
,
1000
0100
0010
0001
0100
0010
0100
0000
0001
0010
0000
0100
0000
0000
1000
0000
,
0020
0000
0130
0002
0000
0000
0013
0100
,
2000
0000
3100
0020
0000
0000
0130
0010
,
0002
0000
0000
0000
0000
0000
0000
0013
,
0001
1000
0020
0000
0000
0000
0000
0030
,
2000
0100
0000
0001
0000
0100
0000
3001
,
0002
0100
0000
1000
0000
0100
0000
1003
,
0001
0100
0010
1000
0001
0010
0100
1000
0001
1000
0010
0100
0001
1000
0100
0010
,
0001
0100
0001
1000
0100
1000
0001
0010
0001
1000
0010
1000
0002
0000
1003
0000
,
0000
0000
0000
0000
;
#NOTES:
     dance-double:
     :
     Easy:
     7:
     :
00000000
00000000
00000000
00000000
,
00000000
00000000
00000000
00000000
,
00000000
00000000
00000000
00000000
,
00000000
00000000
00000000
00000000
,
00000000
00000000
00000000
00000000
,
00000000
00000000
00000000
00000000
,
00001000
00000000
00001000
00000000
,
00010000
00000000
00010000
00000000
,
00001000
00000010
00000001
00000010
,
00002000
00000000
00003000
00000000
,
00010000
00001000
01000000
00100000
,
01000000
01000000
00100000
00000000
,
10000000
01000000
00010000
00010000
,
01000000
01000000
00020000
00030000
,
00001000
00010000
00000100
00000010
,
00000100
00000100
00000010
00000000
,
00000001
00000100
00001000
00010000
,
00001000
00001000
00020000
00000000
,
00032000
00003000
00010000
00001000
,
00000010
00001000
00010000
00000000
,
00001000
00010000
01000000
00000000
,
01000000
00010000
00002000
00003000
,
00020000
00030000
00000200
00000300
,
00000020
00000030
00000002
00000003
,
00002000
00003000
00000020
00000030
,
00000200
00000000
00000300
00000000
,
00000001
00000100
00001000
00000000
,
00000100
00001000
00010000
00000000
,
00001000
00010000
00100000
00000000
,
00200000
00000000
10300000
00000000
,
10000000
01000000
00010000
00000000
,
01000000
00010000
00001000
00020000
,
00031000
00000000
00000000
00000000
,
00000100
00000100
00000200
00000300
,
00000110
00000000
00000000
00000000
00000002
00000000
00000000
00000003
,
00000200
00000000
00000000
00000300
00000020
00000000
00000000
00000030
,
00002000
00000000
00000000
00003000
00020000
00000000
00000000
00030000
,
02000000
00000000
00000000
03000000
00200000
00000000
00300000
00000000
,
01100000
00000000
00100000
00000000
,
10000000
00000000
10000000
00000000
,
01000000
00000000
01000000
00000000
,
00100000
00000000
00100000
00000000
,
00010000
00100000
00010000
00000000
,
00100000
00001000
00100000
00000000
,
00001000
00010000
00001000
00000100
,
00000020
00000000
00000000
00000030
,
00001000
00000000
00000001
00000000
00001000
00000010
00001000
00000000
,
00000010
00000000
00010000
00000000
00001000
00010000
00001000
00000000
,
00020000
00030000
00002000
00003000
,
01000000
00010000
02000000
03000000
,
00010000
00000000
10000000
00000000
00010000
00100000
00010000
00000000
,
00100000
00000000
00001000
00000000
00010000
00001000
00010000
00000000
,
00002000
00003000
00020000
00030000
,
00001000
00001000
00000010
00000010
,
00000220
00000000
00000000
00000330
00000000
00000000
00000000
00000000
00000001
00000000
00001000
00000000
00000001
00000000
00000000
00000000
,
00001000
00000000
00000010
00000000
00010000
00001000
00010000
00000000
,
00001000
00010000
00100000
01000000
,
00200000
00300000
20000000
30000000
,
10000000
01000000
00010000
00000000
,
00001000
00000100
00000001
00000000
,
00000200
00000000
00000302
00000000
,
00002003
00000000
00003200
00000000
,
00020300
00000000
00031000
00000000
,
00002000
00000000
01003000
00000000
,
02000000
00000000
00000000
00000000
,
03020000
00000000
00000000
00000000
,
10030000
00000000
00000000
00000000
,
10000000
00000000
00000000
00000000
,
10000000
00100000
00010000
00001000
,
00010000
00000000
00001000
00000000
00000010
00000000
00000002
00000003
,
00000000
00000000
00000000
00000000
;
#NOTES:
     dance-double:
     :
     Medium:
     11:
     :
00000000
00000000
00000000
00000000
,
00000000
00000000
00000000
00000000
,
00000000
00000000
00000000
00000000
,
00000000
00000000
00000000
00000000
,
00000000
00000000
00000000
00000000
,
00000000
00000000
00000000
00000000
,
00001000
00010000
00100000
00010000
,
00001000
00010000
01000000
10000000
,
00010000
10000000
00100000
01000000
,
00200000
00000000
20000000
30300000
,
00100000
10000000
01000000
00010000
01000000
00010000
00001000
00000000
,
00010000
00001000
00000100
00001000
00000100
00000001
00000010
00000000
,
00000001
00000010
00001000
00000010
00001000
00010000
00001000
00000000
,
00010000
00001000
00100000
00010000
01000000
01000000
00020000
00030000
,
10000000
01000000
00100000
00010000
01000000
00100000
00010000
00000000
,
00100000
00010000
00001000
00010000
00100000
00010000
00001000
00000000
,
00010000
00001000
00000010
00001000
00010000
00001000
00000010
00000000
,
00001000
00000000
00000010
00000000
00001000
00000000
00000010
00000000
00000001
00000000
00000000
00001000
00000000
00000000
00000001
00000000
,
00002000
00003000
00000100
00010000
00001000
00100000
00010000
00000000
,
10000000
01000000
00010000
01000000
10000000
01000000
00010000
00000000
,
01000000
00010000
00001000
00000100
00001000
00000100
00000001
00000000
,
00000100
00000001
00001000
00000100
00020000
00000000
00030000
00000000
,
00001000
00000000
00000000
00010000
00000000
00000000
00000010
00000000
00010000
00000000
00000000
00001000
00000000
00000000
00100000
00000000
,
00001000
00000000
00000000
00010000
00000000
00000000
00000100
00000000
00010000
00000000
00000000
00001000
00000000
00000000
01000000
00000000
,
00001000
00010000
00001000
00000000
01000000
00010000
02000000
03000000
,
00200000
00000000
00300000
00000000
,
00100000
10000000
01000000
00010000
,
00001000
00010000
00000100
00000000
00000010
00000000
00000110
00000000
,
00000100
00000010
00000001
00000100
,
00002000
00000000
00023000
00000000
,
00031000
00010000
00100000
00010000
,
00100000
10000000
02000000
03000000
,
11000000
01000000
01010000
01000000
,
02200000
00000000
03300000
00000000
,
20010000
00000000
00000000
32000000
,
03200000
00000000
00000000
00302000
,
00023000
00000000
00000000
00032000
,
00023000
00030000
00011000
00000000
,
00010000
00001000
00010000
00000100
00001000
00000100
00000010
00000000
,
00000100
00000010
00000100
00000010
00000001
00000100
00000010
00000000
,
00000100
00000010
00001000
00000010
00010000
00001000
00010000
00000000
,
00001000
00000000
00010000
00000000
00001000
00000000
01000000
00000000
00010000
00000000
10000000
00020000
00000000
00030000
00000000
00000000
,
10000000
00100000
01000000
00010000
10000000
00100000
00010000
00000000
,
00100000
00010000
00001000
00000010
00001000
00000010
00000001
00000000
,
00000010
00000000
00000000
00000001
00000000
00000000
00000100
00000000
00000010
00000000
00000000
00001000
00000000
00000000
00000010
00000000
,
00000200
00000000
00000000
00000300
,
00000001
00000100
00001000
00000100
00000001
00000010
00001000
00000000
,
00000010
00001000
00010000
00100000
00010000
00100000
10000000
00000000
,
00010000
00010000
00010000
10000000
01000000
00010000
00001000
00000000
,
00010000
00000000
00001000
00000000
00010000
00000000
00000010
00000000
00001000
00000000
00000010
00000200
00000000
00000300
00000000
00000000
,
00000001
00000100
00001000
00010000
00001000
00010000
00100000
00000000
,
00010000
00100000
10000000
01000000
00010000
01000000
00010000
00000000
,
01000000
00010000
00001000
00010000
00001000
00000100
00001000
00010000
,
00001000
00000000
00010000
00001000
00100000
00010000
10000000
00000000
,
20020000
00000000
00000000
30030000
10000000
00000000
01000000
00000000
00010000
00000000
01000000
00000000
10000000
00000000
00100000
00000000
,
01000000
00010000
10000000
01000000
00010000
00001000
00010000
00000100
,
00001000
00001000
00001000
00000100
00001000
00000010
00000100
00000001
,
00000100
00000000
00000001
00000000
00000010
00000000
00001000
00000000
00010000
00000000
00001000
00020000
00000000
00030000
00000000
00000000
,
00001000
00010000
00100000
00010000
00001000
00010000
00100000
00010000
,
00001000
00010000
01000000
00010000
00001000
00010000
01000000
10000000
,
00020000
00000000
02030000
00000000
,
03200000
00000000
10300000
00000000
,
10000000
00000000
01000000
20000000
00000000
00000000
30010000
01000000
,
00010000
00000000
01000000
00002000
00000000
00000000
00013000
00001000
,
00000200
00000000
00000000
00000000
00000000
00000000
00000300
00000010
,
00000100
00000001
00000020
00000000
00000000
00000000
00000000
00000000
,
00000032
00000000
00000000
00000000
,
00002003
00000000
00000000
00000000
,
00003001
00000100
00001000
00010000
00001000
00000010
00001000
00010000
,
00001000
00010000
01000000
00010000
00001000
00010000
00100000
10000000
,
00000000
00000000
00000000
00000000
;
#NOTES:
     dance-double:
     :
     Hard:
     15:
     :
00000000
00000000
00000000
00000000
,
00000000
00000000
00000000
00000000
,
00000000
00000000
00000000
00000000
,
00000000
00000000
00000000
00000000
,
00000000
00000000
00000000
00000000
,
00000000
00000000
00000000
00000000
,
00001000
00001000
00010000
00010000
,
00100000
00100000
10000000
10000000
,
10000000
00000000
00000000
01000000
00000000
00000000
00010000
00000000
00001000
00000000
00000000
00000010
00000000
00000000
00000001
00000000
,
00000020
00000030
00000000
00000000
,
00000001
00000010
00000000
00000001
00000100
00000010
00001000
00000000
00000010
00000000
00010000
00001000
00000000
01000000
00010000
00000000
,
10000000
00100000
00000000
10000000
01000000
00100000
00010000
00000000
00100000
00000000
00001000
00010000
00000000
00000100
00001000
00000000
,
00000001
00000100
00000000
00000001
00000010
00000100
00001000
00000000
00000100
00000000
00010000
00001000
00000000
00100000
00010000
00000000
,
10000000
01000000
00000000
10000000
00100000
01000000
00010000
00000000
02000000
03000000
02000000
03000000
00020000
00000000
00030000
00000000
,
10000000
00100000
00000000
10000000
01000000
00100000
00010000
00000000
00100000
00000000
00001000
00010000
00000000
00000010
00001000
00000000
,
00000001
00000010
00000000
00000001
00000100
00000010
00001000
00000000
00000010
00000000
00010000
00001000
00000000
00100000
00010000
00000000
,
10000000
00100000
00000000
10000000
00100000
01000000
00010000
00000000
01000000
00000000
00001000
00010000
00000000
00000100
00001000
00000000
,
00000001
00000100
00000010
00000000
00000100
00000010
00001000
00000000
00001010
00000000
00000000
00011000
00000000
00000000
01010000
00000000
,
20020000
00000000
30030000
00000000
10000000
00000000
01000000
00000000
10000000
00000000
01000000
00100000
00000000
00010000
00100000
00000000
,
00001000
00010000
00000000
00001000
00010000
00000100
00001000
00000000
00000100
00000000
00000010
00000001
00000000
00001000
00000010
00000000
,
00010000
00001000
00000000
00010000
00001000
01000000
00010000
00000000
01000000
00000000
00100000
10000000
00000000
00010000
00100000
00000000
,
00001000
00010000
00000000
00000010
00001000
00000001
00000100
00000000
00000202
00000000
00000000
00000000
00000303
00000000
00000000
00000000
,
00000001
00000000
00000000
00000100
00000000
00000000
00001000
00000000
00010000
00000000
00000000
00100000
00000000
00000000
10000000
00000000
,
10000000
00000000
00000000
01000000
00000000
00000000
00010000
00000000
00001000
00000000
00000000
00000010
00000000
00000000
00000001
00000000
,
00000100
00000000
00001000
00000000
00010000
00000000
01000000
00000000
00100000
01000000
00100000
01000000
10000000
00010000
10000000
00010000
,
20000000
30000000
02000000
03000000
,
10000000
01000000
00010000
01000000
10000000
00100000
01000000
00010000
,
01000000
00001000
00010000
00000010
00001000
00000100
00000010
00000001
,
00001000
00000010
00000001
00000010
00001000
00000010
00010000
00001000
,
00010000
00001000
00010000
00000100
00010000
00001000
00010000
00000100
00020000
00000000
00032000
00000000
00023000
00000000
02030000
00000000
,
03010000
01000000
10000000
00100000
00010000
00001000
00010000
01000000
,
00010000
00001000
00000100
00000010
00000200
00000300
00000010
00001000
,
00000200
00000320
00000032
00000203
,
00001300
00000000
00010000
00001000
00010000
00000000
00001000
00000000
00020000
00000000
00000000
00000000
00030000
00000000
00000000
00000000
,
00011000
00001000
00010000
02000000
00000000
03000000
00100000
02000000
00000000
03000000
10000000
02000000
00000000
03000000
00010000
02000000
,
00000000
03010000
00001000
00000200
00000000
00000300
00000010
00000200
00000000
00000300
00000001
00000200
00000000
00000300
00001000
00000200
,
00000000
00000300
00001000
00002000
00000000
00003000
00010000
00020000
00000000
00030000
00100000
00200000
00000000
00300000
01000000
02000000
,
00000000
00000000
03000000
00000000
00010000
00000000
00020000
00000000
00000000
00000000
00030000
00000000
10000000
00000000
20000000
00000000
00020000
00000000
30000000
00000000
00000000
00000000
00030000
00000000
10000000
00010000
00000000
00010000
00000000
00000000
10000000
00000000
,
01000000
00000000
10000000
00000000
00100000
00000000
00010000
00001000
00000000
00001000
00000000
00001000
00010000
00000000
00001000
00000000
,
00000100
00000000
00000001
00000000
00001000
00000000
00000001
00001000
00000000
00001000
00000000
00001000
00000001
00000000
00000010
00000000
,
00001000
00000000
00010000
00000000
00001000
00000000
00010000
00001000
00000000
00001000
00000000
00001000
00010000
00000000
00001000
00000000
,
00010000
00000000
01000000
00000000
10000000
00000000
00100000
00000000
01000000
00000000
00100000
02000000
00000000
03000000
00000000
00000000
,
00100000
00000000
10000000
00000000
01000000
00000000
00010000
00001000
00000000
00001000
00000000
00001000
00010000
00000000
00001000
00000000
,
00000010
00000000
00000001
00000000
00001000
00000000
00000001
00001000
00000000
00001000
00000000
00001000
00000001
00000000
00000100
00000000
,
00000001
00000000
00000000
00000100
00000000
00000000
00001000
00000000
00010000
00000000
00000000
00100000
00000000
00000000
10000000
00000000
,
00100000
10000000
00100000
00000000
01000000
00010000
01000000
00000000
00001000
00010000
00001000
00000000
00011000
00000000
00000000
00000000
,
00001000
00000000
00010000
00000000
00000100
00000000
00000010
00000100
00000000
00000010
00000000
00000100
00001000
00000000
00000001
00000000
,
00000100
00000000
00001000
00000000
00010000
00000000
00001000
00010000
00000000
00100000
00000000
00010000
00001000
00000000
00010000
00000000
,
00001000
00000000
00010000
00000000
01000000
00000000
00100000
01000000
00000000
00100000
00000000
01000000
10000000
00000000
00010000
00000000
,
10000000
01000000
00100000
00000000
01000000
00100000
00010000
00000000
00100000
00010000
00100000
00020000
00000000
00030000
00000000
00000000
,
10000000
00000000
00100000
00000000
01000000
00000000
00010000
01000000
00000000
00100000
00000000
01000000
00010000
00000000
01000000
00000000
,
00001000
00000000
00010000
00000000
00000010
00000000
00001000
00000010
00000000
00000100
00000000
00000010
00000100
00000000
00000001
00000000
,
00000010
00000000
00000100
00000000
00000010
00000100
00000000
00001000
00000000
00000001
00000000
00000100
00000010
00000000
00000100
00000000
,
00000010
00001000
00000010
00000000
00010000
00001000
00000000
01000000
00010000
00000000
10000000
00100000
20000000
00000000
30000000
00000000
,
20020000
00000000
00000000
30030000
00010000
00000000
10000000
01000000
00000000
00100000
00000000
00010000
01000000
00000000
00001000
00000000
,
00010000
00000000
00000010
00000000
00001000
00000000
00000001
00000100
00000000
00000010
00000000
00001000
00000100
00000000
00000010
00000000
,
00000001
00000000
00001000
00000000
00000001
00000000
00000100
00000010
00000000
00000100
00000000
00000010
00001000
00000000
00000100
00000000
,
00010000
00001000
00100000
00000000
00001000
00010000
00000100
00000000
00010000
00001000
00010000
00002000
00000000
00003000
00000000
00000000
,
00010000
00000000
00001000
00000000
00010000
00000000
00001000
00010000
00000000
01000000
00000000
10000000
01000000
00000000
10000000
00000000
,
00100000
00000000
00010000
00000000
00001000
00000000
00010000
00001000
00000000
00000100
00000000
00000001
00000100
00000001
00000100
00000000
,
00000001
00000100
00001000
00010000
00001000
00010000
01000000
10000000
,
01000000
00100000
00010000
00100000
00001000
00010000
00000100
00001000
00000100
00000010
00000000
00000001
00000000
00000000
00000100
00000000
,
00000020
00000000
00000130
00000020
00000000
00000000
00001030
00000010
,
00020000
00000000
00031000
00020000
00000000
00000000
00031000
00010000
,
02000000
00000000
00000000
00000000
00000000
00000000
00000000
13000000
,
01000000
00100000
00020000
00000000
00000000
00000000
00000000
00030000
,
20000000
00000000
00000000
30200000
00000000
00000000
01300000
00100000
,
00020000
00000000
00000000
00032000
00000000
00000000
00013000
00001000
,
00010000
00001000
00010000
00000000
00000010
00001000
00000010
00000000
00000100
00000010
00000100
00000000
00000001
00000100
00000001
00000000
,
00000100
00000010
00001000
00000000
00000010
00010000
00001000
00000000
00010000
00001000
00010000
00001000
00020000
00000000
00030000
00000000
,
00000000
00000000
00000000
00000000
;
