
//----- song ID: y3s3 -----//
#TITLE:3y3s;
#ARTIST:青龍;
#ARTISTTRANSLIT:Seiryu;
#BANNER:3y3s.png;
#BACKGROUND:3y3s-bg.png;
#CDTITLE:./CDTitles/bm IIDX 16 EMPRESS.png;
#MUSIC:3y3s.ogg;
#SAMPLESTART:98;
#SAMPLELENGTH:15;
#BPMS:0=191;
#NOTES:
     dance-single:
     :
     Beginner:
     4:
     :
0000
0000
0000
0000
,
0000
0000
0000
0000
,
0000
0000
0000
0000
,
0001
0000
0000
0000
,
0000
0000
0000
0000
,
0001
0000
0000
0000
,
0000
0000
0000
0000
,
1000
0000
0000
0000
,
0000
0000
0000
0000
,
1000
0000
0000
0000
,
0000
0000
0000
0000
,
0000
0000
0000
0000
,
0010
0000
0000
0000
,
0010
0000
0000
0000
,
0100
0000
0000
0000
,
0100
0000
0000
0000
,
0001
0000
0000
0000
,
0001
0000
0000
0000
,
1000
0000
0000
0000
,
1000
0000
0000
0000
,
0001
0000
0000
0000
,
0010
0000
0000
0000
,
0100
0000
0000
0000
,
1000
0000
0000
0000
,
0100
0000
0000
0000
,
0010
0000
0000
0000
,
0001
0000
0000
0000
,
1001
0000
0000
0000
,
0010
0000
0000
0000
,
0010
0000
0000
0000
,
0010
0000
0000
0000
,
0010
0000
0000
0000
,
1000
0000
0000
0000
,
1000
0000
0000
0000
,
0001
0000
0000
0000
,
0001
0000
0000
0000
,
1000
0000
1000
0000
,
1000
0000
0000
0000
,
0001
0000
0001
0000
,
0001
0000
0000
0000
,
0100
0000
0100
0000
,
0100
0000
0000
0000
,
0010
0000
0010
0000
,
0010
0000
0000
0000
,
1000
0000
1000
0000
,
0001
0000
0000
0000
,
0001
0000
0001
0000
,
0100
0000
0000
0000
,
0100
0000
0000
0000
,
0100
0000
0000
0000
,
0100
0000
0000
0000
,
0001
0000
0010
0000
,
0100
0000
1000
0000
,
0002
0000
0000
0000
,
0003
0000
0000
0000
,
0000
0000
0000
0000
,
1000
0000
0000
0000
,
1000
0000
0000
0000
,
0010
0000
0000
0000
,
0010
0000
0000
0000
,
0100
0000
0000
0000
,
0100
0000
0000
0000
,
0001
0000
0000
0000
,
0001
0000
0000
0000
,
1000
0000
0000
0000
,
0010
0000
0000
0000
,
0100
0000
0000
0000
,
0001
0000
0000
0000
,
0010
0000
0000
0000
,
0100
0000
0000
0000
,
1000
0000
0000
0000
,
0001
0000
0000
0000
,
0001
0000
0000
0000
,
0001
0000
0000
0000
,
0001
0000
0000
0000
,
0002
0000
0000
0000
,
0003
0000
0000
0000
,
0000
0000
0000
0000
,
1000
0000
0001
0000
,
0001
0000
0000
0000
,
0100
0000
0010
0000
,
0010
0000
0000
0000
,
1000
0000
0001
0000
,
0001
0000
0000
0000
,
0100
0000
0010
0000
,
0010
0000
0000
0000
,
1000
0000
1000
0000
,
0001
0000
0001
0000
,
0100
0000
0100
0000
,
0010
0000
0010
0000
,
0100
0000
0000
0000
,
0100
0000
0000
0000
,
0001
0000
1000
0000
,
1001
0000
0000
0000
,
0010
0000
0000
0000
,
0000
0000
0000
0000
;
#NOTES:
     dance-single:
     :
     Easy:
     9:
     :
0000
0000
0000
0000
,
0000
0000
0000
0000
,
0000
0000
0000
0000
,
0001
0000
0001
0000
,
1000
0010
0100
0001
,
0010
0000
0010
0000
,
0001
0100
0010
1000
,
0100
0000
0100
0000
,
0100
1000
0001
0100
,
0010
0000
1000
0000
,
0001
0000
0000
0000
0000
0100
0010
0200
,
0000
0000
0000
0300
,
0001
0000
0010
0000
0100
0000
1000
0001
,
1000
0000
0010
0000
0100
0000
0001
0010
,
0001
0000
1000
0000
0001
0000
0100
0010
,
0100
0000
0001
0000
1000
0000
0100
1000
,
0100
0000
0100
0000
0010
0000
0010
0001
,
0010
0000
0010
0000
0100
0000
0100
1000
,
0100
0000
0100
0000
0010
0000
0010
0001
,
2000
0000
0000
3000
,
0001
0000
1000
0000
0010
0000
0100
0001
,
1000
0000
0001
0000
0010
0000
0100
1000
,
0100
0000
0010
0000
0001
0000
0100
0001
,
1000
0000
0100
0000
0010
0000
0001
1000
,
0001
0000
0100
0000
0001
0000
1000
0100
,
0010
0000
0001
0000
1000
0000
0001
0100
,
0010
0000
1000
0000
0001
0000
1000
0100
,
0020
0000
0000
0030
,
0001
0000
0000
0001
0000
0000
0001
0000
,
1000
0000
0000
1000
0000
0000
1000
0000
,
0010
0000
0000
0010
0000
0000
0010
0000
,
0100
0000
0000
0100
0000
0000
0100
0000
,
0001
0011
1000
1010
,
0001
0101
1000
1100
,
0001
0101
1001
0011
,
0220
0000
0330
0000
,
1000
0001
0100
0010
,
1000
0000
0001
0000
0001
0010
0100
0000
,
1000
0001
0100
0010
,
1000
0001
0000
0001
0000
0001
0100
0000
,
0010
1000
0001
0010
,
0001
0000
1000
0000
1000
0100
0010
0000
,
0001
1000
0010
0100
,
0010
1000
0000
1000
0000
1000
0001
0000
,
0100
0001
1000
0100
,
0010
0000
0001
0000
0001
0100
0010
0000
,
1000
0001
0100
0010
,
0100
0000
0001
0000
1000
0100
0010
0000
,
0001
0000
0000
0001
0000
0000
0001
0000
,
1000
0000
0000
1000
0000
0000
1000
0000
,
0010
0010
0010
0010
,
1000
0100
1000
0000
0010
0000
0100
0000
,
0001
0010
0001
0000
0100
0000
0010
0000
,
0000
0000
0000
0000
,
0000
0000
0000
0000
,
0000
0000
0000
0000
,
1000
0000
1000
0000
,
0002
0023
0230
2300
,
3001
0000
0001
0000
,
2000
0000
3200
0000
0320
0000
0031
0001
,
0000
0000
0100
0000
,
0002
0000
0023
0000
0230
0000
1300
1000
,
0000
0000
0000
0001
0001
0000
0000
0100
,
0100
0000
0000
0000
,
0001
0001
1000
1000
,
0002
0023
0230
2300
,
3010
0010
0100
0100
,
0002
0000
0023
0000
0230
0000
1300
0001
,
1000
0010
0100
0001
,
2000
0000
3200
0000
0320
0000
0031
0001
,
0000
0000
0000
1000
1000
0000
0000
0010
,
0010
0000
0000
0000
,
1000
1000
0001
0001
,
1000
1000
0001
0001
,
1000
0010
0100
0100
,
0001
0000
0001
0000
1000
0001
1000
0002
,
0000
0000
0000
0003
,
0000
0000
0000
0000
,
1000
0001
0100
0010
,
1000
1100
0001
0101
,
1000
0010
0100
0001
,
1000
1100
0001
0101
,
1000
0010
0001
0010
,
1000
1100
0001
0101
,
1000
0100
0010
0001
,
0200
0000
0000
0300
,
0001
0010
1000
0010
,
0012
1003
2010
3001
,
0001
0100
1000
0100
,
0102
1003
2100
3001
,
1000
0000
0001
0000
,
0100
0000
0010
0000
,
1000
0001
0100
0010
,
1001
0000
0000
0000
0000
0100
0010
0200
,
0300
0000
0000
0000
,
0000
0000
0000
0000
;
#NOTES:
     dance-single:
     :
     Medium:
     14:
     :
0000
0000
0000
0000
,
0000
0000
0000
0000
,
0000
0000
0000
0000
,
0001
0001
1000
1000
,
0020
0230
0302
2003
,
3010
0010
0100
0100
,
0002
0000
0023
0000
0230
0000
1300
0001
,
0100
0100
0010
0010
,
2000
0000
3200
0000
0320
0000
0031
0001
,
0000
0000
0000
0100
0100
0000
0000
0010
,
0010
0000
0000
0000
0000
1000
0001
0200
,
0000
0000
0000
0300
,
0001
0010
0001
0010
0100
1000
0001
0100
,
0010
1000
0010
1000
0001
0010
0001
1000
,
0010
0100
0010
0100
0001
1000
0100
0010
,
0001
1000
0001
1000
0010
0100
0001
0010
,
0001
1000
0001
1000
0010
0001
0010
1000
,
0100
0010
0100
0010
1000
0010
0001
0100
,
0010
1000
0010
1000
0001
0100
1000
0100
,
0020
0100
0100
0130
,
0001
0100
0001
1000
0100
1000
0010
1000
,
0001
0010
0001
1000
0100
1000
0010
1000
,
0001
0100
0001
1000
0100
1000
0010
1000
,
0001
0010
0001
1000
0100
1000
0010
1000
,
0001
0100
1000
0100
0001
0010
0100
1000
,
0010
0001
0010
0100
0001
1000
0100
1000
,
0010
0001
0010
1000
0100
0001
0100
1000
,
0020
0100
0100
0130
,
0001
0010
0000
0001
0010
0000
0001
0010
0000
0001
0010
0000
0100
0000
1000
0000
,
0001
0100
0000
0001
0100
0000
0001
0100
0000
0001
0100
0000
0010
0000
1000
0000
,
0001
0010
0000
0001
0010
0000
0100
1000
0000
0100
1000
0000
0001
0000
0100
0000
,
0010
1000
0000
0010
1000
0000
0001
0100
0000
0001
0100
0000
0001
0000
0010
0000
,
0100
1000
0100
0000
1000
0000
0000
0000
0001
0100
0001
0000
0100
0000
0000
0000
,
0001
0010
0001
0000
0010
0000
0000
0000
0100
1000
0100
0000
1000
0000
0000
0000
,
1000
0100
1000
0010
1000
0100
1000
0010
,
0200
0000
0000
0000
0000
0000
0000
0000
0310
0000
1000
0000
0001
1000
0001
1000
,
0001
0010
0100
1000
0001
0010
1000
0010
,
0001
1000
0010
0100
0100
0001
1000
0000
,
0100
1000
0010
0100
0001
0010
1000
0010
,
0001
0100
0000
0100
0100
0001
1000
0000
,
1000
0001
0100
0010
1000
0100
0001
0100
,
1000
0001
0100
0010
0010
1000
0001
0000
,
0001
0100
0010
1000
0100
0010
1000
0010
,
0001
0000
0100
0000
0100
0000
0100
0000
0010
0000
0010
0000
1000
0001
1000
0001
,
1000
0100
0010
1000
0010
0001
0100
1000
,
0100
0010
0000
0010
0010
1000
0001
0000
,
0001
0010
0100
0001
0100
1000
0010
0001
,
0010
0000
0100
0000
0000
0000
0100
0000
0100
0000
0001
0000
1000
0001
1000
0000
,
0001
0010
0000
0001
0010
0000
0100
1000
0000
0100
1000
0000
0001
0000
0100
0000
,
0010
1000
0000
0010
1000
0000
0001
0010
0000
0001
0010
0000
0100
0000
1000
0000
,
0001
0100
0001
0010
0001
0100
0001
0010
,
0100
1000
0010
0100
0001
0010
0001
1000
,
0100
0000
1000
0000
0010
0000
0100
0000
0001
0000
0010
0000
0001
0000
0100
0020
,
0000
0000
0000
0000
,
0030
0000
0000
0000
,
0000
0000
0000
0000
,
1000
0010
0100
0010
0000
1000
0100
0010
,
0200
2300
3020
0230
,
0301
0010
0100
0010
0000
0001
0100
0010
,
0200
0000
0302
0000
0023
0000
0031
1000
,
0000
1000
0100
0010
0000
0010
0100
1000
,
0002
0000
0203
0000
0320
0000
1030
1000
,
0000
0000
0000
0001
0001
0000
0000
0100
,
0100
0000
0000
0000
0000
0100
0001
1000
,
0001
0010
0100
1000
0000
0001
0100
0010
,
1000
1001
0011
1001
,
0001
0100
0010
1000
0000
0001
0010
0100
,
1000
0000
1001
0000
0101
0000
1001
0001
,
0000
1000
0100
0010
0000
0001
1000
0010
,
0100
0000
1010
0000
0101
0000
1001
0001
,
0000
0000
0000
0100
0100
0000
0000
0010
,
0010
0000
0000
0000
0000
0100
0001
1000
,
0000
0000
0000
0100
0100
0000
0000
1000
,
0000
0000
0000
0010
0000
0000
0000
0000
,
1000
1000
0010
0100
,
0001
0010
0001
0100
0010
1000
0100
2000
,
0000
0000
0000
0000
,
3000
0000
0000
0000
,
0010
1000
0001
0010
0100
1000
0010
0100
,
0101
0011
1100
1010
,
0010
0100
0001
1000
0100
0010
0001
0100
,
0110
0000
1010
0000
0101
0000
0011
0010
,
0000
0100
1000
0001
0100
0010
1000
0100
,
0110
0000
1001
0000
0110
0000
1001
1000
,
0001
0000
0010
0100
0100
0000
1000
0001
,
0001
0000
0100
0000
0010
1000
0100
0010
,
0001
0100
1000
0100
0001
0010
1000
0010
,
0011
1100
0110
1001
,
1000
0100
0001
0100
1000
0010
0001
0010
,
1010
0101
0110
1001
,
0000
0001
0000
0001
0000
1000
0000
1000
,
0010
0010
0100
0100
,
0001
0010
0001
0100
0010
1000
0100
1000
,
1001
0000
0000
0000
0000
0001
0010
0200
,
0300
0000
0000
0000
,
0000
0000
0000
0000
;
#NOTES:
     dance-single:
     :
     Hard:
     17:
     :
0000
0000
0000
0000
,
0000
0000
0000
0000
,
0000
0000
0000
0000
,
0001
0010
0100
1000
0000
0001
0100
0010
,
1000
0001
1000
0100
,
1000
0010
0100
0001
0000
1000
0100
0010
,
0001
0000
0100
0000
0010
0000
1000
1000
,
0000
0001
0010
0100
0000
1000
0010
0100
,
0001
0000
0010
0000
0001
0000
0100
0100
,
0000
0000
0000
0010
0010
0000
0000
1000
,
1000
0000
0000
0000
0000
0001
0100
0020
,
0000
0000
0000
0030
,
1000
0000
0100
0000
1000
0000
0010
0000
0100
0000
0001
0000
1000
0100
1000
0100
,
1000
0000
0001
0000
0100
0000
0001
0000
1000
0000
0100
0000
0010
0001
0010
0001
,
0010
0000
0100
0000
1000
0000
0001
0000
1000
0000
0010
0000
0100
0001
0100
0001
,
0100
0000
0001
0000
1000
0000
0100
0000
0010
0000
0001
0000
1000
0001
1000
0001
,
1000
0000
0010
0000
1000
0000
0100
0000
1000
0000
0001
0000
1000
0001
0100
0010
,
1000
0000
0001
0000
0010
0000
0001
0000
0100
0000
0001
0000
1000
0010
0100
0001
,
1000
0000
0010
0000
1000
0000
0100
0000
1000
0000
0001
0000
1000
0001
0010
0100
,
2000
0001
0001
3001
,
1000
0000
0001
1000
0001
0000
1000
0100
0010
0000
0001
1000
0001
0100
0010
0000
,
1000
0000
0001
0100
0001
0000
1000
0100
1000
0000
0001
0100
0010
1000
0001
0000
,
1000
0000
0100
0010
0001
0000
1000
0001
0100
0000
0010
1000
0001
1000
0100
0000
,
0010
0000
0001
1000
0010
0000
0100
0001
1000
0000
0001
0010
0100
1000
0001
0000
,
0100
0000
0001
0010
0100
0000
1000
0001
0100
0000
0001
0010
0100
1000
0010
0000
,
1000
0000
0001
0100
0010
0000
1000
0001
0010
0000
0001
0100
0010
1000
0001
0000
,
1000
0000
0010
0100
0001
0000
1000
0100
0010
0000
0100
1000
0010
0100
0001
0000
,
1000
0001
1000
1001
,
1000
0100
0000
1000
0001
0000
1000
0010
0000
1000
0001
0000
1000
0000
1000
0000
,
0001
0100
0000
0001
1000
0000
0001
0010
0000
0001
1000
0000
0001
0000
0001
0000
,
1000
0010
0000
1000
0001
0000
0010
0001
0000
1000
0100
0000
0010
0000
0010
0000
,
0001
0100
0000
0001
1000
0000
0100
1000
0000
0001
0010
0000
0100
0000
0100
0000
,
1000
0001
0000
1000
0001
0000
0010
0100
0010
0001
0000
0001
1000
0000
0010
0100
,
0010
1000
0000
1000
0001
0000
1000
0100
1000
0100
0000
0010
0001
0000
1000
0010
,
1000
0010
0000
0100
0001
1000
0000
0100
0010
0001
0000
0100
0010
1000
0000
0100
,
0010
0000
0001
1000
0100
0000
0100
1000
0001
0000
0010
0000
0001
1000
0001
1000
,
0001
0000
0100
0010
1000
0000
0001
0010
0100
0000
1000
0000
0010
0000
0100
0000
,
0001
0000
1000
0100
0010
0000
0100
1000
0001
0000
0100
0000
0110
0000
0000
0000
,
1000
0000
0001
0100
0010
0000
0100
0001
1000
0000
0100
0000
1000
0000
0010
0000
,
0100
0000
0001
1000
0100
0000
0100
1000
0001
0000
0100
0000
0110
0000
0000
0000
,
0010
0000
1000
0001
0010
0000
0100
1000
0010
0000
0100
0000
0001
0000
0010
0000
,
0100
0000
1000
0001
0100
0000
0001
0010
0100
0000
1000
0000
1010
0000
0000
0000
,
0010
0000
0100
0001
1000
0000
0100
1000
0010
0000
0100
0000
0001
0000
0010
0000
,
0001
0000
1000
0010
0100
0000
0100
0010
1000
0000
0001
0000
1000
0001
1000
0001
,
1000
0100
1000
0010
0100
0001
0010
0001
,
0100
0000
0001
1000
0100
0000
0100
1000
0010
0000
0100
0000
0101
0000
0000
0000
,
0001
0010
0001
0100
0010
1000
0100
1000
,
0010
0000
0100
0001
1000
0000
1000
0100
0010
0000
0001
0000
1000
0010
0100
0001
,
1000
0001
0000
0100
0001
0000
1000
0100
0000
1000
0010
0000
1010
0000
1001
0000
,
0001
1000
0000
0100
1000
0000
0001
0100
0000
0001
1000
0000
1100
0000
1001
0000
,
0001
0000
0010
0001
1000
0000
0010
1000
0001
0000
0100
0010
1000
0000
0001
1000
,
0100
1000
0010
0100
0001
0010
0001
1000
0100
1000
0010
0100
0001
0010
0001
1000
,
0100
1000
0010
0100
0001
0010
0001
0100
0010
1000
0100
1000
0010
0100
0001
0020
,
0000
0000
0000
0000
,
0030
0000
0000
0000
,
0000
0000
0000
0000
,
0001
0010
0100
1000
0000
0001
0100
0010
,
1000
0001
1000
0100
,
1000
0010
0100
0001
0000
1000
0100
0010
,
0001
0000
0100
0000
0010
0000
1000
1000
,
0000
0001
0010
0100
0000
1000
0010
0100
,
0001
0000
0010
0000
0001
0000
0100
0100
,
0000
0000
0000
0010
0010
0000
0000
1000
,
1000
0000
0000
0000
0000
0001
0010
0100
,
1000
0010
1000
0100
1000
0001
0010
0001
,
0101
0011
1100
1010
,
0001
0010
0001
0100
0001
1000
0010
1000
,
1100
0000
1010
0000
0101
0000
0011
0001
,
1000
0010
0100
0001
0010
0001
0100
0010
,
1010
0000
1100
0000
0101
0000
0011
0010
,
0100
1000
0001
0100
0100
0010
1000
0100
,
0100
0010
0001
1000
0010
0100
0001
1000
,
1100
1100
0011
0011
,
1001
0110
1001
0110
,
0001
0001
1000
1000
0001
0001
1000
1000
,
0001
1000
0001
0010
0100
1000
0010
1000
0001
0100
0001
0010
0100
1000
0010
0200
,
0000
0000
0000
0000
,
0300
0000
0000
0000
,
0001
0010
0100
1000
0010
1000
0001
0100
,
0110
0010
1010
1000
1001
0001
0011
0010
,
0100
1000
0010
0100
0001
0010
0001
0100
,
0110
0010
1010
1000
1001
0001
0101
0011
,
0000
0010
0100
1000
0001
0100
0010
1000
,
1100
0100
0110
0010
0011
0001
1001
1001
,
1000
0100
0010
0011
0011
0001
1000
1100
,
1100
0000
0001
0000
0100
0001
0010
0100
,
1000
0001
0100
0000
0010
0000
1000
0000
0001
0000
1000
0100
0010
0000
0001
0000
,
0101
0100
0110
0010
1010
1000
1001
0001
,
0010
0100
1000
0000
0001
0000
1000
0000
0010
0000
0100
0001
1000
0000
0100
0000
,
0110
0010
0011
0001
0101
0100
0110
1010
,
0000
0001
0100
0001
0010
0001
1000
0100
,
1100
0000
1010
0000
0101
0000
0011
0001
,
1000
0100
1000
0010
0100
0001
0010
0001
1000
0100
1000
0010
0100
0001
0010
0001
,
1000
0000
0000
0000
0000
0001
0010
0200
,
0300
0000
0000
0000
,
0000
0000
0000
0000
;
#NOTES:
     dance-single:
     :
     Challenge:
     18:
     :
0000
0000
0000
0000
,
0000
0000
0000
0000
,
0000
0000
0000
0000
,
0000
0000
0000
0000
,
0000
0000
0000
0000
,
0000
0000
0000
0000
,
0000
0000
0000
0000
,
0000
0000
0000
0000
,
0000
0000
0000
0000
,
0000
0000
0000
0000
,
0000
0000
0000
0000
,
0000
0000
0000
0000
,
0001
0100
0001
1000
0100
1000
0010
1000
0001
0100
0001
1000
0100
1000
0010
1000
,
0001
0100
0001
1000
0100
1000
0010
1000
0001
0100
0001
1000
0010
1000
0100
0010
,
0001
1000
0100
1000
0001
0100
0001
0010
0001
1000
0100
1000
0001
0100
0001
0010
,
0001
1000
0100
1000
0001
0100
0001
0010
0001
1000
0100
1000
0001
0100
0010
1000
,
0001
0010
0001
1000
0100
1000
0010
1000
0001
0010
0001
1000
0100
1000
0010
1000
,
0001
0010
0001
1000
0100
1000
0010
1000
0001
0010
0001
1000
0010
1000
0100
0010
,
0001
1000
0010
1000
0001
0100
0001
0010
0001
1000
0100
1000
0001
0100
0001
0010
,
0002
0003
1000
0000
0020
0030
1000
0000
0002
0003
1000
0000
0200
0300
1000
0000
,
0001
0100
0001
1000
0010
1000
0100
1000
0001
0100
0001
1000
0010
1000
0100
1000
,
0001
0100
0001
1000
0010
1000
0100
1000
0001
0100
0001
1000
0100
1000
0010
0100
,
0001
1000
0100
1000
0001
0010
0001
0100
0001
1000
0100
1000
0001
0010
0001
0100
,
0001
1000
0100
1000
0001
0010
0001
0100
0001
1000
0100
1000
0001
0100
0010
1000
,
0001
0010
0001
1000
0100
1000
0010
0100
0001
0010
0001
1000
0010
0100
0001
0010
,
0001
1000
0010
1000
0001
0100
0001
0010
0100
1000
0010
1000
0001
0100
0001
1000
,
0100
1000
0010
0100
0001
0010
0001
1000
0010
1000
0100
0010
0001
0100
0010
1000
,
0002
0003
1000
0000
0200
0300
1000
0000
0020
0030
1000
0000
0002
0003
1000
0000
,
0001
0100
0000
0001
1000
0000
0001
0010
0000
0001
1000
0000
0001
0000
0001
0000
,
1000
0100
0000
1000
0001
0000
1000
0010
0000
1000
0001
0000
1000
0000
1000
0000
,
0001
0010
0000
0001
1000
0000
0010
1000
0000
0001
0100
0000
0001
0000
0001
0000
,
1000
0100
0000
1000
0001
0000
0100
0001
0000
1000
0010
0000
1000
0000
1000
0000
,
0100
0010
0000
0001
1000
0000
0010
1000
0001
0010
0000
0100
1000
0000
0010
0100
,
0001
1000
0000
0100
0010
0000
0001
1000
0010
0100
0000
0001
1000
0000
0001
0010
,
0100
1000
0000
0010
0100
0001
0000
0010
0100
1000
0000
0010
0100
0001
0000
0010
,
0100
0000
1000
0001
1000
0000
0001
1000
0001
0000
1000
0000
0001
1000
0001
1000
,
0010
0100
0001
0010
0001
1000
0010
1000
0001
0100
0001
1000
0001
0010
0001
1000
,
0010
0100
0001
1000
0100
0010
0001
1000
0010
0100
0010
1000
0001
0010
0001
1000
,
0010
0100
0001
0010
0001
1000
0010
1000
0001
0100
0001
1000
0001
0010
0001
1000
,
0010
0100
0010
1000
0001
0010
0100
1000
0010
1000
0001
0010
0100
1000
0001
0100
,
0010
1000
0100
1000
0001
0100
0001
1000
0010
1000
0001
1000
0100
1000
0001
0100
,
0010
1000
0001
0010
0100
1000
0001
0100
0010
0100
0001
1000
0100
1000
0001
0100
,
0010
1000
0100
1000
0001
0100
0001
1000
0010
1000
0001
1000
0100
1000
0001
0010
,
0100
0010
0001
1000
0010
0100
0001
0010
0001
1000
0010
0100
0001
1000
0001
1000
,
0001
0010
0100
1000
0010
1000
0001
1000
0100
0010
0001
0100
0010
1000
0100
1000
,
0001
1000
0010
0100
0010
1000
0001
0010
0001
0100
0010
1000
0001
0010
0001
1000
,
0010
0100
0001
0010
0001
1000
0001
0100
0010
1000
0100
0010
0001
0100
0001
1000
,
0001
0010
0100
0010
0001
1000
0010
1000
0100
0010
0001
1000
0010
0100
0010
0100
,
0001
1000
0000
0001
0100
0000
0010
1000
0000
0001
0010
0000
0011
0000
1001
0000
,
1000
0001
0000
1000
0100
0000
0010
0001
0000
1000
0010
0000
1010
0000
1001
0000
,
0001
0000
0010
0001
1000
0000
0010
1000
0001
0000
0010
0100
1000
0000
0010
0100
,
0001
0010
0001
0100
0010
1000
0100
1000
0010
0100
0001
0010
0001
0100
0010
1000
,
0100
1000
0010
0100
0001
0010
0001
0100
0010
1000
0100
1000
0010
0100
0001
0010
,
0000
0000
0000
0000
,
0000
0000
0000
0000
,
0000
0000
0000
0000
,
0001
0010
0100
1000
0000
0001
0100
0010
,
1000
0001
0010
0100
,
1000
0010
0100
0001
0000
1000
0100
0010
,
0001
0000
1000
0000
0010
0000
0100
0100
,
0000
0010
1000
0001
0000
0010
0001
1000
,
0010
0000
0100
0000
0010
0000
1000
1000
,
0000
0000
0000
0001
0001
0000
0000
0100
,
0100
0000
0000
0000
0000
0010
0100
0001
,
1000
0010
1000
0100
1000
0001
0010
0001
,
0100
0001
0010
0100
1000
0010
0100
0100
,
0001
0010
0001
0100
0001
1000
0010
1000
,
0100
1000
0010
0100
0001
0010
0010
0001
,
1000
0010
0100
0001
0010
0001
1000
0010
,
0100
0100
0001
1000
0100
1000
0010
0100
,
0100
0001
0010
0100
0100
1000
0010
0100
,
0100
0001
0010
0001
0100
0010
1000
0100
,
1100
1100
0011
0011
,
1001
0110
1001
0110
,
2002
0000
0000
0000
3003
0000
0000
0000
0001
0010
0100
1000
0010
1000
0100
0010
,
0001
0100
0001
0010
0100
1000
0010
0100
0001
0010
0100
1000
0010
0100
0001
1000
,
0000
0000
0000
0000
,
0000
0000
0000
0000
,
1000
0100
0010
0000
0011
0000
0001
0000
1000
0000
0010
1000
0100
0000
0010
0000
,
0011
1000
0101
1000
0011
1000
0101
1000
,
0010
1000
0001
0000
0011
0000
0010
0000
0100
0000
1000
0001
0100
0000
0010
0000
,
1010
0001
1100
0001
1010
0001
1100
1001
,
0001
0000
0100
0010
1000
0000
0100
0000
1000
0000
0010
0100
0001
0000
0010
0000
,
0011
1000
0101
1000
0011
1000
0101
1010
,
0010
0000
0100
0000
0010
0000
1000
0001
0010
0000
0100
0000
1000
0000
0010
1000
,
0002
0000
1000
0000
1003
0001
0010
0100
,
1000
0010
0100
0000
0101
0000
0001
0000
0010
0000
0100
1000
0010
0000
1000
0000
,
0100
0010
0001
0000
0100
0010
1000
0000
0100
0010
0001
0000
0100
0010
1000
0000
,
0001
0010
0100
0000
1100
0000
1000
0000
0010
0000
0100
0001
0010
0000
0001
0000
,
0010
0100
1000
0000
0010
0100
0001
0000
0010
0100
1000
0000
0010
0000
0110
0000
,
0000
0001
0010
0001
0010
0100
1000
0010
,
0110
0000
0000
0000
1001
0000
0000
0000
1000
0100
0010
0001
1000
0001
0100
0010
,
1000
0100
1000
0010
0100
0001
0010
0001
0100
0010
1000
0100
1000
0010
0100
0001
,
1000
0000
0000
0000
0000
0001
0010
0200
,
0300
0000
0000
0000
,
0000
0000
0000
0000
;
#NOTES:
     dance-double:
     :
     Easy:
     9:
     :
00000000
00000000
00000000
00000000
,
00000000
00000000
00000000
00000000
,
00000000
00000000
00000000
00000000
,
00001000
00000000
00001000
00000000
,
01000000
00010000
00100000
00001000
,
00010000
00000000
00010000
00000000
,
00000100
00001000
00000010
00010000
,
00001000
00000000
00001000
00000000
,
00010000
00100000
01000000
00001000
,
00010000
00000000
00001000
00000000
,
00010000
00000000
00000000
00000000
00000000
00001000
00010000
00002000
,
00000000
00000000
00000000
00003000
,
00010000
00000000
01000000
00000000
10000000
00000000
00100000
01000000
,
00010000
10000000
01000000
00100000
,
00010000
00000000
00100000
00000000
00001000
00000000
00010000
00000100
,
00000010
00000100
00001000
00000010
,
00000100
00000000
00000100
00000000
00000001
00000000
00000001
00000010
,
00000100
00000100
00010000
00010000
,
00001000
00000000
00001000
00000000
01000000
00000000
01000000
00010000
,
20000000
00000000
00000000
30000000
,
10000000
00000000
01000000
00000000
00100000
00000000
00010000
01000000
,
00001000
00000000
00010000
00000000
00001000
00000000
00010000
00000100
,
00001000
00000000
00000010
00000000
00000100
00000000
00000001
00001000
,
00000001
00000000
00000100
00000000
00000001
00000000
00000100
00000010
,
00010000
00000000
00001000
00000000
00010000
00000000
00100000
01000000
,
00100000
00000000
00010000
00000000
00001000
00000000
00100000
00010000
,
00100000
01000000
11000000
00010000
,
20020000
00000000
00000000
30030000
,
20000000
32000000
03200000
00320000
,
02030000
03200000
00320000
00032000
,
00003020
00000230
00020300
00032000
,
00003200
00000302
00000023
00000230
,
00002300
00003010
00020000
00031000
,
00200000
00310000
20000000
30100000
,
10000000
11000000
00010000
01010000
,
20020000
00000000
30030000
00000000
,
10000000
01000000
00010000
00001000
,
00000100
00000000
00000010
00000000
00000010
00001000
00000001
00000000
,
00000001
00000100
00001000
00010000
,
01000000
00100000
00000000
00100000
00000000
00100000
10000000
00000000
,
01000000
00010000
00001000
00010000
,
00100000
00000000
10000000
00000000
10000000
01000000
00100000
00000000
,
00001000
00010000
00001000
00000010
,
00000001
00000100
00000000
00000100
00000000
00000100
00000010
00000000
,
00001000
00000001
00000100
00001000
,
00010000
00000000
00100000
00000000
01000000
00010000
10000000
00000000
,
00010000
10000000
01000000
00010000
,
00001000
00000000
00010000
00000000
00000100
00001000
00000010
00000000
,
00010000
00000000
00000000
00010000
00000000
00000000
00010000
00000000
,
00001000
00000000
00000000
00001000
00000000
00000000
00001000
00000000
,
00010000
00010000
00010000
00010000
,
00001000
00010000
00000100
00000000
00001000
00000000
00000010
00000000
,
00000100
00000001
00000010
00000000
00000001
00000000
00001000
00000000
,
00000000
00000000
00000000
00000000
,
00000000
00000000
00000000
00000000
,
00000000
00000000
00000000
00000000
,
00000001
00000000
00000001
00000000
,
00000020
00000230
00020300
00032000
,
00013000
00000000
00010000
00000000
,
00002000
00023000
00230000
01300000
,
00010000
00000000
00010000
00000000
,
20000000
32000000
03200000
00310000
,
00100000
00000000
00001000
00000000
,
00010000
00000000
00000000
00000000
,
00001000
00010000
00000100
00000010
,
00000002
00000203
00002300
00023000
,
00031000
01000000
00100000
10000000
,
02000000
03020000
00032000
00023000
,
00030100
00000010
00000001
00000001
,
00000200
00002300
00023000
00230000
,
01300000
00000000
00001000
00000000
,
00010000
00000000
01000000
00000000
,
00010000
00000000
00001000
00000000
,
00000100
00000000
00001000
00000000
,
00010000
00010000
00001000
00001000
,
00010000
00000000
00001000
00000000
00010000
00001000
00010000
00002000
,
00000000
00000000
00000000
00003000
,
00000000
00000000
00000000
00000000
,
00010000
00001000
00010000
00000010
,
00001010
00000110
00001010
00010010
,
00010000
00001000
00001000
00100000
,
00110000
01100000
00110000
00101000
,
00001000
00100000
00010000
10000000
,
11000000
10010000
10100000
10010000
,
10000000
00010000
00100000
00001000
,
00020000
00000000
00000000
00030000
,
00001000
00010000
00000100
00001000
,
00001200
00000001
00001000
00010300
,
00010000
00001000
01000000
00010000
,
02010000
10000000
00010000
03001000
,
00010000
00000000
01000000
00000000
,
00010000
00000000
00001000
00000000
,
00010000
00000100
00001000
00000010
,
00001001
00000000
00000000
00000000
00000000
00000100
00000010
00000200
,
00000300
00000000
00000000
00000000
,
00000000
00000000
00000000
00000000
;
#NOTES:
     dance-double:
     :
     Medium:
     14:
     :
00000000
00000000
00000000
00000000
,
00000000
00000000
00000000
00000000
,
00000000
00000000
00000000
00000000
,
00001000
00001000
00010000
00010000
,
00000200
00002300
00003020
00020030
,
00031000
00001000
00010000
00010000
,
00002000
00000000
02003000
00000000
03020000
00000000
00130000
00001000
,
00010000
00010000
00001000
00001000
,
00020000
00000000
00032000
00000000
00003200
00000000
00000310
00010000
,
00001000
00000000
00000000
00010000
00010000
00000000
00000000
00001000
,
00001000
00000000
00000000
00000000
00000000
00010000
00001000
00020000
,
00000000
00000000
00000000
00030000
,
00001000
00010000
00001000
00010000
01000000
00100000
00010000
01000000
,
00100000
10000000
00100000
10000000
01000000
00010000
00001000
00000010
,
00000001
00001000
00000001
00001000
00000100
00000010
00000001
00001000
,
00000001
00000100
00000001
00000100
00001000
00010000
00100000
01000000
,
00010000
10000000
00010000
10000000
00100000
00010000
00001000
00000100
,
00000010
00001000
00000010
00001000
00000100
00010000
00001000
00000010
,
00000001
00001000
00000001
00001000
00000001
00000100
00001000
00010000
,
02000000
00000000
03000000
00000000
,
10000000
01000000
10000000
01000000
00100000
00010000
01000000
00100000
,
00010000
00001000
00010000
00001000
00000010
00000001
00001000
00000010
,
00000100
00000001
00000100
00000001
00000010
00001000
00010000
00001000
,
01000000
00100000
01000000
00100000
00010000
00001000
00000100
00000010
,
00010000
00001000
00010000
00001000
00000010
00000001
00000100
00001000
,
00010000
00100000
00010000
00100000
10000000
01000000
00010000
00001000
,
00000100
00000010
00000100
00000010
00001000
00000001
00000100
00000001
,
00000010
00001000
00000010
00001000
00010000
00100000
01000000
00000000
,
00010000
00000000
00000000
00100000
00000000
00000000
01000000
00000000
00000000
10000000
00000000
00000000
00100000
00000000
00100000
00000000
,
01000000
00000000
00000000
00010000
00000000
00000000
10000000
00000000
00000000
01000000
00000000
00000000
00100000
00000000
00010000
00000000
,
00100000
00000000
00000000
00001000
00000000
00000000
00010000
00000000
00000000
00000100
00000000
00000000
00001000
00000000
00000010
00000000
,
00001000
00000000
00000000
00000001
00000000
00000000
00000010
00000000
00000000
00000100
00000000
00000000
00001000
00000000
00000010
00000000
,
00010000
00001000
01000000
00000000
00001000
01000000
00100000
00000000
,
01000000
00100000
00010000
00000000
00100000
00010000
00001000
00000000
,
00001000
00001000
00010000
00010000
01000000
01000000
10000000
00100000
,
02000000
00000000
00000000
03000000
,
00001000
00010000
00000100
00000010
00000001
00001000
00000010
00001000
,
00000100
00000010
00001000
00010000
00000100
00001000
00000100
00000010
,
00001000
00010000
00001000
01000000
00100000
10000000
00010000
01000000
,
00100000
00010000
00001000
01000000
00010000
01000000
00100000
00010000
,
00001000
00010000
00001000
00000010
00000001
00000010
00000100
00001000
,
00000010
00010000
00001000
00010000
00100000
01000000
00010000
10000000
,
00100000
10000000
00100000
10000000
00100000
00010000
00001000
00000100
,
00000010
00000000
00000010
00000000
00000010
00001000
00000001
00000000
,
00000001
00000010
00000100
00001000
00000000
00000010
00000100
00001000
,
00010000
01000000
10000000
00100000
,
10000000
01000000
00100000
00010000
00000000
01000000
00100000
00010000
,
00001000
00000010
00000001
00001000
,
00000100
00001000
00000000
00000100
00001000
00000000
00000100
00001000
00000000
00000100
00001000
00000000
00000100
00000000
00010000
00000000
,
00001000
00010000
00000000
00001000
00010000
00000000
00001000
00010000
00000000
00001000
00010000
00000000
00001000
00000000
01000000
00000000
,
00010000
10000000
01000000
00100000
00010000
00100000
00010000
10000000
,
01000000
10000000
00100000
01000000
00010000
00100000
00001000
00010000
,
00000100
00001000
00000010
00000100
00000001
00001000
00000100
00000020
,
00000000
00000000
00000000
00000000
,
00000030
00000000
00000000
00000000
,
00000000
00000000
00000000
00000000
,
00000001
00000010
00000100
00001000
00000000
00000100
00000010
00001000
,
00010000
00001000
01000000
00010000
,
10000000
01000000
00100000
00010000
00000000
00100000
01000000
00010000
,
00001000
00000000
00010000
00000000
00000010
00000000
00001000
00000001
,
00000000
00000001
00000010
00000100
00000000
00010000
00001000
00000100
,
00000010
00000000
00001000
00000000
00000001
00000000
00000100
00000100
,
00000000
00000000
00000000
00000010
00000010
00000000
00000000
00010000
,
00010000
00000000
00000000
00000000
00000000
00001000
01000000
00010000
,
10000000
01000000
00100000
00010000
00000000
01000000
00100000
00010000
,
00001000
00000010
00000001
00000100
,
00000001
00000010
00000100
00001000
00000000
00000010
00000100
00001000
,
00010000
00000000
01000000
00000000
10000000
00000000
00100000
01000000
,
00000000
00001000
00010000
00100000
00000000
10000000
01000000
00100000
,
00010000
00000000
10000000
00000000
00010000
00000000
01000000
01000000
,
00000000
00000000
00000000
00001000
00001000
00000000
00000000
00010000
,
00010000
00000000
00000000
00000000
00000000
00010000
00001000
00000100
,
00000000
00000000
00000000
00000010
00000010
00000000
00000000
00001000
,
00000000
00000000
00000000
00000001
00000000
00000000
00000000
00000000
,
00000000
00000000
00000000
00000100
00000100
00000000
00000001
00000010
,
00000001
00000100
00000010
00001000
00000100
00010000
00001000
00020000
,
00000000
00000000
00000000
00000000
,
00030000
00000000
00000000
00000000
,
00001000
00010000
00100000
01000000
00000000
00001000
00010000
01000000
,
00100000
00000000
00001000
00010000
00100000
01000000
00001000
00000000
,
00010000
00001000
00000010
00000100
00000000
00010000
00001000
00000100
,
00000010
00000000
00010000
00001000
00000010
00000100
00010000
00001000
,
00000000
00001000
01000000
00100000
00000000
10000000
00100000
00010000
,
00001000
00000000
00010000
00000000
01000000
00000000
10000000
10000000
,
01000000
00000000
00100000
00010000
00010000
00000000
01000000
00100000
,
00100000
10000000
00010000
10010000
,
10000000
01000000
00100000
00010000
00000000
00000010
00001000
00010000
,
01000000
00100000
00001000
00000010
,
00000001
00000100
00000010
00001000
00000000
00100000
00010000
00001000
,
00000100
00000000
00000010
00000000
00010000
00000000
00100000
01000000
,
00000000
00001000
00000000
00001000
00000000
00010000
00000000
00010000
,
00001000
00001000
00010000
00010000
,
00000100
00001000
00000010
00010000
00001000
01000000
00010000
00100000
,
00001000
00000000
00000000
00000000
00000000
00010000
00001000
00000200
,
00000300
00000000
00000000
00000000
,
00000000
00000000
00000000
00000000
;
#NOTES:
     dance-double:
     :
     Hard:
     17:
     :
00000000
00000000
00000000
00000000
,
00000000
00000000
00000000
00000000
,
00000000
00000000
00000000
00000000
,
00001000
00010000
00001000
00010000
00000000
00000100
00001000
00000010
,
00010000
00001000
00000100
00000010
,
00010000
00001000
00010000
00001000
00000000
01000000
00010000
00100000
,
00001000
00000000
00010000
00000000
01000000
00000000
00100000
00010000
,
00000000
00010000
00100000
00001000
00000000
00010000
00000100
00000010
,
00001000
00000000
00010000
00000000
00001000
00000000
00100000
00100000
,
00000000
00000000
00000000
00001000
00001000
00000000
00000000
00010000
,
00010000
00000000
00000000
00000000
00000000
00010000
00001000
00020000
,
00000000
00000000
00000000
00030000
,
00001000
00000000
00010000
00000000
00000100
00000000
00001000
00000000
00000010
00000000
00000100
00000000
00000001
00001000
00000001
00001000
,
00000001
00000000
00000010
00000000
00000100
00000000
00001000
00000000
00000010
00000000
00010000
00000000
00001000
00010000
00001000
00010000
,
00001000
00000000
01000000
00000000
00010000
00000000
00100000
00000000
01000000
00000000
10000000
00000000
00010000
10000000
00010000
10000000
,
00010000
00000000
01000000
00000000
00100000
00000000
01000000
00000000
00010000
00000000
00100000
00000000
00001000
00010000
00001000
00010000
,
00001000
00000000
00010000
00000000
00000100
00000000
00000010
00000000
00000001
00000000
00001000
00000000
00000010
00000100
00000010
00000100
,
00000010
00000000
00001000
00000000
00000100
00000000
00000010
00000000
00001000
00000000
00010000
00000000
00001000
00010000
00001000
00010000
,
00001000
00000000
00010000
00000000
00100000
00000000
01000000
00000000
00010000
00000000
10000000
00000000
00100000
00000000
01000000
00010000
,
20000000
00000000
00000000
30000000
,
00010000
00000000
10000000
01000000
00100000
00000000
00010000
00100000
00001000
00000000
00010000
00000100
00001000
00000000
00000001
00000000
,
00000100
00000000
00000010
00001000
00000001
00000000
00000010
00000100
00001000
00000000
00000100
00010000
00001000
00000000
00010000
00000000
,
00100000
00000000
01000000
00010000
10000000
00000000
01000000
00100000
00010000
00000000
00100000
00001000
00010000
00000000
00001000
00000000
,
00000010
00000000
00000001
00000010
00000100
00000000
00001000
00000100
00010000
00000000
00001000
00010000
00000010
00000000
00010000
00000000
,
00001000
00000000
00100000
00010000
10000000
00000000
00010000
01000000
00100000
00000000
10000000
00010000
10000000
00010000
10000000
00000000
,
01000000
00000000
00100000
00001000
00010000
00000000
00001000
00010000
00000010
00000000
00010000
00001000
00010000
00001000
00010000
00000000
,
00001000
00000000
00000010
00000001
00000010
00000000
00000100
00001000
00000001
00000000
00000100
00000001
00000100
00000001
00001000
00000000
,
00000020
00000000
00000000
00000030
,
00000100
00000001
00000000
00001000
00000100
00000000
00010000
00001000
00000000
00100000
00010000
00000000
00100000
00000000
01000000
00000000
,
10000000
00100000
00000000
01000000
00010000
00000000
00100000
00001000
00000000
00010000
00001000
00000000
00000010
00000000
00000100
00000000
,
00001000
00000100
00000000
00000010
00000001
00000000
00000001
00000100
00000000
00001000
00010000
00000000
00001000
00000000
00100000
00000000
,
00010000
01000000
00000000
00100000
10000000
00000000
10000000
01000000
00000000
00010000
00001000
00000000
00010000
00000000
00001000
00000000
,
00100000
00010000
00000000
00100000
00010000
00000000
01000000
00010000
01000000
00010000
00000000
00100000
00001000
00000000
00010000
00001000
,
00010000
00001000
00000000
00010000
00000100
00000000
00001000
00000010
00001000
00000010
00000000
00010000
00001000
00000000
00010000
00000100
,
00001000
00000010
00000000
00010000
00001000
01000000
00000000
00010000
00100000
00001000
00000000
00010000
00000100
00001000
00000000
00000010
,
00010000
00000000
00000000
00000000
00001000
00000000
00000000
00000000
00001000
00000000
00000000
00000000
00001000
00010000
00001000
00010000
,
00001000
00000000
01000000
00010000
00100000
00000000
00001000
00010000
00000100
00000000
00001000
00000000
00000001
00000000
00000010
00000000
,
00000100
00000000
00001000
00000010
00010000
00000000
00001000
01000000
00010000
00000000
00100000
00000000
00001000
00000000
00000000
00000000
,
00010000
00000000
00000100
00001000
00000010
00000000
00010000
00001000
00010000
00000000
01000000
00000000
10000000
00000000
00100000
00000000
,
01000000
00000000
00010000
00100000
00001000
00000000
00010000
00000100
00001000
00000000
00000010
00000000
00010000
00000000
00000000
00000000
,
00001000
00000000
00000010
00000100
00001000
00000000
00000100
00010000
00001000
00000000
00010000
00000000
01000000
00000000
00100000
00000000
,
00010000
00000000
00100000
00001000
00010000
00000000
00000100
00001000
00000010
00000000
00010000
00000000
00001000
00000000
00000000
00000000
,
00010000
00000000
00100000
01000000
00010000
00000000
01000000
00001000
00010000
00000000
00001000
00000000
00000100
00000000
00000010
00000000
,
00010000
00000000
00001000
00010000
00000100
00000000
00001000
00000010
00010000
00000000
00001000
00000000
00010000
00001000
00010000
00001000
,
00010000
00001000
00000100
00000010
00010000
00001000
00010000
01000000
,
00100000
00000000
00010000
10000000
01000000
00000000
00100000
00010000
10000000
00000000
00100000
00000000
00010000
00000000
00000000
00000000
,
00001000
00010000
01000000
00100000
00001000
00010000
00001000
00000100
,
00000010
00000000
00001000
00000001
00000100
00000000
00000010
00001000
00000001
00000000
00000010
00000000
00000100
00001000
00000100
00001000
,
00000100
00000010
00000000
00000001
00000100
00000000
00000010
00001000
00000000
00000100
00010000
00000000
00001000
00000000
01000000
00000000
,
00001000
00010000
00000000
00001000
00100000
00000000
00010000
01000000
00000000
00100000
10000000
00000000
00010000
00000000
00100000
00000000
,
01000000
10000000
00010000
01000000
00100000
01000000
00010000
00100000
,
00001000
00010000
00000100
00001000
00000100
00010000
00001000
00010000
00000010
00001000
00000010
00010000
00001000
00010000
00000100
00001000
,
00000010
00000100
00000001
00000010
00000001
00001000
00000100
00001000
00000010
00000100
00000001
00000010
00000001
00001000
00000010
00000200
,
00000000
00000000
00000000
00000000
,
00000300
00000000
00000000
00000000
,
00000000
00000000
00000000
00000000
,
00000001
00000010
00000100
00001000
00000000
00000010
00000100
00001000
,
00010000
01000000
10000000
00100000
,
10000000
01000000
00100000
00010000
00000000
01000000
00100000
00010000
,
00001000
00000000
00000010
00000000
00000001
00000000
00000100
00000010
,
00000000
00001000
00000100
00000010
00000000
00001000
00010000
00001000
,
01000000
00000000
00100000
00000000
00010000
00000000
00001000
00001000
,
00000000
00000000
00000000
00010000
00010000
00000000
00000000
00001000
,
00001000
00000000
00000000
00000000
00000000
00100000
00010000
01000000
,
00010000
00100000
01000000
10000000
00000000
00010000
01000000
00100000
,
00010000
00011000
00101000
00011000
,
00010000
00001000
00000100
00000010
00000000
00001000
00000100
00000010
,
00000001
00000000
00001001
00000000
00001100
00000000
00001001
00000001
,
00000000
00000001
00000010
00000100
00000000
00010000
00001000
00010000
,
00010010
00000000
00011000
00000000
01001000
00000000
00011000
00001000
,
00100000
00000000
00010000
01000000
01000000
00000000
00100000
10000000
,
10000000
00000000
00010000
00000000
01000000
00100000
00010000
00001000
,
00010000
00000000
00000100
00001000
00001000
00000000
00000010
00010000
,
00001000
00000000
00000100
00000001
00000010
00000000
00000100
00000000
,
00010000
00001000
00100000
00010000
01000000
00100000
10000000
01000000
,
10000000
00010000
01000000
00100000
01000000
00010000
00100000
00010000
10000000
01000000
10000000
00100000
01000000
00010000
00100000
00020000
,
00000000
00000000
00000000
00000000
,
00030000
00000000
00000000
00000000
,
10000000
01000000
00100000
00010000
01000000
00100000
00010000
00001000
,
00010000
00000100
00000001
00000100
00001000
00000100
00010000
00001000
,
00010000
00100000
01000000
10000000
00010000
00001000
00000100
00000010
,
00010000
00001000
00000010
00000001
00000100
00001000
00010000
01000000
,
00000000
10000000
01000000
00100000
00001000
00010000
00100000
01000000
,
10000000
00000000
00010000
00000000
00001000
00000000
00000010
00000001
,
00000100
00000000
00000010
00001000
00000100
00000000
00010000
00001000
,
00100000
00000000
00001000
00000000
00010000
00001000
00010000
00001000
,
00010000
00100000
10000000
00010000
00100000
10000000
00010000
00001000
,
00000010
00000001
00001000
00000010
00000001
00001000
00010000
00001000
,
00010000
01000000
10000000
00010000
01000000
10000000
00010000
00001000
,
00000100
00000001
00001000
00000100
00000001
00001000
00010000
00001000
,
00010000
00100000
10000000
00010000
00100000
10000000
00010000
00001000
,
00000100
00000001
00001000
00000100
00000001
00001000
00010000
00001000
,
00010000
00100000
01000000
00001000
00010000
01000000
10000000
00100000
,
00020000
00000000
00000000
00000000
00030000
00000100
00000010
00000002
,
00000003
00000000
00000000
00000000
,
00000000
00000000
00000000
00000000
;
#NOTES:
     dance-double:
     :
     Challenge:
     18:
     :
00000000
00000000
00000000
00000000
,
00000000
00000000
00000000
00000000
,
00000000
00000000
00000000
00000000
,
00000000
00000000
00000000
00000000
,
00000000
00000000
00000000
00000000
,
00000000
00000000
00000000
00000000
,
00000000
00000000
00000000
00000000
,
00000000
00000000
00000000
00000000
,
00000000
00000000
00000000
00000000
,
00000000
00000000
00000000
00000000
,
00000000
00000000
00000000
00000000
,
00000000
00000000
00000000
00000000
,
00001000
00010000
00001000
00010000
00000010
00001000
00000010
00010000
00001000
00010000
00000100
00001000
00000001
00001000
00000010
00010000
,
00001000
00010000
00001000
00100000
00010000
00100000
00001000
00010000
00001000
01000000
00010000
10000000
00010000
00100000
00001000
00100000
,
00001000
00010000
00001000
00010000
00000010
00001000
00000010
00010000
00001000
00010000
00000100
00001000
00000001
00001000
00000010
00010000
,
00001000
00010000
00001000
00100000
00010000
00100000
00001000
00010000
00001000
01000000
00010000
10000000
00010000
00100000
00001000
00100000
,
00001000
00010000
00001000
00010000
00000100
00001000
00000100
00010000
00001000
00010000
00000010
00001000
00000001
00001000
00000100
00010000
,
00001000
00010000
00001000
01000000
00010000
01000000
00001000
00010000
00001000
00100000
00010000
10000000
00010000
01000000
00001000
01000000
,
00001000
00010000
00001000
00010000
00000100
00001000
00000100
00010000
00001000
00010000
00000010
00001000
00000001
00001000
00000100
00010000
,
00002000
00003000
00010000
00000000
00002000
00003000
00010000
00000000
00002000
00003000
00010000
00000000
00002000
00003000
00010000
00000000
,
00001000
00010000
00001000
00010000
00000100
00001000
00000100
00000010
00000001
00001000
00000001
00000010
00000100
00001000
00000100
00010000
,
00001000
00010000
00001000
01000000
00010000
01000000
00100000
10000000
00010000
10000000
00100000
01000000
00010000
01000000
00001000
00010000
,
00001000
00010000
00001000
00010000
00000100
00001000
00000100
00000010
00000001
00001000
00000001
00000010
00000100
00001000
00000100
00010000
,
00001000
00010000
00001000
01000000
00010000
01000000
00100000
10000000
00010000
10000000
00100000
01000000
00010000
01000000
00001000
00010000
,
00001000
00010000
00001000
00010000
00000010
00001000
00000010
00000100
00000001
00001000
00000001
00000100
00000010
00001000
00000010
00010000
,
00001000
00010000
00001000
00100000
00010000
00100000
01000000
10000000
00010000
10000000
01000000
00100000
00010000
00100000
00001000
00010000
,
00001000
00010000
00001000
00010000
00000010
00001000
00000010
00000100
00000001
00001000
00000001
00000100
00000010
00001000
00000010
00010000
,
00001000
00010000
00001000
00100000
00010000
00100000
01000000
10000000
00010000
10000000
01000000
00100000
00010000
00100000
00001000
00010000
,
00001000
00010000
00000000
00000100
00001000
00000000
00000010
00001000
00000000
00000100
00010000
00000000
00001000
00000000
00001000
00000000
,
00010000
00001000
00000000
01000000
00010000
00000000
00100000
00010000
00000000
01000000
00001000
00000000
00010000
00000000
00000100
00000000
,
00000010
00000001
00000000
00001000
00000010
00000000
00010000
00001000
00000000
01000000
00010000
00000000
10000000
00000000
00100000
00000000
,
01000000
00010000
00000000
00100000
00001000
00000000
00010000
00000100
00000000
00000010
00000001
00000000
00001000
00000000
00000010
00000000
,
00010000
00001000
00000000
00010000
00001000
00000000
01000000
00010000
00100000
00001000
00000000
00010000
00001000
00000000
00100000
00010000
,
01000000
00001000
00000000
00100000
00001000
00000000
00010000
00000100
00001000
00000010
00000000
00010000
00001000
00000000
00010000
00000010
,
00001000
00000100
00000000
00000010
00000001
00001000
00000000
00000100
00010000
00001000
00000000
01000000
00100000
10000000
00000000
00010000
,
00100000
00000000
00000000
00000000
00001000
00000000
00000000
00000000
00010000
00000000
00000000
00000000
00001000
00010000
00001000
00010000
,
00001000
01000000
00010000
10000000
00100000
01000000
00010000
10000000
00010000
00100000
01000000
10000000
00010000
01000000
00010000
10000000
,
01000000
00100000
00010000
00100000
00001000
00010000
00001000
01000000
00010000
00000000
00100000
00001000
00010000
00000000
00000000
00000000
,
00001000
00010000
00001000
00010000
00000010
00001000
00000001
00001000
00000010
00000100
00000001
00001000
00000001
00000010
00000100
00001000
,
00000100
00010000
00001000
00000000
00010000
00000000
00001000
00000000
01000000
00000000
00010000
00100000
01000000
00000000
00000000
00000000
,
10000000
01000000
10000000
01000000
00100000
00010000
00100000
00001000
00010000
00001000
01000000
00010000
01000000
00001000
00010000
00001000
,
00010000
00000100
00001000
00000100
00001000
00000100
00000010
00000001
00001000
00000000
00000001
00000100
00000010
00000000
00000000
00000000
,
00001000
00000001
00001000
00000001
00001000
00000010
00001000
00000010
00010000
00001000
00010000
00000100
00001000
00000100
00010000
00001000
,
00010000
00000000
00001000
00100000
00010000
00000000
00010000
00000000
00100000
00000000
00100000
00010000
10000000
00100000
10000000
00010000
,
00100000
01000000
10000000
01000000
00100000
00010000
10000000
00000000
00010000
01000000
00010000
01000000
00001000
00010000
00001000
00000000
,
00010000
00000100
00001000
00000100
00000010
00000001
00001000
00000000
00000001
00000100
00000010
00000100
00000001
00001000
00000100
00000000
,
00001000
00000100
00010000
00000100
00001000
00000100
00010000
00000000
00001000
00100000
00010000
00100000
00001000
00100000
00010000
00000000
,
00100000
01000000
10000000
00010000
01000000
00100000
01000000
00000000
00010000
10000000
01000000
10000000
00010000
01000000
00100000
00000000
,
10000000
01000000
00000000
00100000
00001000
00000000
00010000
00000100
00000000
00000010
00000001
00000000
00001000
00000000
00001000
00000000
,
00000001
00000100
00000000
00000010
00010000
00000000
00001000
01000000
00000000
00100000
10000000
00000000
00010000
00000000
00010000
00000000
,
01000000
00000000
00010000
00000000
10000000
00000000
01000000
00000000
00100000
00010000
01000000
00010000
10000000
00100000
10000000
01000000
,
00100000
00010000
10000000
01000000
10000000
00100000
01000000
00010000
00100000
00010000
01000000
00100000
01000000
00010000
00100000
00001000
,
00010000
00001000
00010000
00000100
00001000
00000010
00000100
00000010
00001000
00000100
00001000
00000010
00000100
00000001
00000010
00000001
,
00000000
00000000
00000000
00000000
,
00000000
00000000
00000000
00000000
,
00000000
00001000
00000000
00001000
00001000
00000010
00010000
00000000
,
00010000
00001000
00000100
00000010
00000000
00001000
00000100
00000010
,
00000001
00000100
00001000
00010000
,
00001000
00010000
01000000
00100000
00000000
00010000
01000000
00100000
,
10000000
00000000
10000000
00000000
00100000
00000000
00010000
00001000
,
00000000
00001000
00100000
00010000
00000000
01000000
00100000
00010000
,
00001000
00000000
00010000
00000000
00000100
00000000
00000010
00000010
,
00000000
00000000
00000000
00000001
00000001
00000000
00000000
00001000
,
00001000
00000000
00000000
00000000
00000000
00000001
00000010
00000100
,
00001000
00000010
00001000
00000010
00010000
00001000
00010000
00001000
,
01001000
01010000
01100000
11000000
,
01100000
01000000
00010000
01000000
00001000
00010000
00001000
00010000
,
00010100
00000000
00001100
00000000
00000110
00000000
00001100
00000100
,
00010000
00001000
00100000
00010000
01000000
00100000
10000000
00010000
,
00110000
00000000
00101000
00000000
00110000
00000000
01100000
00100000
,
00010000
00000000
10000000
00100000
00100000
00000000
01000000
00010000
,
00010000
00000000
00100000
00000000
00001000
00010000
00001000
00010000
,
00000100
00000000
00001000
00000010
00000010
00000000
00000100
00000001
,
00001000
00000000
00000100
00010000
00001000
00000000
00010000
00000000
,
00001000
00000000
00001000
00000000
00010000
00000000
00010000
00000000
00001000
00010000
00001000
00010000
00001000
00010000
00001000
00010000
,
00000100
00001000
00000010
00010000
00001000
00010000
00001000
01000000
00010000
00100000
00001000
00010000
00000100
00001000
00000010
00010000
,
00000000
00000000
00000000
00000000
,
00000000
00000000
00000000
00000000
,
00001000
00010000
00001000
00000000
00100000
00000000
00010000
00000000
10000000
00000000
00100000
01000000
00010000
00000000
10000000
00000000
,
11000000
01000000
01100000
00100000
00101000
00001000
00011000
00010000
,
00000100
00000010
00000001
00000000
00001000
00000000
00000001
00000000
00000100
00000000
00000001
00000010
00000100
00000000
00001000
00000000
,
00001010
00000010
00010010
00010000
00011000
00001000
00101000
00100000
,
00010000
00000000
10000000
00100000
01000000
00000000
00010000
00000000
10000000
00000000
01000000
00100000
00010000
00000000
00100000
00000000
,
00101000
00000000
00001000
00000000
00011000
00000000
00010000
00000000
00010010
00000000
00000010
00000000
00001010
00000000
00001000
00000100
,
00000010
00000000
00000001
00000000
00001000
00000000
00000010
00010000
00001000
00000000
01000000
00000000
00010000
00000000
10000000
01000000
,
00100000
00000000
01000000
00000000
10000000
00000000
00100000
00000000
01000000
00000000
00010000
00100000
00001000
00000000
00010000
00000000
,
00000010
00001000
00000001
00000000
00000010
00000000
00000100
00000000
00001000
00000000
00000010
00000100
00000001
00000000
00001000
00000000
,
00000001
00000010
00000100
00000000
00010000
00001000
01000000
00000000
00100000
10000000
00010000
00000000
10000000
01000000
00100000
00000000
,
00001000
00010000
00000100
00000000
00001000
00000000
00000010
00000000
00010000
00000000
00001000
00100000
00010000
00000000
01000000
00000000
,
00010000
10000000
01000000
00000000
00100000
00001000
00010000
00000000
00000100
00000010
00000001
00000000
00000100
00000000
00000010
00000000
,
00000000
00010000
00001000
00010000
00001000
01000000
00010000
00100000
,
00110000
00000000
00000000
00000000
10010000
00000000
00000000
00000000
10000000
00000000
00100000
01000000
00010000
00100000
00010000
10000000
,
01000000
10000000
00100000
01000000
00010000
00100000
00001000
00010000
00001000
00010000
00000100
00001000
00000010
00000100
00000001
00000010
,
00000001
00000000
00000000
00000000
00000000
00001000
00000010
00000200
,
00000300
00000000
00000000
00000000
,
00000000
00000000
00000000
00000000
;
