
//----- song ID: dent -----//
#TITLE:[ ]DENTITY;
#ARTIST:BEMANI Sound Team "HuΣeR";
#BANNER:[ ]DENTITY.png;
#BACKGROUND:[ ]DENTITY-bg.png;
#CDTITLE:./CDTitles/bm IIDX 30 RESIDENT.png;
#MUSIC:[ ]DENTITY.ogg;
#SAMPLESTART:85.802;
#SAMPLELENGTH:15;
#BPMS:0=200,116=100,140=200;
#BGSTAGE:3;
#NOTES:
     dance-single:
     :
     Beginner:
     4:
     :
0000
0000
0000
0000
,
0000
0000
0000
0000
,
0000
0000
0000
0000
,
0000
0000
0000
0000
,
0000
0000
0000
0000
,
0001
0000
0000
0000
,
0001
0000
0000
0000
,
0001
0000
0000
0000
,
0000
0000
0000
0000
,
0010
0000
0000
0000
,
0010
0000
0000
0000
,
0010
0000
0000
0000
,
0000
0000
0000
0000
,
1000
0000
0000
0000
,
1000
0000
0000
0000
,
1000
0000
0000
0000
,
0000
0000
0000
0000
,
0100
0000
0000
0000
,
0000
0000
0000
0000
,
1001
0000
0000
0000
,
0000
0000
0000
0000
,
2000
0000
0000
0000
,
3000
0000
0000
0000
,
1000
0000
0000
0000
,
0010
0000
0000
0000
,
0020
0000
0000
0000
,
0030
0000
0000
0000
,
0010
0000
0000
0000
,
0001
0000
0000
0000
,
0001
0000
0000
0001
,
0000
0000
0010
0000
,
0000
0100
0000
0000
,
0010
0000
0000
0010
,
0000
0000
1000
0000
,
0000
0000
0000
0000
,
1001
0000
0000
0000
,
0000
0000
1000
0000
,
0000
0000
0000
0000
,
0100
0000
0000
0000
,
0000
0000
0010
0000
,
0000
0000
0000
0000
,
0010
0000
0000
0000
,
0000
0000
0001
0000
,
0000
0000
0000
0000
,
0010
0000
0000
0000
,
0000
0000
0001
0000
,
0000
0000
0000
0000
,
0002
0000
0000
0000
,
0003
0000
0000
0000
,
0001
0000
0001
0000
,
0020
0000
0000
0000
,
0030
0000
0000
0000
,
0010
0000
0010
0000
,
1000
0000
0000
1000
,
0000
0100
0000
0000
,
1000
0000
1000
0000
,
0000
0000
0020
0000
,
0000
0000
0030
0000
,
0000
0000
0010
0000
,
0010
0000
0001
0000
,
0000
0000
0000
0000
,
0000
0000
0010
0000
,
0000
0000
0010
0000
,
0010
0000
1000
0000
,
0000
0000
0000
0000
,
0000
0000
2000
0000
,
0000
3000
0000
0000
,
1000
0000
0000
0100
,
0000
0000
0020
0000
,
0000
0030
0000
0000
,
0010
0000
0000
0010
,
0000
0000
0002
0000
,
0000
0003
0000
0000
,
0001
0000
0000
0100
,
0000
0000
0002
0000
,
0000
0003
0000
0000
,
0001
0000
0000
0001
,
0000
0000
0010
0000
,
0000
0010
0000
0000
,
0010
0000
0000
0000
,
0000
0000
1001
0000
,
0000
0000
0000
0000
,
1001
0000
0000
0000
,
0000
0000
1000
0000
,
0000
1000
0000
0000
,
0010
0000
0000
0000
,
0000
0000
1001
0000
,
0000
0000
0000
0000
,
1001
0000
0000
0000
,
0000
0000
0002
0000
,
0000
0000
0003
0000
,
0000
0000
2000
0000
,
0000
0000
3000
0000
,
0000
0000
0010
0000
,
0010
0000
0010
0000
,
0000
0000
0010
0000
,
0100
0000
0010
0000
,
0000
0000
1001
0000
,
0000
0000
0000
0000
;
#NOTES:
     dance-single:
     :
     Easy:
     8:
     :
0000
0000
0000
0000
,
0000
0000
0000
0000
,
0000
0000
0000
0000
,
0000
0000
0000
0000
,
0000
0000
0000
0000
,
0001
0100
0001
0100
,
0010
0100
0010
0000
,
1000
0100
1000
0100
,
0010
0100
0010
0000
,
0001
0010
0100
0000
,
1000
0010
0100
0000
,
0001
1000
0001
0100
,
0010
0100
0001
0000
,
1000
0010
1000
0010
,
0100
0010
0100
0000
,
0001
0010
0001
0010
,
0100
0010
0100
0000
,
1000
0100
0010
0000
,
0001
0100
0010
0000
,
1000
0001
1000
0010
,
0100
0010
1000
0000
,
1001
0000
0110
0000
,
1000
0010
0100
0000
,
1001
0000
0110
0000
,
0001
0010
0100
0000
,
1000
0100
0001
0000
,
0100
0000
1000
0000
,
0001
0100
1000
0000
,
0100
0000
0001
0000
,
1000
0000
0000
0100
,
0000
0000
0010
0000
,
0000
0000
0001
0000
0001
1000
0000
1000
,
0001
0000
0000
0100
,
0000
0000
0010
0000
,
0000
0000
1000
0000
1000
0001
0000
0001
,
1000
0000
0000
1000
,
0100
0010
0002
0000
,
0000
0003
0000
0001
,
1000
0000
0000
0001
,
0000
0001
0020
0000
,
0030
0200
0000
0300
,
0110
0000
0000
0001
,
0010
0100
1000
0000
,
0000
1000
0001
1000
,
0001
0000
0000
1000
,
0010
0100
0002
0000
,
0003
2000
0000
3000
,
1001
0000
0000
0000
,
0001
0100
0001
0010
,
0100
1000
0001
0000
,
1001
0000
0000
0000
,
1000
0100
1000
0010
,
0100
0001
1000
0000
,
1001
0000
0000
0110
,
0000
0110
0000
0000
,
1001
0000
1001
0000
,
0000
0000
2000
3000
,
0002
0003
1000
0010
,
1000
0000
1010
0000
,
1010
0000
1000
0100
,
1000
0000
1100
0000
,
1100
0000
0001
0010
,
0001
0000
0011
0000
,
0011
0000
0001
0100
,
0001
0000
0101
0000
,
0101
0000
0002
0000
,
0003
0001
0100
0100
,
0020
0000
0030
0010
,
1000
0010
2000
0000
,
3000
1000
0100
0010
,
0110
0000
0000
1001
,
0000
0000
2000
0000
,
3000
1000
0100
0100
,
0020
0000
0030
0010
,
0001
0010
0002
0000
,
0003
0001
0100
0010
,
0110
0000
0000
1001
,
0000
0000
0001
0100
,
0100
0001
0010
0100
,
1000
0001
0001
1000
,
0000
1000
0010
0100
,
0100
0001
0010
0001
,
2000
0000
3000
0002
,
0000
0003
1000
0010
,
0010
1000
0100
0010
,
0001
1000
1000
0001
,
0000
0001
0100
0010
,
0010
1000
0100
1000
,
0002
0000
0003
2000
,
0000
3000
1001
0000
,
0110
0000
1001
0000
,
0000
0000
1001
0000
,
0110
0000
1001
0000
,
0000
0000
0020
0000
,
0030
0000
0200
0000
,
0300
0000
0110
0000
,
1001
0000
1000
0100
,
0010
0001
2000
0000
,
0000
0000
0000
3000
0000
0000
0000
0000
,
0000
0000
0000
0000
;
#NOTES:
     dance-single:
     :
     Medium:
     14:
     :
0000
0000
0000
0000
,
0000
0000
0000
0000
,
0000
0000
0000
0000
,
0000
0000
0000
0000
,
0000
0000
0000
0000
,
0001
0000
0001
0100
0000
0100
0010
0000
0010
1000
0000
0000
,
1000
0000
1000
0100
0000
0100
0010
0000
0010
0001
0000
0000
,
0001
0000
0001
0010
0000
0010
1000
0000
1000
0010
0000
0010
,
0002
0203
0320
1030
,
1000
0000
1000
0100
0000
0100
0010
0000
0010
0001
0000
0000
,
0001
0000
0001
0100
0000
0100
0010
0000
0010
1000
0000
0000
,
1000
0000
1000
0010
0000
0010
0001
0000
0001
0010
0000
0010
,
2000
3200
0320
0031
,
0001
0000
0001
0010
0000
0010
0100
0000
0100
1000
0000
0000
,
1000
0000
1000
0010
0000
0010
0100
0000
0100
0001
0000
0000
,
0001
0000
0001
0100
0000
0100
1000
0000
1000
0100
0000
0100
,
0002
0023
0230
1300
,
1000
0000
1000
0010
0000
0010
0100
0000
0100
0001
0000
0000
,
0001
0000
0001
0010
0000
0010
0100
0000
0100
1000
0000
0000
,
1000
0000
1000
0100
0000
0100
0001
0000
0001
0100
0000
0100
,
2000
0000
0000
3000
,
1000
0001
1000
0001
0000
0000
0010
0000
0000
0100
0000
0000
,
2000
3001
0002
0103
,
0001
0010
0001
0010
0000
0000
0100
0000
0000
1000
0000
0000
,
0002
0103
0200
0310
,
1000
0010
1000
0010
0100
0001
0100
0001
,
0010
0001
0100
0010
1000
0100
0001
0100
,
1000
0100
1000
0100
0010
0001
0010
0001
,
0100
0010
1000
0100
0020
0000
0230
0000
,
1300
0000
0000
1000
0010
0100
0002
1000
,
1003
0000
0001
0000
0000
0000
0001
1000
0001
0000
0100
0000
0100
0000
1000
0000
,
0100
0100
0001
0010
0011
0001
0100
0101
,
2000
0000
3000
1000
1100
0110
0022
0000
,
0033
0001
0010
0001
0200
0000
0300
0110
,
0010
1000
1100
0100
0010
0011
0001
1000
,
1001
0000
0000
0000
0000
0000
0001
0100
,
0010
0100
0001
0010
0200
0000
1000
0000
,
1300
0000
0001
0100
0001
0000
1000
0100
,
0020
0000
0001
0000
0031
0000
0001
0100
,
0010
0000
1000
0000
0001
0100
1000
0000
,
0100
0001
1000
0100
0001
0000
0100
1000
,
0001
0000
0101
1001
,
1000
0100
0010
0001
0100
0000
0000
0000
,
0110
0000
1010
0000
1000
0001
1000
0000
,
0002
0010
0013
2000
,
0010
0000
3010
0000
0001
0010
0100
0000
,
1000
0000
0001
0100
0010
0000
1000
0000
,
1010
0000
0000
0010
0000
0000
1001
0000
,
2000
0000
3002
0000
0013
0001
0100
0010
,
1000
0100
0010
0001
0010
0100
1000
0000
,
1100
0000
0000
0100
0000
0000
0110
0000
,
0020
0000
0032
0000
1003
0100
0001
0100
,
1000
0001
0010
0001
0200
0000
0000
0000
,
0310
0000
0000
0010
0000
0000
1000
0000
,
1000
0000
0001
0000
0000
0001
0000
0000
,
0100
0010
0220
0000
,
0000
0330
2002
0000
,
0000
0000
0000
3003
0000
0000
1000
0000
1000
0100
0000
0100
,
0001
0000
0001
0100
0000
0100
1000
0000
0010
0100
0000
0001
,
1000
0000
0010
0100
0000
0000
0001
0000
0001
0100
0000
0100
,
1000
0000
1000
0100
0000
0100
0001
0000
0010
0100
0000
1000
,
0001
0010
0100
1000
0001
0100
0010
0100
,
0001
0010
0100
0010
0001
0100
0001
0100
,
0010
1000
0010
0000
1000
0100
0010
0100
,
1000
0010
0100
0010
2000
0000
0000
0000
,
0000
0000
3000
0000
1001
0000
1000
0100
,
0010
0001
2000
0000
0010
0000
3010
0000
,
1010
0000
0010
0100
0001
0100
0010
0000
,
1000
0100
0010
0001
2000
0000
3100
0010
,
0001
0000
0002
0000
0103
0010
1000
0000
,
0001
0100
1000
0100
0001
0000
1000
0100
,
0001
0100
1000
0000
1001
0000
0001
0010
,
0100
1000
0002
0000
0100
0000
0103
0000
,
0101
0000
0100
0010
1000
0010
0100
0000
,
0001
0010
0100
1000
0002
0000
0013
0100
,
1000
0000
2000
0000
3010
0100
0001
0000
,
1000
0010
0001
0010
1000
0000
0001
0010
,
1000
0010
0001
0000
1000
0010
1000
0001
,
1000
0010
0100
0000
0001
0010
1000
0010
,
0001
0000
0100
0010
1000
0010
0100
0000
,
1000
0100
0001
1000
0100
0000
0010
0001
,
0100
0001
0010
0000
0100
1000
0010
1000
,
0100
0010
0001
0000
0011
0000
0001
0100
,
0010
0000
1010
0000
1000
0010
0100
0001
,
1000
0010
0100
0000
0001
1000
0100
1000
,
0001
0100
0010
1000
0100
0010
0002
0000
,
0023
0000
0230
0000
1300
0001
0010
1000
,
0010
0001
1000
0010
0001
0010
1000
0001
,
0010
0100
1000
0000
1010
0000
1000
0100
,
0010
0011
0002
0013
,
0020
0130
0200
1300
,
1100
0000
0100
1000
0000
0010
2000
0000
0000
3010
0000
0000
,
0020
0130
0200
0301
,
1000
0000
0001
0000
1000
0000
0001
0010
0001
0010
0001
0010
,
0001
0000
1000
0000
0001
0000
1000
0010
1000
0010
1000
0010
,
1000
0000
0001
0000
1000
0000
0100
0000
0000
0110
0000
0000
,
0011
1001
2000
0010
,
0100
0100
0002
0000
,
0000
0000
0000
3003
0000
0000
0000
0000
,
0000
0000
0000
0000
;
#NOTES:
     dance-single:
     :
     Hard:
     17:
     :
0000
0000
0000
0000
,
0000
0000
0000
0000
,
0000
0000
0000
0000
,
0000
0000
0000
0000
,
0000
0000
0000
0000
,
0001
0000
0000
1000
0000
0000
0220
0000
,
0000
0000
0000
0330
,
1000
0000
1000
0010
0100
0010
0100
0000
0001
1000
0001
1000
,
0200
0000
0000
0302
0000
0000
0203
0000
,
1300
0000
0000
0010
0000
0000
2002
0000
,
0000
0000
0000
3003
,
0001
0000
0001
0010
0100
0010
0100
0000
1000
0001
1000
0001
,
0200
0000
0000
2300
0000
0000
3200
0000
,
0301
0000
0000
0010
0000
0000
2200
0000
,
0000
0000
0000
3300
,
1000
0000
1000
0100
0010
0001
0010
0100
1000
0001
0010
0100
,
2000
0000
0000
3020
0000
0000
2030
0000
,
3002
0000
0000
0000
0000
0000
0003
0000
0000
0001
0100
1000
,
0200
0000
0000
0000
0000
0000
0300
0000
0000
0001
0010
1000
,
0020
0000
0000
0000
,
0000
0000
0000
0000
,
0031
1000
0001
1000
0001
1000
0100
0010
0100
0010
0100
0010
,
0001
0000
0000
0000
0010
0000
0000
0000
0001
0000
0000
0000
0010
0000
0000
0000
0001
0000
0000
0000
0010
0000
0000
0000
0100
0000
0000
0000
1000
0000
0000
0000
0100
0000
0000
0000
1000
0000
0000
0001
0000
0000
1000
0000
0000
0001
0000
0000
,
1000
0001
1000
0001
1000
0001
0100
0010
0100
0010
0100
0010
,
1000
0000
0000
0000
0010
0000
0000
0000
1000
0000
0000
0000
0010
0000
0000
0000
1000
0000
0000
0000
0010
0000
0000
0000
0100
0000
0000
0001
0000
0000
0100
0000
0000
0000
0000
0000
0001
0000
0000
1000
0000
0000
0001
0000
0000
1000
0000
0000
,
0001
0000
1000
0100
0010
0000
0100
0010
0001
0000
1000
0010
0100
0000
0010
0100
,
0001
0000
1000
0010
1000
0000
0001
0010
0001
0000
1000
0100
1000
0000
0001
0100
,
0001
0000
0010
0001
0100
0000
0010
1000
0100
0000
0010
0100
1000
0000
0010
0100
,
0001
0000
0100
0001
0010
0000
0100
1000
0010
0000
0100
0001
1000
0000
0100
0010
,
0002
0000
0000
0000
0003
0000
0011
0000
0101
0000
0110
0000
1010
0000
0010
1000
,
0010
1000
0100
0000
0001
0100
1000
0100
0020
0000
1000
0000
0031
0000
0011
0000
,
1010
0000
1100
0000
1000
0100
0010
0000
0011
0000
0001
0100
0010
0000
1010
0000
,
2002
0000
0000
0000
3003
0000
1000
0010
0100
0001
0010
0100
0220
0000
0000
0000
,
0330
0000
0001
1000
0100
0010
0001
0100
0020
0000
1000
0000
1000
0000
0130
0000
,
0101
0000
0011
0000
0010
0100
1000
0000
1010
0000
0010
0100
0001
0000
0011
0000
,
0010
0100
1000
0010
1000
0100
0020
0000
,
1000
0000
0100
0000
0031
0100
1000
0100
,
0001
1000
0002
0000
0010
0000
1003
0001
,
0100
0010
0100
1000
0100
0001
0020
0000
,
0100
1000
0032
0203
,
1000
0320
0001
1030
,
0001
0100
0010
1000
0010
0100
0001
0000
,
0011
0000
0110
0000
1100
1000
0010
0100
,
0001
0010
0002
0000
0100
0000
0013
0000
,
0011
0001
1000
0010
1000
0000
1010
0010
,
0100
0001
1000
0000
1100
0000
0110
0000
,
0011
0000
0000
0000
1001
0000
0000
0000
1000
0100
1000
0100
0010
0001
0010
0001
,
1000
0000
0000
1010
0000
0000
2002
0000
,
0000
0000
3003
0000
0001
0100
1000
0100
,
0001
0000
0010
0000
0100
1000
0100
0000
1000
0010
1000
0010
0100
0001
0100
0000
,
0001
0000
0000
0101
0000
0000
2002
0000
,
0000
0000
0000
0000
3003
0000
0000
0000
1000
0000
0010
0000
0001
0000
0010
1000
,
0010
0100
0001
0000
0010
0001
0010
0000
0001
0000
0100
0000
0010
0000
1000
0000
,
0001
0000
0000
0100
0000
0000
1000
0000
,
0100
0000
0001
0000
0000
1000
0000
0000
,
0100
0010
0100
0010
0001
0010
0002
0000
0000
0000
0000
0000
,
0000
0000
0000
0000
0003
0000
0000
0000
0001
0010
0100
1000
0001
0100
0010
1000
,
0001
0000
0000
1000
0000
0000
0001
0000
0000
1000
0000
0000
0001
0000
0000
1000
0000
0000
0001
0000
0000
1000
0000
0000
0001
0000
0000
0000
0010
0000
0000
0000
0001
0000
0000
0000
0100
0000
0000
0000
0001
0000
0000
0000
0100
0000
0000
0000
,
0010
1000
0010
1000
0100
1000
0001
0100
0010
1000
0100
0010
,
0001
0000
0000
0000
0010
0000
0000
0000
0100
0000
0000
0000
1000
0000
0000
0010
0000
0000
1000
0000
0000
0010
0000
0000
1000
0000
0000
0000
0010
0000
0000
0000
1000
0000
0000
0000
0100
0000
0000
0000
1000
0000
0000
0000
0100
0000
0000
0000
,
0010
0001
0010
0001
0100
0001
1000
0100
0010
0001
0100
0010
,
1000
0010
1000
0010
0100
0010
0100
0010
1000
0000
0100
0010
0001
0000
0010
0100
,
0001
0000
0100
1000
0100
0000
1000
0010
0100
0000
0001
0010
0100
0000
1000
0010
,
1000
0000
0001
0100
0010
0000
1000
0100
0010
0000
1000
0010
0100
0000
1000
0001
,
0100
0000
1000
0100
0010
0000
1000
0100
0020
0000
0000
0000
0000
0000
0000
0000
,
0000
0000
0000
0030
0000
0000
0001
0010
1000
0010
0001
0100
,
0010
1000
0001
0100
0000
0000
0110
0000
0000
1010
0000
0000
,
1000
0100
0001
0100
1000
0001
0100
0010
1000
0001
0000
0000
,
0100
0000
0000
0001
0000
0000
1000
0000
0000
0010
0000
0000
0100
0000
1000
0000
0100
0000
0001
0000
1000
0000
0100
0000
,
0010
0001
0100
0001
0010
1000
0001
0100
1000
0001
0010
0100
,
1000
0010
1010
0001
,
0010
0000
0000
0011
0000
0000
0001
0100
0010
0001
1000
0100
,
0010
0000
1000
0000
0001
0000
0100
0000
0000
0000
0000
0000
0010
0000
0000
1000
0000
0000
0100
0000
0000
1000
0000
0000
,
0010
0100
1000
0100
0001
0100
0010
1000
0100
1000
0000
0000
,
1010
0000
0000
0011
0000
0000
0001
0100
0001
0010
0001
0010
,
0100
1000
0100
1000
0010
1000
0001
0100
0001
0010
0100
0010
,
0001
0100
0110
1001
,
1000
0000
0000
0001
0000
0000
1000
0000
0000
0001
0000
0000
1000
0000
0000
0000
0000
0000
0001
0000
0000
0000
0000
0000
1000
0000
0000
0000
0100
0000
0000
0000
0001
0000
0000
0000
1000
0000
0000
0000
0010
0000
0000
0000
0001
0000
0000
0000
,
1000
0100
0010
0002
0000
0000
0000
0000
0000
0003
0000
0000
,
1000
0010
0001
1000
0100
0001
1000
0010
0100
0002
0000
0000
,
1000
0000
0000
0000
0000
0000
1003
0000
0000
0010
0000
0000
0100
0000
0001
0000
1000
0000
0100
0000
0010
0000
1000
0000
,
0010
0001
1000
0200
0000
0000
0001
0000
0000
0010
0000
0000
,
1300
0010
0100
1000
0001
0010
0100
0001
0010
0100
0001
1000
,
0010
0100
1000
0010
0100
1000
0100
0000
0000
0001
0010
0100
,
1000
0010
0100
0002
0000
0000
0000
0000
0000
0003
0000
0000
,
0001
0000
0000
1000
0010
0100
0001
0010
0100
2000
0000
0000
,
0010
0000
0000
3010
0000
0000
1000
0010
0100
1000
0100
0010
,
1000
0100
0010
1000
0010
0100
1000
0010
0100
0001
0010
0100
,
1000
0010
0100
0001
1000
0010
0100
0001
1000
0010
0100
0010
,
1000
0010
1000
0001
1000
0001
0010
0000
0000
0010
0001
0100
,
0010
0000
0000
0010
1000
0100
0001
0000
0000
0001
0100
1000
,
0001
0100
0001
1000
0010
1000
0010
0000
0000
0010
1000
0100
,
0010
0000
0000
0010
0001
0100
1000
0000
0000
1000
0100
0001
,
1000
0000
0010
0000
0100
0000
0001
0100
0100
0001
0100
0100
,
0001
0000
0010
0000
0100
0000
1000
0100
0100
1000
0100
0100
,
1000
0000
0000
0000
0000
0000
0000
0000
0010
0000
0000
0000
0000
0000
0000
0000
0100
0000
0000
0000
0000
0000
0000
0000
0001
0000
0000
0010
0000
0000
0100
0000
0000
1000
0000
0000
0001
0000
0000
0010
0000
0000
0100
0000
0000
1000
0000
0000
,
0001
0010
0100
1000
0001
0010
0100
1000
0001
0000
0000
0000
0011
0000
0000
0000
,
0101
0110
2002
0000
,
0000
0000
0000
3003
0000
0000
0000
0000
,
0000
0000
0000
0000
;
#NOTES:
     dance-single:
     :
     Challenge:
     18:
     :
0000
0000
0000
0000
,
0000
0000
0000
0000
,
0000
0000
0000
0000
,
0000
0000
0000
0000
,
0000
0000
0000
0000
,
0002
0000
0003
0020
0000
0030
0220
0000
,
0000
0000
0000
0000
,
0000
0000
0000
0000
0000
0000
0330
0000
0000
0100
1000
0010
,
0200
0000
0000
0320
0000
0000
0230
0000
,
0302
0000
0003
2000
0000
3000
2002
0000
,
0000
0000
0000
0000
,
0000
0000
0000
0000
0000
0000
3003
0000
0000
1000
0100
0010
,
0002
0000
0000
0203
0000
0000
0320
0000
,
2030
0000
3000
0020
0000
0030
0220
0000
,
0000
0000
0000
0000
,
0000
0000
0000
0000
0000
0000
0330
0000
0000
0100
0001
0010
,
0200
0000
0000
0320
0000
0000
0032
0000
,
2003
0000
0000
0000
0000
0000
3000
0000
0000
0001
0100
0100
,
2000
0000
0000
0000
0000
0000
3000
0000
0000
1000
0100
0100
,
0002
0000
0000
0000
,
0000
0000
0000
0000
,
1003
0100
0010
0001
0100
0010
1000
0100
0001
0100
1000
0001
,
1000
0000
0000
0000
0010
0000
0000
0000
0100
0000
0000
0000
0001
0000
0000
0000
0010
0000
0000
0000
0100
0000
0000
0000
1000
0000
0000
0000
0010
0000
0000
0000
0001
0000
0000
0000
0010
0000
0000
0100
0000
0000
0010
0000
0000
0100
0000
0000
,
0010
1000
0100
0010
0001
0100
0010
0100
0001
0010
0100
1000
,
0001
0000
0000
0000
0100
0000
0000
0000
1000
0000
0000
0000
0100
0000
0000
0000
0001
0000
0000
0000
1000
0000
0000
0000
0001
0000
0000
0010
0000
0000
0001
0000
0000
0010
0000
0000
0100
0000
0000
1000
0000
0000
0100
0000
0000
1000
0000
0000
,
0002
0000
0103
0001
0020
0000
0130
1000
0020
0000
1030
0100
0020
0000
0031
0100
,
0020
0000
1030
0010
0200
0000
0301
0010
0200
0000
0310
0001
0200
0000
0310
1000
,
0100
1000
0100
1000
0001
0100
0001
0100
0010
1000
0010
1000
0001
0010
0001
0010
,
0001
0100
0010
1000
0001
0100
0010
1000
0001
0010
0100
1000
0001
0010
0100
1000
,
0002
0000
0000
0000
0003
0000
0202
0300
2000
0003
3200
0000
2300
3000
0100
1000
,
0010
0100
0001
0010
1000
0010
0001
0100
0010
1000
0100
0010
0100
0000
0110
0000
,
0011
0000
0000
0000
0000
0000
1001
0000
0000
0000
0000
1000
0001
1000
0000
0000
0000
0000
1010
0000
0000
0000
0000
0000
0101
0000
0000
0000
0000
0000
0001
0000
0000
0100
0000
0000
0010
0000
0000
0100
0000
0000
0010
0000
0000
1000
0000
0000
,
2002
3003
1000
0100
0010
0000
0011
0000
0110
0000
1100
0000
2002
3003
0001
0100
,
0010
0000
1010
0000
0110
0000
0101
0000
2002
3003
1000
0100
0001
0000
0110
0000
,
0011
0000
1001
0000
1000
0010
0100
0001
1001
0000
0001
0010
0100
1000
1001
0000
,
0001
0100
0010
0100
1000
0100
0220
0330
,
2020
3030
2002
3003
1000
0100
0010
0100
,
0001
0100
0220
0330
0022
0033
0001
1000
,
0010
0100
0001
1000
0100
0010
0002
0003
,
0200
0000
0000
0300
0000
0000
0020
0000
0000
0030
0000
1000
0001
1000
0000
0000
0000
0000
2200
0000
0000
3300
0000
0000
,
0022
0033
0002
0203
0320
2030
3200
0300
,
2100
0000
3100
1000
0010
0100
0002
0003
,
0202
0303
0220
0330
2020
0030
0001
0000
,
3001
0000
0022
0033
2002
3003
2200
3300
,
1000
0100
0001
0100
0010
0001
0022
0033
,
0220
0330
2200
3300
2020
3030
0220
0330
,
0202
0000
0303
0000
2002
0000
3003
0000
0001
0010
0100
1000
0001
0010
0100
1000
,
0001
0000
0000
0000
0000
0000
0000
0000
0000
0000
0000
0000
1001
0000
0000
0000
0000
0000
0000
0000
0000
0000
0000
0000
0001
0000
0000
0000
0100
0001
0000
0000
,
0000
0000
0000
0000
0000
0000
0000
0100
0010
0000
0000
0000
0000
0000
1000
0010
0000
0000
0000
0000
0000
0000
0000
0000
1000
0000
0000
0000
0010
0000
0000
0000
,
0100
0000
0001
0000
0010
0000
0200
0000
1300
0100
1000
0001
0100
0001
1000
0000
,
0001
0000
0000
0000
0000
0000
0000
0000
0000
0000
0000
0000
1001
0000
0000
0000
0000
0000
0000
0000
0000
0000
0000
0000
1000
0000
0000
0000
0100
1000
0000
0000
,
0000
0000
0000
0000
0000
0000
0000
0100
0010
0000
0000
0000
0000
0000
0001
0010
0000
0000
0000
0000
0000
0000
0000
0000
0002
0000
0000
0000
0103
0000
0001
0000
,
0100
0000
0020
0000
1030
0010
1000
0000
0002
0000
0023
0000
0230
0000
2300
0000
,
3001
0000
0000
0001
0000
0000
0100
0000
,
0010
0000
1000
0000
0000
0001
0000
0000
,
1000
0100
0100
0001
0100
0100
2000
0000
0000
0000
0000
0000
,
0000
0000
0000
0000
0000
0000
3000
0000
0000
0000
0000
0000
0001
0100
0001
0100
0001
0200
0002
0000
0000
0300
0003
0000
,
1000
0100
1000
0100
1000
0200
2000
0000
0000
0300
3000
0000
0001
0000
0010
0000
0001
0000
1000
0000
0010
0000
1000
0000
,
0001
0100
0001
1000
0100
1000
0001
0100
0010
1000
0100
0010
,
0001
0000
0000
0000
0100
0000
0000
0000
1000
0000
0000
0000
0100
0000
0000
0010
0000
0000
0100
0000
0000
0010
0000
0000
0100
0000
0000
0000
0001
0000
0000
0000
0010
0000
0000
0000
0100
0000
0000
0000
1000
0000
0000
0000
0010
0000
0000
0000
,
1000
0100
0010
0001
0100
0010
0100
0001
0010
0100
1000
0010
,
1000
0010
0100
0001
1000
0010
0100
0001
2000
0000
3010
1000
0200
0000
0310
0001
,
0200
0000
0301
0100
0020
0000
1030
0100
0020
0000
0031
0010
0200
0000
1300
0010
,
0200
0000
0302
0000
2003
0000
3001
0000
1000
0100
0010
0001
1000
0100
0010
0001
,
1000
0000
0000
0010
0000
0000
0100
0000
0000
0001
0000
0000
1000
0000
0000
0010
0000
0000
0100
0000
0000
0001
0000
0000
1000
0000
0000
0000
0100
0000
0000
0000
0100
0000
0000
0000
0001
0000
0000
0000
0100
0000
0000
0000
0100
0000
0000
0000
,
2000
0000
0000
3000
0000
0000
0001
0100
0010
1000
0100
0010
,
0001
0100
1000
0100
0001
1000
0001
0010
0100
0110
0000
0000
,
1000
0100
0010
0001
0100
0010
1000
0100
0001
0100
1000
0001
,
1000
0010
0100
0110
0000
0000
0010
1000
0100
0010
0001
0100
,
0001
0010
1000
0010
0001
0100
0010
1000
0100
1000
0010
0001
,
0010
0100
0001
0010
0100
0001
0100
0010
0001
0100
0010
0001
,
0010
0100
0010
0110
0000
0000
1000
0100
0010
0001
0100
0010
,
1000
0100
0001
0100
1000
0001
1000
0010
0100
0110
0000
0000
,
0001
0100
0010
1000
0100
0010
0001
0100
1000
0100
0001
1000
,
0001
0010
0100
0110
0000
0000
0010
0001
0100
0010
1000
0100
,
1000
0010
0001
0010
1000
0100
0010
0001
0100
0001
0010
1000
,
0010
0100
1000
0010
0100
1000
0100
0010
1000
0100
0010
1000
,
0010
0000
0000
0100
0000
0000
0010
0000
0000
0100
0000
0000
0010
0000
0000
0000
0000
0000
0000
0000
0000
0000
0000
0000
0001
0000
0000
0000
0010
0000
0000
0000
0100
0000
0000
0000
1000
0000
0000
0000
0010
0000
0000
0000
0100
0000
0000
0000
,
0001
0010
1000
0020
0000
0000
0100
0000
0000
0031
0000
0000
,
1000
0000
0010
0000
0100
0000
0001
0000
0010
0000
0100
0000
1000
0000
0010
0000
0001
0000
0020
0000
0000
0030
0000
0000
,
0220
0000
0000
0330
0000
0000
2020
0000
0000
3030
0000
0000
1000
0000
0010
0000
0100
0000
0001
0000
0010
0000
0100
0000
,
1000
0010
0001
0020
0000
0000
0001
0000
0000
0130
0000
0000
,
0010
0100
0001
0010
0100
0001
0100
1000
0001
0100
0010
1000
,
0100
0010
1000
0010
0001
1000
1001
0000
0000
1000
0010
0100
,
0001
0010
0100
2000
0000
0000
0100
0000
0000
3001
0000
0000
,
1000
0000
0100
0000
0001
0000
0100
0000
0010
0000
0001
0000
0100
0000
1000
0000
0100
0000
2000
0000
0000
3000
0000
0000
,
0220
0000
0000
0330
0000
0000
0202
0000
0000
0303
0000
0000
0001
0000
0100
0000
0010
0000
0001
0000
0010
0000
1000
0000
,
0001
0010
1000
0010
0100
0010
1000
0010
0001
1000
0010
0001
,
0020
0130
0001
0020
0130
0001
0200
1300
0010
0200
0310
1000
,
0200
0310
1000
0020
0031
1000
1001
0000
0000
0001
0100
0010
,
0110
0000
0000
1000
0100
0010
0110
0000
0000
0001
0100
0010
,
1000
0100
0010
0001
0100
0010
0110
0000
0000
1000
0010
0100
,
0110
0000
0000
0001
0010
0100
0110
0000
0000
1000
0001
1000
,
1001
0000
0000
0000
0001
0000
0000
0000
1000
0000
0000
0000
0001
0100
0001
0100
0001
0200
0002
0000
0000
0000
0000
0300
,
0003
0000
0000
0000
1000
0000
0000
0000
0001
0000
0000
0000
1000
0100
1000
0100
1000
0200
2000
0000
0000
0000
0000
0300
,
3000
0000
0000
0000
0000
0000
0000
0000
0000
0000
0000
0000
0000
0000
0000
0000
0001
0000
0000
0000
0000
0000
0000
0000
0000
0000
0000
0000
0000
0000
0000
0000
1000
0000
0000
0000
0000
0000
0000
0000
0000
0000
0000
0000
0000
0000
0000
0000
0001
0000
0000
0100
0000
0000
0000
0000
0000
0000
0000
0000
0000
0000
0000
0000
0000
0000
0000
0000
0000
0000
0000
0000
0010
0000
0000
0100
0000
0000
0000
0000
0000
0000
0000
0000
0000
0000
0000
0000
0000
0000
0000
0000
0000
0000
0000
0000
,
0010
1000
0000
0000
0000
0000
0000
0000
0001
1000
0000
0000
0000
0000
0000
0000
0001
0000
0000
0000
0000
0000
0000
0000
0011
0000
0000
0000
0000
0000
0000
0000
,
0101
1010
2200
0000
,
0000
0000
0000
0000
0300
3000
0000
0000
0000
0000
0000
0000
0000
0000
0000
0000
;
#NOTES:
     dance-double:
     :
     Easy:
     8:
     :
00000000
00000000
00000000
00000000
,
00000000
00000000
00000000
00000000
,
00000000
00000000
00000000
00000000
,
00000000
00000000
00000000
00000000
,
00000000
00000000
00000000
00000000
,
00011000
00000000
00011000
00000000
,
00001000
00010000
00001000
00010000
,
00100000
00000000
10100000
00000000
,
10000000
00100000
01000000
00000000
,
10010000
00000000
10010000
00000000
,
10000000
01000000
10000000
01000000
,
00020000
00000000
00031000
00000000
,
00002000
00010000
00013000
00000000
,
00011000
00000000
00011000
00000000
,
00010000
00001000
00010000
00001000
,
00000010
00000000
00000011
00000000
,
00000001
00000010
00000100
00000000
,
00001001
00000000
00001001
00000000
,
00000001
00000100
00000001
00000100
,
00002000
00000000
00013000
00000000
,
00020000
00001000
00031000
00000000
,
00001000
00010000
00001000
01000000
,
00010000
01000000
00010000
00000000
,
10000000
01000000
10000000
01000000
,
00100000
00010000
00100000
00000000
,
00010000
00100000
00010000
00100000
,
00001000
00010000
00001000
00000000
,
00010000
00000010
00010000
00000010
,
00001000
00000010
00001000
00000000
,
00000002
00000000
00000003
00000200
,
00000000
00000300
00002000
00000000
,
00003000
00000000
00010000
00000000
00000000
00100000
00000000
00000000
,
20000000
00000000
30000000
02000000
,
00000000
03000000
00020000
00000000
,
00030000
00000000
00001000
00000000
00000000
00000010
00000000
00000000
,
00000001
00001000
00001000
00000001
,
00000000
00000001
00000100
00000010
,
00000010
00001000
00000000
00001000
,
00000100
00000000
00000100
00010000
,
00000000
00010000
00002000
00000000
,
00003000
00020000
00000000
00030000
,
00011000
00000000
00000000
00001000
,
00010000
00100000
10000000
00000000
,
00000000
00010000
10000000
00010000
,
10000000
00000000
00000000
10000000
,
01000000
01000000
00200000
00000000
,
00300000
00002000
00000000
00003000
,
00011000
00000000
00000000
00000000
,
00000000
00000000
00001000
00010000
,
00000100
00001000
00000010
00000000
,
00000110
00000000
00000000
00000000
,
00000000
00000000
00000001
00000010
,
00000100
00010000
00001000
00000000
,
00011000
00000000
00000000
00001000
,
00010000
00001000
00000000
00000000
,
00001000
00010000
00100000
00000000
,
00000000
00000000
02200000
00000000
,
00000000
03300000
10000000
00000000
,
01000000
00000000
00010000
00001000
,
00010000
00000000
00001000
00000000
,
00000010
00000000
00000001
00001000
,
00000001
00000000
00000001
00000000
,
00000100
00000000
00001000
00010000
,
00001000
00000000
00010000
00100000
,
10000000
00010000
20000000
00000000
,
30000000
00000000
20000000
00000000
,
30000000
10000000
01000000
00100000
,
00200000
00000000
00300000
00100000
,
00001000
00010000
00002000
00000000
,
00003000
00001000
00010000
00000100
,
00001000
00000000
00001000
00000010
,
00000000
00000010
00000200
00000000
,
00000300
00000100
00000001
00000010
,
00000002
00000000
00000003
00000001
,
00001000
00001000
00000200
00000000
,
00000300
00000100
00010000
00001000
,
00010000
00000000
00010000
00001000
,
00000000
00001000
00010000
00000000
,
00000000
00001000
00100000
00010000
,
01000000
00000000
00000000
00010000
,
10000000
01000000
00100000
00000000
,
00000000
00010000
10000000
00010000
,
00100000
00001000
00001000
00010000
,
00000100
00000100
00002000
00000000
,
00003000
00001000
00000001
00000010
,
00000200
00000000
00000000
00000310
,
00000001
00000100
00000020
00000000
,
00000030
00000010
00001000
00001000
,
00000100
00010000
00001000
00010000
,
00001000
01000000
00010000
00000000
,
10010000
00000000
10000000
00100000
,
00010000
00000000
00001000
00000000
,
00011000
00000000
00001000
00000100
,
00000001
00000000
00000020
00000000
,
00000030
00000000
00000200
00000000
,
00000300
00000000
00000110
00000000
,
00001001
00000000
00000001
00000100
,
00001000
00010000
00002000
00000000
,
00000000
00000000
00000000
00003000
00000000
00000000
00000000
00000000
,
00000000
00000000
00000000
00000000
;
#NOTES:
     dance-double:
     :
     Medium:
     14:
     :
00000000
00000000
00000000
00000000
,
00000000
00000000
00000000
00000000
,
00000000
00000000
00000000
00000000
,
00000000
00000000
00000000
00000000
,
00000000
00000000
00000000
00000000
,
00002000
00000000
00000000
00023000
00000000
00000000
00031000
00000000
00001000
00100000
00000000
00100000
,
00020000
00000000
00000000
02030000
00000000
00000000
03100000
00000000
00100000
10000000
00000000
10000000
,
02000000
00000000
00000000
03200000
00000000
00000000
01300000
00000000
01000000
00010000
00000000
00010000
,
00002000
00003020
00000230
00001300
,
00000002
00000000
00000000
00000203
00000000
00000000
00000310
00000000
00000010
00010000
00000000
00010000
,
00002000
00000000
00000000
00023000
00000000
00000000
00030100
00000000
00000100
00000010
00000000
00000010
,
00002000
00000000
00000000
00023000
00000000
00000000
01030000
00000000
01000000
10000000
00000000
10000000
,
00020000
02030000
23000000
31000000
,
00010000
00000000
00010000
10000000
00000000
10000000
01000000
00000000
01000000
00100000
00000000
00100000
,
00001000
00000000
00001000
00010000
00000000
00010000
00000100
00000000
00000100
00001000
00000000
00000000
,
00000001
00000000
00000001
00000100
00000000
00000100
00000010
00000000
00000010
00010000
00000000
00010000
,
00001000
00000000
00001000
01000000
00000000
01000000
00010000
00000000
00010000
10000000
00000000
00000000
,
00010000
00000000
10000000
01000000
00000000
01000000
00100000
00000000
00100000
00001000
00000000
00000000
,
00010000
00000000
00000010
00001000
00000000
00001000
00000100
00000000
00000100
00000010
00000000
00000000
,
00000001
00000000
00000001
00000100
00000000
00000100
00001000
00000000
00001000
00010000
00000000
00010000
,
00002000
00000000
00000000
00003000
,
00010000
00001000
00010000
00001000
00000000
00000000
01000000
00000000
00000000
00010000
00000000
00000000
,
00200000
00320000
02030000
03200000
,
10300000
00010000
10000000
00010000
00000000
00000000
10000000
00000000
00000000
01000000
00000000
00000000
,
00020000
00032000
00003020
00000032
,
00001003
00000100
00001000
00000100
00000010
00000001
00000100
00000000
,
00000001
00000100
00001000
00000000
00010000
00001000
00010000
00000000
,
00001000
01000000
00001000
00010000
00001000
01000000
00010000
00000000
,
00100000
00010000
01000000
00000000
00200000
00000000
00000000
00000000
,
10300000
00000000
00000000
10000000
01000000
01000000
00200000
00000000
,
00300000
00000000
00100000
00000000
00001000
00000000
00001000
00010000
00001000
00000000
00010000
00000000
00010000
00000000
00000100
00000000
,
00001000
00001000
00000100
00000010
00000011
00000001
00000100
00000110
,
00000020
00000000
00000000
00000000
00000030
00000000
00000010
00001000
00000010
00010000
00001000
00000000
00020000
00000000
00000000
00000000
,
00030000
00000000
00010000
00001000
01000000
00010000
01000000
00000000
00200000
00000000
00000000
00000000
00300000
00000000
10100000
00000000
,
10000000
01000000
11000000
10000000
01000000
00010000
00001000
00000010
,
00000011
00000000
00000000
00000000
00000000
00000000
00000001
00000100
,
00000010
00000000
00001000
00000100
00000020
00000000
00000001
00000000
,
00000031
00000000
00000001
00001000
00000100
00001000
00000100
00010000
,
00002000
00000000
00010000
00000000
00013000
00000000
00010000
00001000
,
00010000
00000000
00001000
00010000
00100000
00000000
10000000
00000000
,
10100000
00100000
01000000
01010000
,
10010000
00000000
00010000
10000000
01000000
00100000
00010000
00000000
,
00100000
00001000
00010000
00000000
00011000
00000000
00001000
00010000
,
00001000
00000000
00010000
00001000
00010000
00000000
00010000
00001000
,
00000020
00000001
00000031
00000002
,
00000100
00000000
00000103
00000000
00000001
00000010
00000100
00000000
,
00001000
00000000
00000001
00000100
00001000
00000000
00010000
00000000
,
00011000
00000000
00000000
00001000
00000000
00000000
00011000
00000000
,
00020000
00000000
00032000
00000000
00013000
00001000
00100000
00010000
,
01000000
00100000
10000000
01000000
00100000
00010000
01000000
00000000
,
01100000
00000000
00000000
00100000
00000000
00000000
01100000
00000000
,
20000000
00000000
30020000
00000000
01030000
00010000
00100000
00001000
,
00010000
00000100
00001000
00000010
00000200
00000000
00000000
00000000
,
00000301
00000000
00000000
00000001
00000000
00000000
00001000
00000000
,
00001000
00000000
00000100
00000000
00000000
00000010
00000000
00000000
,
00001000
00010000
00022000
00000000
,
00000000
00033000
00001000
00010000
,
01000000
00000000
00000000
10000000
00000000
00000000
00010000
00000000
00010000
10000000
00000000
10000000
,
01000000
00000000
01000000
00100000
00000000
00100000
00001000
00000000
00001000
00010000
00000000
00010000
,
00000100
00000000
00000010
00000001
00000000
00000000
00001000
00000000
00001000
00000001
00000000
00000001
,
00000100
00000000
00000100
00000010
00000000
00000010
00010000
00000000
00010000
00001000
00000000
00001000
,
01000000
00100000
10000000
00000000
00010000
10000000
01000000
00100000
,
00010000
01000000
00100000
00010000
00001000
00000010
00000100
00000000
,
00001000
00000010
00000100
00000000
00000001
00000010
00000100
00001000
,
00000010
00000100
00001000
00010000
00200000
00000000
00000000
00000000
,
00000000
00000000
00300000
00000000
10010000
00000000
10000000
01000000
,
10000000
00000000
01000000
00100000
00010000
00000000
00100000
00001000
,
00010000
00000000
00011000
00000000
00001000
00010000
00000100
00000000
,
00001000
00000010
00001000
00000100
00000010
00000001
00001000
00000000
,
00000001
00000100
00001000
00000000
00000100
00001000
00010000
00000000
,
00200000
00000000
10000000
00000000
10300000
00000000
00010000
01000000
,
10000000
01000000
00010000
00000000
10010000
00000000
10000000
00100000
,
10000000
01000000
20000000
00000000
00100000
00000000
30100000
00000000
,
10000000
01000000
00100000
00000000
00010000
01000000
00100000
00000000
,
01000000
00010000
01000000
00001000
00010000
00000000
00000100
00001000
,
00000010
00000000
00000100
00000001
00000010
00000000
00000001
00001000
,
00000010
00000100
00000001
00000000
00000011
00000000
00000010
00001000
,
00000010
00001000
00010000
00000000
00011000
00000000
00001000
00100000
,
00001000
01000000
00010000
00100000
00010000
01000000
00100000
00000000
,
10100000
00000000
10000000
01000000
00100000
00010000
01000000
00100000
,
10000000
00000000
01000000
00010000
01000000
00000000
00010000
00001000
,
00010000
00001000
00000010
00000001
00000010
00000000
00000001
00001000
,
00000100
00000000
00001000
00000000
00001100
00000000
00000100
00001000
,
00000100
00010000
00001000
00000000
00011000
00000000
00010000
00001000
,
00010000
00001000
01000000
00000000
00010000
01000000
00100000
10000000
,
00010000
00000000
10000000
00100000
00010000
00000000
00002000
00000000
,
00003200
00000000
00000302
00000000
00001003
00000100
00000010
00000001
,
00000100
00000000
00000001
00000010
00000100
00001000
00000010
00000100
,
00001000
00000000
00010000
00000000
00110000
00000000
00100000
10000000
,
00010000
00000000
00000000
10010000
00000000
00000000
10000000
00000000
10000000
01000000
00000000
00000000
,
00010000
00000000
00010000
00001000
00000000
00000000
00000010
00000000
00000010
00000001
00000000
00000000
,
00000110
00000000
00000000
00001001
00000000
00000000
00000001
00000000
00000001
00000100
00000000
00000000
,
00001000
00000000
00001000
00010000
00000000
00000000
00100000
00000000
00100000
10000000
00000000
00000000
,
00100000
00000000
10000000
00000000
00010000
00000000
10000000
01000000
10000000
01000000
10000000
01000000
,
10000000
00000000
01000000
00000000
00010000
00000000
00001000
00010000
00001000
00010000
00001000
00010000
,
00001000
00000000
00000000
00000000
00000010
00000000
00000000
00000000
00000001
00000000
00000000
00000000
00001000
00000000
00000000
00000001
00000000
00000000
00000100
00000000
00000000
00001000
00000000
00000000
,
00010000
00100000
10000000
00000000
00020000
00000000
01030000
00000000
,
02000000
03001000
00022000
00000000
,
00000000
00000000
00000000
00033000
00000000
00000000
00000000
00000000
,
00000000
00000000
00000000
00000000
;
#NOTES:
     dance-double:
     :
     Hard:
     17:
     :
00000000
00000000
00000000
00000000
,
00000000
00000000
00000000
00000000
,
00000000
00000000
00000000
00000000
,
00000000
00000000
00000000
00000000
,
00000000
00000000
00000000
00000000
,
00001000
00000000
00001000
00010000
00000000
00010000
00001000
00000000
00001000
00100000
00000000
00100000
,
00010000
00000000
00010000
01000000
00000000
01000000
00200000
00000000
00000000
20300000
00000000
00000000
,
31000000
00000000
01000000
00100000
00000000
00100000
00001000
00000000
00001000
00010000
00000000
00010000
,
00000200
00002300
00003020
00000230
,
00000301
00000000
00000001
00000010
00000000
00000010
00000100
00000000
00000100
00010000
00000000
00010000
,
00001000
00000000
00001000
01000000
00000000
01000000
00010000
00000000
00010000
00100000
00000000
00100000
,
01000000
00000000
01000000
10000000
00000000
10000000
00010000
00000000
00010000
01000000
00000000
01000000
,
00200000
20300000
30020000
02030000
,
03100000
00000000
00100000
00010000
00000000
00010000
00001000
00000000
00001000
00000010
00000000
00000010
,
00000001
00000000
00000001
00001000
00000000
00001000
00000100
00000000
00000100
00000010
00000000
00000010
,
00000001
00000000
00000001
00001000
00000000
00001000
00000100
00000000
00000100
00010000
00000000
00010000
,
00002000
00203000
00320000
00230000
,
02300000
00000000
00000000
00000000
00000000
00000000
03000000
00000000
00000000
10000000
01000000
00100000
,
00020000
00000000
00000000
00000000
00000000
00000000
00030000
00000000
00000000
00100000
00001000
00010000
,
00002000
00000000
00000000
00000000
,
00000000
00000000
00000000
00003000
,
00001000
00000000
00001000
00010000
00000000
00010000
00000010
00000000
00000010
00001000
00000000
00001000
,
00000100
00000000
00000000
00000000
00000010
00000000
00000000
00000000
00000100
00000000
00000000
00000000
00000010
00000000
00000000
00000000
00000001
00000000
00000000
00000000
00000010
00000000
00000000
00000000
00000001
00000000
00000000
00000000
00001000
00000000
00000000
00000000
00000001
00000000
00000000
00000000
00001000
00000000
00000000
00000100
00000000
00000000
00001000
00000000
00000000
00000100
00000000
00000000
,
00001000
00000000
00001000
00000100
00000000
00000100
00010000
00000000
00010000
00001000
00000000
00001000
,
00100000
00000000
00000000
00000000
00010000
00000000
00000000
00000000
00100000
00000000
00000000
00000000
00010000
00000000
00000000
00000000
10000000
00000000
00000000
00000000
00010000
00000000
00000000
00000000
10000000
00000000
00000000
00100000
00000000
00000000
10000000
00000000
00000000
00000000
00000000
00000000
00100000
00000000
00000000
01000000
00000000
00000000
00100000
00000000
00000000
01000000
00000000
00000000
,
00100000
00000000
10000000
01000000
00100000
00000000
01000000
00100000
00010000
00000000
00100000
00001000
00010000
00000000
00001000
00010000
,
00001000
00000000
00010000
00000010
00001000
00000000
00000010
00000100
00000010
00000000
00001000
00000001
00001000
00000000
00000001
00000010
,
00000100
00000000
00001000
00000100
00001000
00000000
00000100
00010000
00000100
00000000
00010000
00001000
00010000
00000000
00001000
01000000
,
00010000
00000000
00100000
00010000
00100000
00000000
01000000
10000000
00010000
00000000
01000000
00100000
10000000
00000000
00010000
10000000
,
00020000
00000000
00000000
00000000
00030000
00000000
00110000
00000000
01100000
00000000
11000000
00000000
10010000
00000000
10000000
01000000
,
10000000
01000000
00010000
00000000
00001000
00000010
00000001
00000000
00001000
00000000
00000010
00000100
00000010
00000000
00001000
00000001
,
00001000
00000000
00000001
00000000
00000011
00000000
00000010
00000000
00000100
00000000
00001100
00000000
00001000
00000100
00010000
00000000
,
00022000
00000000
00000000
00000000
00033000
00000000
00001000
01000000
00010000
00100000
01000000
00000000
02200000
00000000
00000000
00000000
,
03300000
00000000
10000000
00100000
01000000
00010000
00100000
00001000
00020000
00000000
00001000
00000000
00031000
00000000
00010000
00000000
,
00010100
00000000
00001100
00000000
00001000
00000100
00000010
00000000
00000011
00000000
00000001
00001000
00000010
00000100
00000001
00000000
,
00001000
00000001
00000100
00000010
00000100
00001000
00020000
00000000
,
00001000
00000000
00031000
00000000
00010000
00001000
01000000
00010000
,
00100000
00010000
02000000
00000000
00100000
00000000
03100000
10000000
,
01000000
00100000
01000000
00010000
01000000
00000000
10000000
01000000
,
00100000
00001000
00010000
00000000
00002000
00000000
00023000
00000000
,
00030200
00002300
00003020
00000230
,
00000301
00000010
00000100
00001000
00000010
00000100
00001000
00000000
,
00011000
00000000
00010000
00001000
01000000
00010000
00100000
00010000
,
10000000
01000000
00200000
00000000
00320000
00000000
10030000
01000000
,
00010000
00001000
00010000
00001000
00010000
00000000
00001000
00000010
,
00001000
00000010
00000001
00000000
00000011
00000000
00000110
00000000
,
00001100
00000000
00000000
00000000
00000100
00000000
00010000
00000000
00001000
00010000
00001000
00010000
00001000
00010000
00001000
00010000
,
00001000
00000000
00010000
00001000
00000000
00001000
00200000
00000000
,
00000000
00000000
00300000
00000000
00010000
00100000
10000000
00100000
,
00010000
00000000
10000000
00000000
01000000
00100000
01000000
00000000
00100000
00010000
00100000
00001000
00010000
00001000
00010000
00000000
,
00000100
00000000
00001000
00000010
00000000
00000010
00000200
00000000
,
00000000
00000000
00000000
00000000
00000300
00000000
00000000
00000000
00000001
00000000
00000010
00000000
00000100
00001000
00000100
00010000
,
00001000
00000000
00100000
00000000
00010000
01000000
00010000
01000000
00100000
00000000
10000000
00000000
00010000
00000000
01000000
00000000
,
00100000
00000000
00000000
10000000
00000000
00000000
00100000
00000000
,
00010000
00000000
00001000
00000000
00000000
00010000
00000000
00000000
,
00001000
00010000
00000010
00001000
00000010
00000100
00000002
00000000
00000000
00000000
00000000
00000000
,
00000000
00000000
00000000
00000000
00000003
00000000
00000000
00000000
00000001
00000010
00000100
00000000
00001000
00000010
00000100
00000000
,
00000001
00000000
00000000
00001000
00000000
00000000
00000001
00000000
00000000
00001000
00000000
00000000
00000001
00000000
00000000
00001000
00000000
00000000
00000001
00000000
00000000
00001000
00000000
00000000
00000001
00000000
00000000
00000000
00000100
00000000
00000000
00000000
00000001
00000000
00000000
00000000
00000010
00000000
00000000
00000000
00000100
00000000
00000000
00000000
00001000
00000000
00000000
00000000
,
00000100
00010000
00000100
00010000
00001000
00010000
00001000
01000000
00010000
01000000
00100000
01000000
,
00010000
00000000
00000000
00000000
00100000
00000000
00000000
00000000
01000000
00000000
00000000
00000000
10000000
00000000
00000000
00010000
00000000
00000000
10000000
00000000
00000000
00010000
00000000
00000000
10000000
00000000
00000000
00000000
00100000
00000000
00000000
00000000
01000000
00000000
00000000
00000000
00010000
00000000
00000000
00000000
00100000
00000000
00000000
00000000
01000000
00000000
00000000
00000000
,
00100000
00010000
00100000
00001000
00010000
00001000
00010000
00000100
00001000
00000010
00000100
00000001
,
00000010
00000001
00000010
00000000
00000100
00001000
00000100
00001000
00000001
00000000
00001000
00000100
00001000
00000000
00000100
00010000
,
00000100
00000000
00010000
00001000
00010000
00000000
00001000
00100000
00001000
00000000
01000000
00010000
01000000
00000000
00010000
00100000
,
01000000
00000000
10000000
00010000
10000000
00000000
00100000
01000000
00010000
00000000
01000000
00001000
00010000
00000000
00001000
00010000
,
00001000
00000000
00010000
00000100
00001000
00000000
00000100
00000010
00000002
00000000
00000000
00000000
00000000
00000000
00000000
00000000
,
00000000
00000000
00000000
00000003
00000000
00000000
00000001
00000100
00000010
00001000
00000000
00001000
,
00000100
00000000
00000100
00010000
00001000
00010000
00000100
00000000
00000100
00001000
00000000
00001000
,
00000010
00000100
00001000
00010000
00000000
00010000
00100000
00000000
00100000
10000000
00010000
10000000
,
01000000
00000000
00000000
00100000
00000000
00000000
00010000
00000000
00000000
00100000
00000000
00000000
01000000
00000000
10000000
00000000
00010000
00000000
01000000
00000000
00000000
00000000
01000000
00000000
,
00100000
00000000
00100000
00010000
00001000
00000100
00000010
00000000
00000010
00001000
00000000
00000100
,
00000010
00000011
00000101
00000100
,
00000110
00000000
00000000
00010010
00000000
00000000
00010000
00001000
00010000
00001000
00000000
00001000
,
00100000
00000000
00000000
00000000
00100000
00000000
00010000
00000000
01000000
00000000
00100000
00000000
10000000
00000000
00000000
01000000
00000000
00000000
10000000
00000000
00000000
00100000
00000000
00000000
,
01000000
00010000
01000000
00001000
00000000
00001000
00010000
00000000
00010000
00001000
00010000
00000010
,
00001000
00000000
00001000
00000100
00000000
00000100
00000010
00000001
00000100
00000001
00000000
00000001
,
00001000
00000000
00001000
00000100
00010000
00001000
00010000
00000000
00010000
00001000
00000000
00001000
,
00100000
00010000
00100000
01000000
10000000
00100000
01000000
00000000
00000000
01100000
00000000
00000000
,
00010000
00000000
00000000
10000000
00000000
00000000
00010000
00000000
00000000
10000000
00000000
00000000
00010000
00000000
00000000
00000000
00000000
00000000
00000000
00000000
00000000
00000000
00000000
00000000
10000000
00000000
00000000
00000000
01000000
00000000
00000000
00000000
00010000
00000000
00000000
00000000
00001000
00000000
00000000
00000000
00000010
00000000
00000000
00000000
00000001
00000000
00000000
00000000
,
00001000
00000100
00000010
00000002
00000000
00000000
00000000
00000000
00000000
00000003
00000000
00000000
,
00000001
00000100
00001000
00010000
00100000
10000000
00010000
01000000
00100000
20000000
00000000
00000000
,
00100000
00000000
00000000
00000000
00000000
00000000
30010000
00000000
00000000
01000000
00000000
00000000
00010000
00000000
00100000
00000000
00001000
00000000
00010000
00000000
00000100
00000000
00001000
00000000
,
00000010
00000000
00000100
00000000
00000001
00000000
00002000
00000000
00000000
00000000
00000000
00000000
00000010
00000000
00000000
00000000
00000000
00000000
00003100
00000000
00000000
00001000
00000000
00000000
,
00000001
00000010
00000100
00001000
00000100
00000010
00000001
00001000
00000100
00010000
00001000
00100000
,
00010000
01000000
00010000
00100000
01000000
10000000
00010000
00000000
00000000
10000000
00100000
00010000
,
00001000
00000100
00000001
00002000
00000000
00000000
00000000
00000000
00000000
00003000
00000000
00000000
,
00001000
00000000
00000000
00000001
00000010
00001000
00010000
01000000
10000000
00020000
00000000
00000000
,
10000000
00000000
00000000
10030000
00000000
00000000
10000000
00010000
01000000
00100000
00000000
00100000
,
00010000
00001000
00000100
00000010
00001000
00000100
00000010
00000000
00000010
00000001
00000100
00000001
,
00000010
00000100
00001000
00000100
00010000
00001000
01000000
00010000
00100000
01000000
10000000
00010000
,
01000000
00100000
10000000
00010000
00000000
00000000
10010000
00000000
00000000
10000000
01000000
00100000
,
00010000
00000000
00000000
10000000
01000000
00100000
00010000
00000000
00000000
10000000
01000000
00100000
,
00001000
00010000
00000100
00001000
00000001
00000010
00000001
00000000
00000000
00000001
00000100
00000010
,
00001000
00000000
00000000
00000001
00000100
00000010
00001000
00000000
00000000
00000001
00000100
00000010
,
00010000
00000000
00001000
00000000
00011000
00000000
00001000
00010000
00010000
00100000
00010000
00010000
,
00001000
00000000
00010000
00000000
00011000
00000000
00010000
00001000
00001000
00000010
00001000
00001000
,
00010000
00000000
00000000
00000000
00000000
00000000
00000000
00000000
00001000
00000000
00000000
00000000
00000000
00000000
00000000
00000000
00011000
00000000
00000000
00000000
00000000
00000000
00000000
00000000
00001000
00000000
00000000
00100000
00000000
00000000
00010000
00000000
00000000
00000000
00000000
00000000
00100000
00000000
00000000
01000000
00000000
00000000
10000000
00000000
00000000
00000000
00000000
00000000
,
00010000
01000000
00001000
00000000
00010000
00000100
00001000
00000100
00000010
00000000
00000000
00000000
00000011
00000000
00000000
00000000
,
00000101
00000110
00002002
00000000
,
00000000
00000000
00000000
00003003
00000000
00000000
00000000
00000000
,
00000000
00000000
00000000
00000000
;
#NOTES:
     dance-double:
     :
     Challenge:
     18:
     :
00000000
00000000
00000000
00000000
,
00000000
00000000
00000000
00000000
,
00000000
00000000
00000000
00000000
,
00000000
00000000
00000000
00000000
,
00000000
00000000
00000000
00000000
,
00002000
00000000
00003000
00020000
00000000
00030000
00200000
00000000
,
00000000
00000000
00000000
00000000
,
00000000
00000000
00000000
00000000
00000000
00000000
00300000
00000000
00000000
01000000
00100000
10000000
,
02000000
00000000
00000000
03200000
00000000
00000000
02300000
00000000
,
03020000
00000000
00030000
00002000
00000000
00003000
00022000
00000000
,
00000000
00000000
00000000
00000000
,
00000000
00000000
00000000
00000000
00000000
00000000
00033000
00000000
00000000
00001000
00010000
00000010
,
00002000
00000000
00000000
00003200
00000000
00000000
00000320
00000000
,
00000032
00000000
00000003
00002000
00000000
00003000
00002002
00000000
,
00000000
00000000
00000000
00000000
,
00000000
00000000
00000000
00000000
00000000
00000000
00003003
00000000
00000000
00000001
00000100
00000010
,
00002000
00000000
00000000
00003200
00000000
00000000
00020300
00000000
,
00032000
00000000
00000000
00000000
00000000
00000000
00003000
00000000
00000000
00010000
00001000
00100000
,
00020000
00000000
00000000
00000000
00000000
00000000
00030000
00000000
00000000
10000000
00100000
01000000
,
00020000
00000000
00000000
00000000
,
00000000
00000000
00000000
00000000
,
10030000
01000000
00100000
01000000
00100000
00010000
00100000
00001000
00010000
00001000
00010000
00000100
,
00001000
00000000
00000000
00000000
00000100
00000000
00000000
00000000
00000010
00000000
00000000
00000000
00000100
00000000
00000000
00000000
00000010
00000000
00000000
00000000
00000001
00000000
00000000
00000000
00001000
00000000
00000000
00000000
00000001
00000000
00000000
00000000
00001000
00000000
00000000
00000000
00000001
00000000
00000000
00001000
00000000
00000000
00000001
00000000
00000000
00001000
00000000
00000000
,
00000001
00000100
00000010
00000100
00000010
00001000
00000010
00010000
00001000
00010000
00001000
01000000
,
00010000
00000000
00000000
00000000
01000000
00000000
00000000
00000000
00100000
00000000
00000000
00000000
01000000
00000000
00000000
00000000
00100000
00000000
00000000
00000000
10000000
00000000
00000000
00000000
00010000
00000000
00000000
10000000
00000000
00000000
00010000
00000000
00000000
10000000
00000000
00000000
00010000
00000000
00000000
10000000
00000000
00000000
00010000
00000000
00000000
10000000
00000000
00000000
,
02000000
00000000
13000000
01000000
00200000
00000000
01300000
00100000
00020000
00000000
00130000
00001000
00020000
00000000
00031000
00010000
,
00000200
00000000
00001300
00000100
00000020
00000000
00000130
00000010
00000002
00000000
00001003
00000001
00002000
00000000
00003001
00000000
,
00001000
00000010
00001000
00000010
00010000
00001000
00010000
00001000
01000000
00010000
01000000
00010000
10000000
00100000
10000000
00000000
,
00010000
00100000
00010000
00100000
00001000
00010000
00001000
00010000
00000100
00001000
00000100
00001000
00000001
00000010
00000001
00000010
,
00000002
00000000
00000000
00000000
00000003
00000000
00002000
00000000
00003002
00000000
00000203
00000000
00002300
00000000
00013000
00001000
,
00100000
00010000
01000000
00100000
10000000
01000000
00010000
00001000
00000010
00000001
00001000
00000001
00001000
00000000
00001010
00000000
,
00010010
00000000
00000000
00000000
00000000
00000000
00011000
00000000
00000000
00000000
00000000
00001000
00010000
00001000
00000000
00000000
00000000
00000000
01001000
00000000
00000000
00000000
00000000
00000000
01010000
00000000
00000000
00000000
00000000
00000000
00010000
00000000
00000000
01000000
00000000
00000000
00100000
00000000
00000000
01000000
00000000
00000000
00100000
00000000
00000000
10000000
00000000
00000000
,
20020000
30030000
10000000
01000000
00010000
00000000
01010000
00000000
00011000
00000000
00001100
00000000
00000220
00000330
00000001
00000100
,
00001000
00000000
00001100
00000000
00011000
00000000
01010000
00000000
02200000
03300000
10000000
01000000
00100000
00000000
00110000
00000000
,
00101000
00000000
00011000
00000000
00001000
00000010
00000001
00000100
00001000
00000000
00010000
00100000
10000000
01000000
00010000
00000000
,
00011000
00000000
00001000
00010000
00001000
00000100
00000002
00000003
,
00000220
00000330
00002020
00003030
00000010
00000100
00001000
00010000
,
00100000
01000000
00200000
00300000
20200000
30300000
10000000
00010000
,
10000000
01000000
00100000
01000000
00100000
00010000
00200000
00300000
,
00002000
00000000
00000000
00003000
00000000
00000000
00020000
00000000
00000000
00030000
00000000
00001000
00010000
00001000
00000000
00000000
00000000
00000000
00020200
00000000
00000000
00030300
00000000
00000000
,
00002200
00003300
00002000
00003002
00000203
00002300
00023000
00030000
,
00021000
00000000
00031000
00010000
00100000
01000000
00200000
00300000
,
20200000
30300000
20020000
30030000
22000000
03000000
01000000
00000000
,
31000000
00000000
20000000
30000000
00020000
00030000
02000000
03000000
,
00100000
00010000
00001000
00000010
00000100
00000010
00000002
00000003
,
00000200
00000300
00000020
00000030
00002020
00003030
00020020
00030030
,
00022000
00000000
00033000
00000000
02002000
00000000
03003000
00000000
01000000
00010000
01000000
00010000
10000000
00100000
10000000
00100000
,
10000000
00000000
00000000
00000000
00000000
00000000
00000000
00000000
00000000
00000000
00000000
00000000
10010000
00000000
00000000
00000000
00000000
00000000
00000000
00000000
00000000
00000000
00000000
00000000
10000000
00000000
00000000
00000000
00010000
00100000
00000000
00000000
,
00000000
00000000
00000000
00000000
00000000
00000000
00000000
00001000
00010000
00000000
00000000
00000000
00000000
00000000
00000100
00001000
00000000
00000000
00000000
00000000
00000000
00000000
00000000
00000000
00000100
00000000
00000000
00000000
00001000
00000000
00000000
00000000
,
00000100
00000000
00000010
00000000
00000001
00000000
00000200
00000000
00000301
00000100
00000001
00000000
00001000
00000010
00001000
00000000
,
00000001
00000000
00000000
00000000
00000000
00000000
00000000
00000000
00000000
00000000
00000000
00000000
00001001
00000000
00000000
00000000
00000000
00000000
00000000
00000000
00000000
00000000
00000000
00000000
00000001
00000000
00000000
00000000
00001000
00000010
00000000
00000000
,
00000000
00000000
00000000
00000000
00000000
00000000
00000000
00010000
00001000
00000000
00000000
00000000
00000000
00000000
01000000
00010000
00000000
00000000
00000000
00000000
00000000
00000000
00000000
00000000
02000000
00000000
00000000
00000000
03010000
00000000
01000000
00000000
,
00010000
00000000
20000000
00000000
31000000
10000000
01000000
00000000
20000000
00000000
32000000
00000000
03020000
00000000
00032000
00000000
,
00013000
00000000
00000000
00010000
00000000
00000000
00001000
00000000
,
00000100
00000000
00000010
00000000
00000000
00000100
00000000
00000000
,
00000001
00000100
00001000
00000100
00001000
00010000
00002000
00000000
00000000
00000000
00000000
00000000
,
00000000
00000000
00000000
00000000
00000000
00000000
00003000
00000000
00000000
00000000
00000000
00000000
00010000
00001000
00010000
00001000
00010000
00002000
00020000
00000000
00000000
00003000
00030000
00000000
,
00001000
00010000
00001000
00010000
00001000
00020000
00002000
00000000
00000000
00030000
00003000
00000000
00010000
00000000
00001000
00000000
00100000
00000000
00010000
00000000
10000000
00000000
01000000
00000000
,
10000000
00100000
01000000
00010000
00100000
01000000
10000000
01000000
00010000
00001000
00000010
00000001
,
00001000
00000000
00000000
00000000
00000001
00000000
00000000
00000000
00000100
00000000
00000000
00000000
00000010
00000000
00000000
00000100
00000000
00000000
00000010
00000000
00000000
00000100
00000000
00000000
00000010
00000000
00000000
00000000
00000100
00000000
00000000
00000000
00001000
00000000
00000000
00000000
00000100
00000000
00000000
00000000
00001000
00000000
00000000
00000000
00010000
00000000
00000000
00000000
,
00001000
00010000
00100000
00010000
00100000
01000000
00010000
00100000
01000000
10000000
00100000
01000000
,
00010000
00100000
00010000
00100000
01000000
10000000
01000000
10000000
00020000
00000000
10030000
00100000
02000000
00000000
03010000
00100000
,
02000000
00000000
03100000
01000000
00020000
00000000
01030000
00010000
00002000
00000000
00013000
00001000
00000200
00000000
00000310
00000100
,
00000002
00000000
00002003
00000000
00003002
00000000
00001003
00000000
00000001
00000010
00000001
00000010
00000100
00001000
00000100
00000000
,
00010000
00000000
00000000
00001000
00000000
00000000
00010000
00000000
00000000
00001000
00000000
00000000
00100000
00000000
00000000
00010000
00000000
00000000
00100000
00000000
00000000
00000000
00000000
00000000
00010000
00000000
00000000
00000000
10000000
00000000
00000000
00000000
01000000
00000000
00000000
00000000
00010000
00000000
00000000
00000000
00001000
00000000
00000000
00000000
00000010
00000000
00000000
00000000
,
00000002
00000000
00000000
00000003
00000000
00000000
00001000
00000010
00000100
00000001
00000010
00000100
,
00001000
00000001
00000100
00001000
00010000
00001000
00010000
01000000
10000000
00010000
00000000
00000000
,
10000000
00100000
01000000
00010000
00100000
01000000
10000000
01000000
00010000
00001000
00010000
00001000
,
00000100
00000001
00001000
00000001
00000000
00000000
00001000
00000100
00000010
00000001
00000010
00000100
,
00001000
00000001
00000100
00001000
00010000
00100000
10000000
00100000
01000000
00010000
00100000
01000000
,
10000000
01000000
00100000
01000000
00100000
00010000
00100000
00001000
00010000
00001000
00000100
00000010
,
00001000
00000100
00000010
00000001
00000000
00000000
00001000
00000001
00000100
00000001
00001000
00000100
,
00000010
00000100
00001000
00000010
00000100
00001000
00010000
00001000
01000000
00010000
00000000
00000000
,
10000000
01000000
00100000
00010000
01000000
00100000
10000000
00100000
00010000
00001000
00010000
00001000
,
00000010
00000001
00001000
00000001
00000000
00000000
00000100
00000001
00000010
00000100
00001000
00000010
,
00000100
00001000
00010000
00001000
00010000
01000000
00100000
00010000
01000000
00100000
10000000
01000000
,
10000000
00100000
01000000
00010000
00100000
01000000
00010000
00001000
00010000
00001000
00000010
00000001
,
00001000
00000000
00000000
00000001
00000000
00000000
00001000
00000000
00000000
00000001
00000000
00000000
00001000
00000000
00000000
00000000
00000000
00000000
00000000
00000000
00000000
00000000
00000000
00000000
00000001
00000000
00000000
00000000
00000100
00000000
00000000
00000000
00001000
00000000
00000000
00000000
00010000
00000000
00000000
00000000
00100000
00000000
00000000
00000000
10000000
00000000
00000000
00000000
,
01000000
00010000
00001000
00020000
00000000
00000000
00001000
00000000
00000000
00031000
00000000
00000000
,
00001000
00000000
00010000
00000000
00000010
00000000
00001000
00000000
00000100
00000000
00000010
00000000
00000001
00000000
00000100
00000000
00001000
00000000
00020000
00000000
00000000
00030000
00000000
00000000
,
00200000
00000000
00000000
00300000
00000000
00000000
20200000
00000000
00000000
30300000
00000000
00000000
10000000
00000000
01000000
00000000
00010000
00000000
00001000
00000000
00000010
00000000
00000001
00000000
,
00000100
00001000
00010000
00002000
00000000
00000000
00010000
00000000
00000000
00013000
00000000
00000000
,
00010000
00001000
00100000
00010000
01000000
00100000
10000000
01000000
00010000
01000000
00010000
00001000
,
00010000
00001000
00000100
00001000
00000100
00000001
00001000
00000000
00000000
00000001
00000010
00001000
,
00010000
00100000
10000000
00020000
00000000
00000000
10000000
00000000
00000000
10030000
00000000
00000000
,
10000000
00000000
00100000
00000000
00010000
00000000
00001000
00000000
00000010
00000000
00000001
00000000
00001000
00000000
00000001
00000000
00000100
00000000
00000020
00000000
00000000
00000030
00000000
00000000
,
00000200
00000000
00000000
00000300
00000000
00000000
00002000
00000000
00000000
00003000
00000000
00000000
00010000
00000000
00001000
00000000
00100000
00000000
00001000
00000000
00010000
00000000
00000010
00000000
,
00010000
00001000
00100000
00010000
01000000
00100000
10000000
01000000
00100000
00010000
01000000
00100000
,
20000000
31000000
00010000
02000000
03010000
00001000
00020000
00031000
00000010
00002000
00003010
00000001
,
00000020
00000031
00001000
00000002
00001003
00000001
00001000
00000000
00000000
00000001
00000100
00001000
,
00010000
00000000
00000000
00001000
00010000
00100000
10000000
00000000
00000000
00010000
00100000
01000000
,
10000000
00100000
01000000
00010000
10000000
00010000
10010000
00000000
00000000
10000000
01000000
00010000
,
00001000
00000000
00000000
00010000
00001000
00000010
00000001
00000000
00000000
00001000
00000001
00001000
,
00001001
00000000
00000000
00000000
00000001
00000000
00000000
00000000
00001000
00000000
00000000
00000000
00000100
00001000
00000100
00001000
00000100
00002000
00000200
00000000
00000000
00000000
00000000
00003000
,
00000300
00000000
00000000
00000000
00010000
00000000
00000000
00000000
00001000
00000000
00000000
00000000
01000000
00010000
01000000
00010000
01000000
00020000
02000000
00000000
00000000
00000000
00000000
00030000
,
03000000
00000000
00000000
00000000
00000000
00000000
00000000
00000000
00000000
00000000
00000000
00000000
00000000
00000000
00000000
00000000
00010000
00000000
00000000
00000000
00000000
00000000
00000000
00000000
00000000
00000000
00000000
00000000
00000000
00000000
00000000
00000000
10000000
00000000
00000000
00000000
00000000
00000000
00000000
00000000
00000000
00000000
00000000
00000000
00000000
00000000
00000000
00000000
00010000
00000000
00000000
00100000
00000000
00000000
00000000
00000000
00000000
00000000
00000000
00000000
00000000
00000000
00000000
00000000
00000000
00000000
00000000
00000000
00000000
00000000
00000000
00000000
00001000
00000000
00000000
00010000
00000000
00000000
00000000
00000000
00000000
00000000
00000000
00000000
00000000
00000000
00000000
00000000
00000000
00000000
00000000
00000000
00000000
00000000
00000000
00000000
,
00000100
00001000
00000000
00000000
00000000
00000000
00000000
00000000
00000100
00000010
00000000
00000000
00000000
00000000
00000000
00000000
00000001
00000000
00000000
00000000
00000000
00000000
00000000
00000000
00000101
00000000
00000000
00000000
00000000
00000000
00000000
00000000
,
00001100
00011000
00022000
00000000
,
00000000
00000000
00000000
00000000
00003000
00030000
00000000
00000000
00000000
00000000
00000000
00000000
00000000
00000000
00000000
00000000
;
