
//----- song ID: tahi -----//
#TITLE:take me higher;
#ARTIST:KOTONOHOUSE;
#BANNER:take me higher.png;
#BACKGROUND:take me higher-bg.png;
#CDTITLE:./CDTitles/DANCERUSH STARDOM.png;
#MUSIC:take me higher.ogg;
#SAMPLESTART:15.488;
#SAMPLELENGTH:15;
#BPMS:0=140;
#NOTES:
     dance-single:
     :
     Beginner:
     3:
     :
0000
0000
0000
0000
,
0000
0000
0000
0000
,
0000
0000
0000
0000
,
0000
0000
0000
0000
,
0000
0000
0000
0000
,
0001
0000
0001
0000
,
0001
0000
0000
0000
,
1000
0000
0000
0000
,
1000
0000
0000
0000
,
0001
0000
0010
0000
,
0100
0000
0000
0000
,
1000
0000
0010
0000
,
0100
0000
0000
0000
,
0001
0000
0100
0000
,
0010
0000
0000
0000
,
1000
0000
0100
0000
,
0010
0000
0000
0000
,
0001
0001
0001
0000
,
1000
0000
1000
0000
,
1000
1000
1000
0000
,
0001
0000
0001
0000
,
0010
0010
0010
0000
,
0100
0000
0100
0000
,
0100
0100
0100
0000
,
0010
0000
0010
0000
,
0001
0010
0001
0000
,
0010
0000
1000
0000
,
1000
0010
1000
0000
,
0010
0000
0001
0000
,
0001
0100
0001
0000
,
0100
0000
1000
0000
,
1000
0100
1000
0000
,
0100
0000
0001
0000
,
1001
0000
0000
0000
,
0010
0010
0010
0000
,
1001
0000
0000
0000
,
0100
0100
0100
0000
,
1001
0000
0000
0000
,
0010
0010
0010
0000
,
1001
0000
0000
0000
,
0100
0100
0100
0000
,
1001
0000
0000
0000
,
0000
0000
0000
0000
,
1001
0000
0000
0000
,
0000
0000
0000
0000
,
0001
0000
0100
0000
,
0010
0000
1000
0000
,
1000
0000
0100
0000
,
0010
0000
0001
0000
,
0001
0001
0001
0000
,
0010
0000
0100
0000
,
1000
1000
1000
0000
,
0010
0000
0100
0000
,
0001
0001
0001
0000
,
0010
0000
1000
0000
,
1000
1000
1000
0000
,
0100
0000
0001
0000
,
0001
0100
0001
0000
,
0010
0000
0100
0000
,
1000
0100
1000
0000
,
0010
0000
0100
0000
,
0001
0001
0010
0000
,
0010
0010
1000
0000
,
1000
1000
0100
0000
,
0100
0100
0001
0001
,
0000
0000
0000
0000
;
#NOTES:
     dance-single:
     :
     Easy:
     5:
     :
0000
0000
0000
0000
,
0000
0000
0000
0000
,
0000
0000
0000
0000
,
0000
0000
0000
0000
,
0000
0000
0000
0000
,
0001
0001
1000
1000
,
0001
0001
1000
1000
,
1001
0000
0000
0010
0000
0000
1001
0000
,
0000
0100
0000
0000
0001
0000
1000
0000
,
0010
0010
0001
0001
,
0100
0100
1000
1000
,
0010
0100
0001
1000
,
0001
0000
1001
0000
,
0100
0100
1000
1000
,
0010
0010
0001
0001
,
0100
0010
1000
0001
,
1000
0000
0000
1001
,
0001
0001
0001
0001
,
0001
1000
1001
0000
,
1000
1000
1000
1000
,
1000
1000
0001
0001
,
0010
0010
0100
0100
,
0001
1000
1001
0000
,
0010
0010
0010
0010
,
0010
0100
0001
0100
,
0010
0100
0010
0100
,
0001
1000
1001
0000
,
1000
1000
1000
1000
,
0100
0010
1000
0010
,
0001
0001
0001
0001
,
0001
1000
1001
0000
,
0010
0100
0010
0100
,
0001
1000
1001
1001
,
0001
0100
1000
0100
,
0001
0100
1000
0100
,
0001
0001
1000
1000
,
0010
0110
0100
0110
,
0010
0001
0100
1000
,
0010
0001
0100
1000
,
0001
0001
1000
1000
,
0001
1001
1000
1001
,
0220
0000
0000
0000
,
0330
0000
0000
0000
,
2002
0000
0000
3003
,
1001
0000
1001
0000
,
0001
0001
0001
0001
,
1000
1000
1000
1000
,
0010
0100
0010
0100
,
0110
0000
0000
1001
,
0001
0001
0001
0001
,
0010
0100
1000
0001
,
1000
1000
1000
1000
,
0010
0100
0001
1001
,
0100
0100
0100
0001
,
1000
1000
1000
1000
,
0010
0100
0001
1000
,
0001
1000
0001
1001
,
1000
1000
0100
0100
,
0010
0010
0001
1000
,
0010
0010
0001
0001
,
0100
0100
0001
1001
,
0010
0010
0010
1000
,
0001
0001
0001
0001
,
1000
1000
1000
0010
,
1000
0001
1000
0001
,
0000
0000
0000
0000
;
#NOTES:
     dance-single:
     :
     Medium:
     10:
     :
0000
0000
0000
0000
,
0000
0000
0000
0000
,
0000
0000
0000
0000
,
0000
0000
0000
0000
,
0000
0000
0000
0000
,
0010
0001
0100
0000
,
0100
1000
0001
0000
,
0020
0000
0000
0031
0000
0000
0200
0000
,
0000
1300
0000
0000
0001
0000
1001
0000
,
1000
1000
0001
1000
,
0001
0001
1000
0001
,
0010
0100
1000
1000
,
0010
0100
0110
0000
,
0001
0100
0010
0000
,
1000
0010
0100
0000
,
0010
0000
1000
0100
0001
0100
1000
0100
,
0001
0000
0110
1001
,
0001
0100
0010
1000
0001
0100
0010
1000
,
0001
0000
0000
0000
1000
0000
0000
0000
0001
0000
0000
0010
0000
0000
0100
0000
,
1000
0100
0010
0001
1000
0100
0010
0001
,
1000
0001
0100
0010
,
0201
0010
1000
0301
,
0020
0000
0000
0000
1000
0000
0000
0000
0031
0000
0000
0010
0000
0000
1000
0000
,
0001
0100
0010
0100
0001
0100
0010
1000
,
0001
0100
1000
0100
0001
0000
1020
0000
,
0100
0001
1030
1100
,
0010
0000
0001
0000
1000
0000
0100
0000
0001
0000
0000
0100
0000
0000
1000
0000
,
0010
0100
0001
1000
0010
0000
0020
0000
,
1000
0001
0100
1030
,
0001
0100
0001
0100
0010
1000
0010
1000
,
0001
0000
0000
0000
1000
0000
0000
0000
0010
0000
0000
0001
0000
0000
0010
0000
,
1000
0100
0010
0100
1000
0100
0020
0000
,
0001
1000
0031
1001
,
0010
0100
0010
0100
,
0020
0031
0200
1300
,
0010
0100
1000
0100
,
0010
0100
0020
0030
,
0200
1300
0020
0031
,
0200
1000
0010
1300
,
0020
0001
0100
0031
,
1000
0100
0001
0100
,
1001
0000
0000
0000
,
0001
0000
1000
0000
,
0001
1000
0001
1000
,
0001
1000
0001
1000
,
0010
1000
0001
0001
,
0010
0001
1000
1000
,
0010
0100
0010
0100
0001
1000
0001
1000
,
0001
0000
1001
1001
,
0001
0000
0100
0000
0010
0000
1000
0000
0001
0000
0000
0010
0000
0000
0100
0000
,
2000
0000
0000
0000
3100
0000
0000
0000
0001
0000
0000
0100
0000
0000
1000
0000
,
0010
0000
1000
0000
0001
0000
0100
0000
0010
0000
0000
0001
0000
0000
0010
0000
,
1000
0100
0001
0100
0010
0000
1001
0000
,
0001
0100
0010
0100
0001
1000
0001
0100
,
0010
1000
0010
0100
0001
0100
0001
0000
,
1000
0100
0010
0001
1000
0001
1000
0001
,
1000
0100
0010
0100
1000
0000
1001
0000
,
0110
0000
0000
0000
1001
0000
0000
0000
0100
0000
0000
1000
0000
0000
0010
0000
,
0100
0000
1000
0000
0100
0000
0010
0000
0100
0000
0000
1000
0000
0000
0100
0000
,
0010
0000
0001
0000
0010
0000
1000
0000
0010
0000
0000
0001
0000
0000
0010
0000
,
1000
0100
0010
0001
0010
0000
1001
0000
,
0001
0100
0010
1000
0001
1000
0001
0100
,
0010
1000
0001
0100
1000
0100
0010
0000
,
1000
0100
0001
0100
1000
0001
1000
0010
,
0100
0001
0100
0010
1000
0010
0001
0010
,
0000
0000
0000
0000
;
#NOTES:
     dance-single:
     :
     Hard:
     13:
     :
0000
0000
0000
0000
,
0000
0000
0000
0000
,
0000
0000
0000
0000
,
0000
0000
0000
0000
,
0000
0000
0000
0000
,
1001
0000
0110
0000
,
0101
0000
1100
0000
,
1001
0000
0000
0110
0000
0000
1001
0000
,
0000
0110
0000
0000
1001
0000
1001
0000
,
0000
0010
0010
0100
0010
0000
0010
1000
,
0100
0010
0011
0000
0001
0100
0100
0020
,
0000
0000
0130
0000
0000
0100
0100
0020
,
0000
0130
0110
1001
,
0000
0100
0010
0100
0010
0000
0010
0100
,
0001
0100
0101
0000
0001
1000
1000
0002
,
0000
0000
1003
0000
0000
0010
0010
2002
,
0000
0000
0000
3003
,
0001
0000
1000
0100
1000
0000
0001
0010
0100
0000
1000
0000
0010
0000
1000
0000
,
0010
0000
0100
0001
0100
0000
0010
1000
0001
0000
0000
0001
0000
0000
0001
0000
,
1000
0000
0001
0100
0001
0000
1000
0010
0100
0000
0001
0000
0010
0000
0001
0000
,
0010
0000
0100
1000
0100
0000
0010
0001
1000
0000
0001
0000
1001
0000
0000
0000
,
0010
0000
1000
0100
0010
0000
0100
1000
0010
0000
0100
0000
0001
0000
0010
0000
,
0001
0000
0100
0010
1000
0000
0001
0000
0010
0000
0000
0010
0000
0000
0010
0000
,
0010
0000
0001
0100
0010
0000
0100
0001
0010
0000
0100
0000
1000
0000
0010
0000
,
1000
0100
1000
0000
0001
0010
0001
0000
1000
0000
0010
0000
0110
0000
0000
0000
,
0001
0000
1000
0010
1000
0000
0001
0100
0010
0000
1000
0000
0100
0000
1000
0000
,
0100
0000
0010
0001
0010
0000
0100
1000
0001
0000
0000
0001
0000
0000
0001
0000
,
1000
0000
0001
0010
0001
0000
1000
0100
0010
0000
0001
0000
0100
0000
0001
0000
,
0100
0000
0010
1000
0010
0000
0100
0001
1000
0000
0001
0000
1001
0000
0000
0000
,
0100
0000
1000
0010
0100
0000
0010
1000
0100
0000
0010
0000
0001
0000
0100
0000
,
0001
0000
0010
0100
1000
0000
0001
0000
0100
0000
0000
0100
0000
0000
0100
0000
,
0100
0000
0001
0010
0100
0000
0010
0001
0100
0000
0010
0000
1000
0000
0100
0000
,
1000
0010
1000
0000
0001
0100
0001
0000
1000
0000
0100
0000
0110
0000
0000
0000
,
0001
0000
0000
0000
0002
0000
0000
0000
0100
0000
0000
0100
0000
0000
0100
0000
,
0103
0000
0000
0000
2000
0000
0000
0000
0100
0000
0000
0100
0000
0000
0100
0000
,
3100
0000
0000
0000
0002
0000
0000
0000
0010
0000
0000
0010
0000
0000
0010
0000
,
0013
0000
0000
0000
2000
0000
0000
0000
0010
0000
0000
0010
0000
0000
0010
0000
,
3010
0000
0000
0000
0201
0000
0000
0000
0010
0000
0000
0010
0000
0000
0010
0000
,
0310
0000
0000
0000
1020
0000
0000
0000
0100
0000
0000
0100
0000
0000
0100
0000
,
0130
0000
0000
0000
2001
0000
0000
0000
0010
0000
0000
0010
0000
0000
0010
0000
,
3010
0100
0001
0010
0100
0010
0100
0000
,
2002
0000
0000
0000
,
0000
0000
0000
0000
,
0000
0000
0000
0000
,
3003
0010
0100
0010
1000
0001
1000
0000
,
0001
0010
0001
0000
0001
0100
0001
0000
,
1000
0010
1000
0000
1000
0001
1000
0000
,
0001
0100
0010
0100
0010
1000
0010
1000
,
0000
0000
0000
0000
,
1000
0000
0010
0100
0010
0000
1000
0100
0010
0000
0000
0010
0000
0000
0010
0000
,
0001
0000
0100
0010
1000
0000
0001
0010
0001
0000
0000
0001
0000
0000
0001
0000
,
0100
0000
0010
1000
0100
0000
1000
0001
0100
0000
0000
0100
0000
0000
0100
0000
,
0010
0000
0100
0001
0010
0000
0001
1000
0010
0000
0100
0000
1001
0000
0000
0000
,
1001
0000
0000
0001
0100
0000
0100
0000
0010
1000
0010
0000
0100
0001
0000
0001
,
1000
0000
0000
1000
0100
0000
0100
0000
0010
0001
0010
0000
0100
1000
0000
1000
,
0010
0000
0000
0010
0100
0000
0100
0000
0001
1000
0001
0000
0100
0010
0000
0010
,
1000
0000
0000
1000
0001
0000
0001
0000
0010
0000
0100
0000
1001
0000
0000
0000
,
0001
0000
0100
0010
0100
0000
0001
0010
0100
0000
0000
0100
0000
0000
0100
0000
,
1000
0000
0010
0100
0001
0000
1000
0100
1000
0000
0000
1000
0000
0000
1000
0000
,
0010
0000
0100
0001
0010
0000
0001
1000
0010
0000
0000
0010
0000
0000
0010
0000
,
0100
0000
0010
1000
0100
0000
1000
0001
0100
0000
0010
0000
1001
0000
0000
0000
,
1001
0000
0000
1000
0010
0000
0010
0000
0100
0001
0100
0000
0010
1000
0000
1000
,
0001
0000
0000
0001
0010
0000
0010
0000
0100
1000
0100
0000
0010
0001
0000
0001
,
0100
0000
0000
0100
0010
0000
0010
0000
1000
0001
1000
0000
0010
0100
0000
0100
,
0001
0000
0000
0001
1000
0000
1000
0000
0100
0010
0001
0000
1000
0001
1000
0001
,
0000
0000
0000
0000
;
#NOTES:
     dance-double:
     :
     Easy:
     5:
     :
00000000
00000000
00000000
00000000
,
00000000
00000000
00000000
00000000
,
00000000
00000000
00000000
00000000
,
00000000
00000000
00000000
00000000
,
00000000
00000000
00000000
00000000
,
00000001
00000001
00001000
00001000
,
00000010
00000010
00010000
00010000
,
00001000
00000000
00000000
00011000
00000000
00000000
00010000
00000000
,
00000000
00011000
00000000
00000000
00001000
00000000
00010000
00000000
,
01000000
01000000
00010000
00010000
,
10000000
10000000
00100000
00100000
,
00100000
01000000
00001000
00010000
,
00001000
00000000
00011000
00000000
,
00001000
00001000
00000100
00000100
,
00000010
00000010
00000001
00000001
,
00001000
00000100
00010000
00001000
,
00010000
00000000
00000000
00011000
,
00001000
00001000
00001000
00001000
,
00001000
00000000
01100000
00000000
,
10000000
10000000
10000000
10000000
,
10000000
10000000
00010000
00010000
,
00100000
00100000
01000000
01000000
,
00001000
00000000
00011000
00000000
,
00000100
00000100
00000100
00000100
,
00000010
00000100
00000001
00000100
,
00000010
00000100
00000010
00000100
,
00000010
00000000
00011000
00000000
,
00001000
00001000
00001000
00001000
,
00001000
00000100
00010000
00000100
,
00010000
00010000
00010000
00010000
,
00010000
00000000
10010000
00000000
,
00100000
01000000
00100000
01000000
,
00010000
00000000
10010000
10010000
,
00010000
01000000
10000000
01000000
,
00001000
00010000
00100000
00010000
,
00001000
00001000
00010000
00010000
,
00000100
00000110
00000010
00000110
,
00000010
00000001
00000100
00001000
,
00000010
00000100
00001000
00010000
,
00001000
00001000
01000000
01000000
,
00010000
10010000
10000000
10010000
,
02200000
00000000
00000000
00000000
,
03300000
00000000
00000000
00000000
,
00022000
00000000
00000000
00033000
,
00011000
00000000
00011000
00000000
,
00001000
00001000
00001000
00001000
,
00010000
00010000
00010000
00010000
,
00001000
00010000
00001000
00010000
,
00011000
00000000
00000000
00011000
,
00001000
00000100
00000010
00000001
,
00000010
00000100
00001000
00000100
,
00010000
00100000
01000000
10000000
,
01000000
00100000
00010000
00011000
,
00000100
00000100
00000100
00000001
,
00001000
00001000
00001000
00001000
,
00000100
00010000
00001000
00100000
,
00010000
10000000
00010000
10010000
,
01000000
01000000
00100000
00100000
,
00001000
00001000
00010000
00001000
,
00000010
00000010
00000100
00000100
,
00001000
00001000
00000001
00001001
,
00000010
00000010
00000010
00001000
,
00000100
00000100
00000100
00000100
,
00010000
00010000
00010000
00001000
,
00100000
00010000
10000000
00010000
,
00000000
00000000
00000000
00000000
;
#NOTES:
     dance-double:
     :
     Medium:
     10:
     :
00000000
00000000
00000000
00000000
,
00000000
00000000
00000000
00000000
,
00000000
00000000
00000000
00000000
,
00000000
00000000
00000000
00000000
,
00000000
00000000
00000000
00000000
,
00001000
00000010
00000100
00000010
,
00010000
00001000
00010000
00000000
,
00002000
00000000
00000000
00003100
00000000
00000000
00020000
00000000
,
00000000
01030000
00000000
00000000
00001000
00000000
00011000
00000000
,
00100000
00100000
00010000
10000000
,
00010000
00010000
01000000
00001000
,
00010000
00100000
01000000
00000000
,
00001000
00010000
00011000
00000000
,
00000001
00000010
00000100
00000000
,
00010000
00001000
00100000
00000000
,
00010000
00000000
10000000
01000000
00010000
01000000
10000000
01000000
,
00010000
00000000
00011000
00011000
,
00000100
00001000
00000010
00001000
00000001
00000100
00000010
00001000
,
00000001
00000000
00000000
00000000
00000100
00000000
00000000
00000000
00001000
00000000
00000000
00100000
00000000
00000000
01000000
00000000
,
10000000
01000000
00100000
00010000
10000000
01000000
00100000
00010000
,
10000000
00100000
00010000
00001000
,
00000201
00000010
00001000
00000301
,
00020000
00000000
00000000
00000000
00001000
00000000
00000000
00000000
00030100
00000000
00000000
00001000
00000000
00000000
00010000
00000000
,
00100000
01000000
10000000
01000000
00010000
01000000
00100000
10000000
,
00010000
01000000
10000000
01000000
00010000
00000000
00012000
00000000
,
00010000
00000100
00013000
00010100
,
00001000
00000000
00000100
00000000
00001000
00000000
00000100
00000000
00000001
00000000
00000000
00000100
00000000
00000000
00001000
00000000
,
00000010
00000100
00000001
00001000
00000100
00000000
00000200
00000000
,
00001000
00000010
00001000
00010300
,
00001000
00010000
00001000
00010000
00100000
01000000
00100000
01000000
,
00010000
00000000
00000000
00000000
10000000
00000000
00000000
00000000
00100000
00000000
00000000
00010000
00000000
00000000
00100000
00000000
,
10000000
01000000
00100000
00010000
10000000
01000000
00200000
00000000
,
00010000
10000000
00301000
00011000
,
00000010
00000100
00000010
00000100
,
00000020
00000031
00000200
00001300
,
00000010
00000100
00001000
00000100
,
00000010
00010000
00002000
00003000
,
00020000
00130000
00002000
00003010
,
00020000
00100000
00001000
00130000
,
00002000
00000010
00010000
00003010
,
00010000
00000000
00001000
00000000
,
00011000
00000000
00000000
00000000
,
00001000
00000000
00010000
00000000
,
00001000
00010000
00001000
00010000
,
00001000
00010000
00001000
00010000
,
00000010
00001000
00000001
00000001
,
00000010
00000001
00001000
00001000
,
00000100
00010000
00000100
00010000
00001000
00010000
00001000
00010000
,
00001000
00000000
00011000
00011000
,
00001000
00000000
00010000
00000000
00100000
00000000
01000000
00000000
00001000
00000000
00000000
00010000
00000000
00000000
01000000
00000000
,
20000000
00000000
00000000
00000000
31000000
00000000
00000000
00000000
00010000
00000000
00000000
01000000
00000000
00000000
00100000
00000000
,
00001000
00000000
00010000
00000000
00000010
00000000
00001000
00000000
00000100
00000000
00000000
00000001
00000000
00000000
00000100
00000000
,
00001000
00000100
00000010
00001000
00010000
00000000
00011000
00000000
,
00001000
00010000
00100000
01000000
00010000
10000000
00010000
01000000
,
00100000
10000000
00100000
01000000
00001000
00010000
00001000
00000000
,
00010000
00000100
00000010
00000001
00001000
00000001
00001000
00000001
,
00001000
00000100
00000010
00000100
00010000
00000000
00011000
00000000
,
00110000
00000000
00000000
00000000
01010000
00000000
00000000
00000000
01000000
00000000
00000000
10000000
00000000
00000000
00100000
00000000
,
01000000
00000000
10000000
00000000
01000000
00000000
00010000
00000000
01000000
00000000
00000000
00100000
00000000
00000000
00010000
00000000
,
00001000
00000000
00000100
00000000
00000010
00000000
00000100
00000000
00001000
00000000
00000000
00000100
00000000
00000000
00000001
00000000
,
00001000
00000100
00000010
00000001
00000010
00000000
00001001
00000000
,
00000001
00000100
00000010
00001000
00000100
00010000
00001000
00010000
,
00100000
01000000
00100000
01000000
10000000
01000000
00100000
00000000
,
10000000
01000000
00010000
01000000
10000000
01000000
00100000
00001000
,
00010000
00001000
00000010
00000100
00001000
00000100
00000001
00000100
,
00000000
00000000
00000000
00000000
;
#NOTES:
     dance-double:
     :
     Hard:
     13:
     :
00000000
00000000
00000000
00000000
,
00000000
00000000
00000000
00000000
,
00000000
00000000
00000000
00000000
,
00000000
00000000
00000000
00000000
,
00000000
00000000
00000000
00000000
,
00000001
00000000
00000100
00000000
,
00001000
00000000
00010000
00000000
,
01100000
00000000
00000000
10010000
00000000
00000000
01100000
00000000
,
00000000
10010000
00000000
00000000
11000000
00000000
00110000
00000000
,
00000000
00100000
00100000
00001000
00010000
00000000
00010000
00000100
,
00001000
00000100
00000010
00000000
00000001
00000100
00000100
00002000
,
00000000
00000000
00013000
00000000
00000000
01000000
01000000
20000000
,
00000000
30100000
01100000
10010000
,
00000000
00100000
01000000
00100000
01000000
00000000
01000000
00010000
,
00100000
00001000
00010000
00000000
00000100
00001000
00001000
00000002
,
00000000
00000000
00000103
00000000
00000000
00000010
00000010
00002002
,
00000000
00000000
00000000
00003003
,
00000001
00000000
00000010
00000001
00000010
00000000
00000100
00001000
00000100
00000000
00000010
00000000
00001000
00000000
00010000
00000000
,
01000000
00000000
00100000
00010000
00100000
00000000
00010000
10000000
00010000
00000000
00000000
00010000
00000000
00000000
00010000
00000000
,
01000000
00000000
00100000
10000000
00100000
00000000
01000000
00010000
01000000
00000000
00100000
00000000
00010000
00000000
00001000
00000000
,
00000100
00000000
00000010
00001000
00000010
00000000
00000100
00000001
00001000
00000000
00000001
00000000
00001001
00000000
00000000
00000000
,
00000001
00000000
00000100
00000001
00000100
00000000
00000010
00001000
00000010
00000000
00000100
00000000
00001000
00000000
00010000
00000000
,
00100000
00000000
01000000
00010000
01000000
00000000
00010000
10000000
00010000
00000000
00000000
00010000
00000000
00000000
00010000
00000000
,
00100000
00000000
01000000
10000000
01000000
00000000
00100000
00010000
00100000
00000000
01000000
00000000
00010000
00000000
00001000
00000000
,
00000010
00000100
00000010
00000000
00000001
00001000
00000001
00000000
00000010
00000000
00000100
00000000
00000110
00000000
00000000
00000000
,
00000010
00000000
00000001
00000100
00000010
00000000
00001000
00000100
00000010
00000000
00000100
00000000
00010000
00000000
00001000
00000000
,
00100000
00000000
00010000
01000000
00100000
00000000
01000000
00100000
10000000
00000000
00000000
10000000
00000000
00000000
10000000
00000000
,
00100000
00000000
01000000
00010000
10000000
00000000
01000000
10000000
00100000
00000000
01000000
00000000
00001000
00000000
00010000
00000000
,
00000100
00000000
00001000
00000010
00000100
00000000
00000001
00000010
00000100
00000000
00001000
00000000
00001001
00000000
00000000
00000000
,
00000100
00000000
00000001
00000010
00000100
00000000
00001000
00000010
00000100
00000000
00000010
00000000
00010000
00000000
00001000
00000000
,
01000000
00000000
00010000
00100000
01000000
00000000
00100000
01000000
10000000
00000000
00000000
10000000
00000000
00000000
10000000
00000000
,
01000000
00000000
00100000
00010000
10000000
00000000
00100000
10000000
01000000
00000000
00100000
00000000
00001000
00000000
00010000
00000000
,
00000010
00001000
00000100
00000000
00000010
00000001
00000100
00000000
00000010
00000000
00001000
00000000
00001001
00000000
00000000
00000000
,
00000002
00000000
00000103
00000000
,
00002000
00000000
00003100
00000000
,
00200000
00000000
00310000
00000000
,
20000000
00000000
31000000
00000000
,
10000000
00000000
01000000
00000000
10000000
00000000
00000000
00000000
00100000
00000000
00000000
00100000
00000000
00000000
00100000
00000000
,
00010000
00000000
00001000
00000000
00000100
00000000
00000000
00000000
00000010
00000000
00000000
00000010
00000000
00000000
00000010
00000000
,
00001000
00000000
00000001
00000000
00000010
00000000
00000000
00000000
00000100
00000000
00000000
00000100
00000000
00000000
00000100
00000000
,
00010000
00001000
00100000
00010000
01000000
00010000
00100000
00000000
,
20020000
00000000
00000000
00000000
,
00000000
00000000
00000000
00000000
,
00000000
00000000
00000000
00000000
,
30030000
10000000
01000000
00100000
01000000
00100000
00010000
00000000
,
00001000
00000100
00000010
00000000
00000010
00000001
00000010
00000000
,
00000001
00000100
00001000
00000000
00001000
00010000
00001000
00000000
,
00010000
00100000
00010000
00100000
10000000
01000000
00100000
01000000
,
00000000
00000000
00000000
00000000
,
10000000
00000000
00100000
01000000
00010000
00000000
10000000
01000000
00100000
00000000
00000000
00001000
00000000
00000000
00010000
00000000
,
00000010
00000000
00001000
00000001
00000100
00000000
00000010
00001000
00000100
00000000
00000000
00000010
00000000
00000000
00000001
00000000
,
00000100
00000000
00001000
00010000
00001000
00000000
00100000
00001000
00010000
00000000
00000000
01000000
00000000
00000000
10000000
00000000
,
00010000
00000000
01000000
00100000
10000000
00000000
01000000
00100000
00010000
00000000
00010000
00000000
00010000
00000000
00000000
00000000
,
10010000
00000000
00000000
10000000
01000000
00000000
00010000
00000000
00001000
00000000
00000010
00000000
00000001
00001000
00000000
00001000
,
00000001
00000000
00000000
00000001
00000100
00000000
00001000
00000000
00010000
00000000
00100000
00000000
10000000
00010000
00000000
00010000
,
10000000
00000000
00000000
01000000
00100000
00000000
00010000
00000000
01000000
00100000
00010000
00000000
00001000
00000000
00000100
00000000
,
00000010
00000000
00000000
00000010
00001000
00000000
00000001
00000000
00000010
00000000
00000100
00000000
00001001
00000000
00000000
00000000
,
00000001
00000000
00000010
00000100
00001000
00000000
00000001
00000100
00000010
00000000
00000000
00010000
00000000
00000000
00001000
00000000
,
00100000
00000000
00010000
10000000
01000000
00000000
00100000
00010000
01000000
00000000
00000000
00100000
00000000
00000000
10000000
00000000
,
01000000
00000000
00010000
00001000
00010000
00000000
00000010
00010000
00001000
00000000
00000000
00000100
00000000
00000000
00000001
00000000
,
00001000
00000000
00000100
00000010
00000001
00000000
00000100
00000010
00001000
00000000
00001000
00000000
00001000
00000000
00000000
00000000
,
00001001
00000000
00000000
00000001
00000100
00000000
00001000
00000000
00010000
00000000
00100000
00000000
10000000
00010000
00000000
00010000
,
10000000
00000000
00000000
10000000
01000000
00000000
00010000
00000000
00001000
00000000
00000010
00000000
00000001
00001000
00000000
00001000
,
00000001
00000000
00000000
00000100
00000010
00000000
00001000
00000000
00000100
00000010
00001000
00000000
00010000
00000000
01000000
00000000
,
00100000
00000000
00000000
00100000
00010000
00000000
10000000
00000000
00100000
01000000
00010000
00000000
10000000
01000000
10000000
01000000
,
00000000
00000000
00000000
00000000
;
