
//----- song ID: papa -----//
#TITLE:paparazzi;
#ARTIST:Yucky;
#BANNER:paparazzi.png;
#BACKGROUND:paparazzi-bg.png;
#CDTITLE:./CDTitles/DDR A20 PLUS.png;
#MUSIC:paparazzi.ogg;
#SAMPLESTART:70.166;
#SAMPLELENGTH:15;
#BPMS:0=280;
#NOTES:
     dance-single:
     :
     Beginner:
     5:
     :
0000
0000
0000
0000
,
0000
0000
0000
0000
,
0000
0000
0000
0000
,
0000
0000
0000
0000
,
0000
0000
0000
0000
,
0000
0000
0000
0000
,
0000
0000
0000
0000
,
0000
0000
0000
0000
,
0000
0000
0000
0000
,
0000
0000
0000
0000
,
0001
0000
0000
0000
,
0010
0000
0000
0000
,
0100
0000
0000
0000
,
0010
0000
0000
0000
,
0001
0000
0000
0000
,
0100
0000
0000
0000
,
2000
0000
0000
0000
,
3000
0000
0000
0000
,
1000
0000
0000
0000
,
0010
0000
0000
0000
,
1000
0000
1000
0000
,
0100
0000
0000
0000
,
0010
0000
0000
0000
,
0100
0000
0000
0000
,
0001
0000
0000
0000
,
0100
0000
0000
0000
,
0010
0000
0000
0000
,
1000
0000
0000
0000
,
0010
0000
0000
0000
,
0100
0000
0000
0000
,
0001
0000
0001
0000
,
0010
0000
0000
0000
,
0001
0000
0001
0000
,
0100
0000
0000
0000
,
1001
0000
0000
0000
,
0100
0000
0000
0000
,
0001
0000
0010
0000
,
0001
0000
0000
0000
,
0100
0000
0000
0000
,
0010
0000
0000
0000
,
1000
0000
0010
0000
,
0100
0000
0000
0000
,
1000
0000
0000
0000
,
0100
0000
0000
0000
,
0010
0000
0001
0000
,
0010
0000
0000
0000
,
0001
0000
0000
0000
,
0100
0000
0000
0000
,
1000
0000
0100
0000
,
0001
0000
0000
0000
,
0002
0000
0000
0000
,
0000
0000
0000
0000
,
0003
0000
0000
0000
,
0000
0000
0000
0000
,
0020
0000
0000
0000
,
0000
0000
0000
0000
,
0030
0000
0000
0000
,
0000
0000
0000
0000
,
0200
0000
0000
0000
,
0000
0000
0000
0000
,
0300
0000
0000
0000
,
0000
0000
0000
0000
,
2000
0000
0000
0000
,
0000
0000
0000
0000
,
3000
0000
0000
0000
,
0000
0000
0000
0000
,
2002
0000
0000
0000
,
0000
0000
0000
0000
,
3003
0000
0000
0000
,
0000
0000
0000
0000
,
0220
0000
0000
0000
,
0000
0000
0000
0000
,
0330
0000
0000
0000
,
0000
0000
0000
0000
,
2002
0000
0000
0000
,
0000
0000
0000
0000
,
3003
0000
0000
0000
,
0000
0000
0000
0000
,
0220
0000
0000
0000
,
0000
0000
0000
0000
,
0330
0000
0000
0000
,
0000
0000
0000
0000
,
1000
0000
0010
0000
,
0100
0000
0010
0000
,
1000
0000
0100
0000
,
1000
0000
0000
0000
,
0100
0000
0010
0000
,
0100
0000
0010
0000
,
0001
0000
0010
0000
,
0001
0000
0000
0000
,
0100
0000
0001
0000
,
0010
0000
0100
0000
,
1000
0000
0010
0000
,
0100
0000
0000
0000
,
0001
0000
0100
0000
,
0001
0000
0010
0000
,
1000
0000
0010
0000
,
0001
0000
0000
0000
,
0100
0000
0100
0000
,
0001
0000
0001
0000
,
0010
0000
0001
0000
,
0010
0000
0000
0000
,
0100
0000
0100
0000
,
1000
0000
1000
0000
,
0010
0000
1000
0000
,
0010
0000
0000
0000
,
1001
0000
0000
0000
,
1001
0000
0000
0000
,
0100
0000
0100
0000
,
0100
0000
0000
0000
,
0010
0000
0010
0000
,
0010
0000
0000
0000
,
2002
0000
0000
0000
,
3003
0000
0000
0000
,
1000
0000
0010
0000
,
0100
0000
0001
0000
,
0100
0000
0000
0000
,
0010
0000
0000
0000
,
0001
0000
0010
0000
,
0100
0000
1000
0000
,
0100
0000
0000
0000
,
0010
0000
0000
0000
,
0001
0000
0010
0000
,
0001
0000
0000
0000
,
0010
0000
1000
0000
,
0010
0000
0000
0000
,
0001
0000
0100
0000
,
0001
0000
0000
0000
,
0100
0000
1000
0000
,
0100
0000
0000
0000
,
0002
0000
0000
0000
,
0003
0000
0000
0000
,
2000
0000
0000
0000
,
3000
0000
0000
0000
,
0010
0000
0100
0000
,
0010
0000
0100
0000
,
0010
0000
0010
0000
,
0010
0000
0000
0000
,
0100
0000
0010
0000
,
0100
0000
0010
0000
,
1000
0000
0001
0000
,
1000
0000
0000
0000
,
0001
0000
0100
0000
,
1000
0000
0000
0000
,
0001
0000
0000
0000
,
1001
0000
0000
0000
,
0000
0000
0000
0000
;
#NOTES:
     dance-single:
     :
     Easy:
     8:
     :
0000
0000
0000
0000
,
0000
0000
0000
0000
,
0000
0000
0000
0000
,
0000
0000
0000
0000
,
0000
0000
0000
0000
,
0000
0000
0000
0000
,
0000
0000
0000
0000
,
0000
0000
0000
0000
,
0000
0000
0000
0000
,
0000
0000
0000
0000
,
0001
0000
0100
0000
,
0001
0000
0100
0000
,
1000
0000
0100
0000
,
1000
0000
0100
0000
,
0001
0000
0010
0000
,
0001
0000
0010
0000
,
1000
0000
0000
0000
0010
0000
0000
0010
,
0000
0000
0000
0000
,
1000
0000
0100
0000
,
0010
0001
0010
0000
,
0001
0000
0100
0000
,
0010
1000
0010
0000
,
1000
0000
1000
0000
,
0100
0000
0100
0000
,
0010
0000
0001
0000
,
0010
0000
0010
0000
,
0001
0000
0100
0000
,
1000
0000
0100
0000
,
0001
0000
1000
0000
,
0100
0000
0001
0000
,
0100
0010
0100
0000
,
0010
0100
0010
0000
,
0001
1000
0001
1000
,
0001
0000
1001
0000
,
1000
0000
0010
0000
,
0100
0001
1000
0000
,
0001
0000
0010
0000
,
0100
1000
0001
0000
,
0100
0010
1000
0000
,
0001
0010
0100
0000
,
1000
0000
0010
0000
,
0001
0000
0010
0000
,
1000
0000
0100
0000
,
1000
0010
1000
0000
,
0001
0000
0100
0000
,
0001
0010
0001
0000
,
1000
0000
0100
0000
,
0001
0000
0100
0000
,
1000
0000
0001
0000
1000
0000
0000
0001
,
0000
0000
0000
0000
,
2002
0000
0000
0000
,
0000
0000
0000
3003
,
0010
0000
0010
0000
,
0010
0000
0000
0000
,
2002
0000
0000
0000
,
0000
0000
0000
3003
,
0100
0000
0100
0000
,
0100
0000
0000
0000
,
0220
0000
0000
0000
,
0000
0000
0000
0330
,
0001
0000
0001
0000
,
0001
0000
0000
0000
,
0220
0000
0000
0000
,
0000
0000
0000
0330
,
1000
0000
1000
0000
,
1000
0000
0000
0000
,
2020
0000
0000
0000
,
0000
0000
0000
3030
,
0001
0000
0100
0000
,
0001
0000
0000
0000
,
0022
0000
0000
0000
,
0000
0000
0000
0033
,
0100
0000
1000
0000
,
0100
0000
0000
0000
,
2002
0000
0000
0000
,
0000
0000
0000
3003
,
0010
0000
0100
0000
,
0001
0000
0000
0000
,
0220
0000
0000
0000
,
0000
0000
0000
0330
,
0110
0000
0000
1001
,
0000
0000
0000
0000
,
1000
0000
0010
0000
,
0100
0001
0100
0000
,
0001
0010
0100
0000
,
0010
0100
1000
0000
,
0010
0100
0010
0000
,
0010
1000
0010
0000
,
0100
0001
0100
0000
,
0100
0010
0100
0000
,
0001
1000
0100
0000
,
1000
0001
0100
0000
,
0001
0010
0001
0010
,
0100
1000
0100
0000
,
1000
0010
0100
0000
,
0001
0010
0100
0000
,
1100
0000
0101
0000
,
1010
0000
0011
0000
,
0001
0000
0100
0000
,
0001
0010
0100
0000
,
1000
0000
0001
0000
,
1000
0010
0100
0000
,
0001
0000
0010
0000
,
1000
0010
0001
0000
,
1000
0100
0010
0000
,
0001
0000
1001
0000
,
0001
0100
0001
0000
,
1000
0100
1000
0000
,
0010
0100
0010
0000
,
0100
0010
0100
0000
,
0001
0000
1000
0000
,
0010
0100
0001
0000
,
1000
0000
0001
0000
,
0010
0000
0000
0100
0000
0000
0000
0000
,
1000
0100
1000
0000
,
0010
0000
0100
0000
,
0001
0010
0001
0000
,
1000
0000
0001
0000
,
1000
1000
0010
0000
,
0001
0001
0100
0000
,
0110
0000
1001
0000
,
0100
0010
0100
0000
,
0001
0100
0010
0000
,
1000
0001
0010
0000
,
0001
0010
0100
0000
,
1000
0001
0100
0000
,
0001
1000
0001
1000
,
0100
0000
0100
0000
,
1000
0001
1000
0001
,
0010
0000
0010
0000
,
0001
0000
1000
0000
0001
0000
0000
0001
,
0000
0010
0010
0000
,
0100
1000
0010
0000
,
0100
0001
0010
0000
,
0001
0010
0001
0000
,
1000
0010
1000
0000
,
0001
0000
1001
0000
,
0010
0100
0010
0000
,
1000
0100
1000
0100
,
0010
0001
0010
0000
,
0001
0100
0001
0100
,
0010
1000
0010
0000
,
1000
0000
0110
0000
,
0001
0000
0110
0000
,
1000
0000
0001
0000
1000
0000
0000
1001
,
0000
0000
0000
0000
;
#NOTES:
     dance-single:
     :
     Medium:
     12:
     :
0000
0000
0000
0000
,
0000
0000
0000
0000
,
0000
0000
0000
0000
,
0000
0000
0000
0000
,
0000
0000
0000
0000
,
0000
0000
0000
0000
,
0000
0000
0000
0000
,
0000
0000
0000
0000
,
0000
0000
0000
0000
,
0000
0000
0000
0000
,
0001
0100
0001
0100
,
0010
1000
0010
0000
,
1000
0010
1000
0010
,
0100
0001
0100
0000
,
0001
0010
0001
0000
,
1000
0100
1000
0000
,
0001
0000
1000
0000
0001
1000
0000
0001
,
0000
0000
0000
0000
0000
0000
0000
0010
,
0000
0001
0100
1000
,
0100
0001
1000
0000
,
0100
0010
0100
0000
0010
0000
0001
0000
,
0100
0010
0100
0000
0001
0000
0000
0000
,
0100
0000
0000
0010
1000
0000
0000
0001
,
0100
0000
0001
0000
1000
0100
0000
0100
,
0000
0001
0100
1000
,
0001
0000
0010
0000
0100
0000
0000
1000
,
0000
0000
0010
0000
0010
0000
0000
0001
,
0000
0000
0010
0000
0010
0000
0000
0200
,
0000
0300
0010
1000
,
0001
0100
0001
0000
,
0000
0100
0000
1000
0000
0100
0000
1000
,
0000
0001
0000
0010
0000
0001
0000
0100
,
0010
0000
1000
0001
0000
1000
0001
0000
,
0100
0010
1001
0000
,
0100
0010
0100
0010
,
1000
0000
0001
0000
1000
0100
1000
0000
,
0100
0010
0001
0100
,
0010
1000
0001
0000
,
0100
0001
0100
0000
0010
0000
0000
0000
,
1000
0100
1000
0000
0010
0000
0000
0000
,
0001
0010
1000
0010
,
0001
0000
1000
0000
0010
0100
0000
0010
,
0000
0000
0000
1000
0001
0000
0100
0001
,
0000
0010
0100
0000
,
1000
0010
0100
0001
,
0010
0100
0010
0000
,
0001
0000
1000
0000
0010
0000
0100
0001
,
0000
0001
0000
0001
1000
0000
0000
0000
,
0010
0000
0100
0000
0001
1000
0001
1000
,
0000
0000
0000
0000
,
2002
0000
0000
0000
,
0000
0000
0000
0000
,
3003
0000
0000
0000
0010
0100
0000
0010
,
0100
1000
0100
0001
,
0200
0000
0000
0000
,
0000
0000
0000
0000
0000
0000
0000
0310
,
0000
0000
0000
0000
0000
0000
1000
0100
,
0000
0000
1000
0010
1000
0000
0001
0000
,
0200
0000
0000
0000
,
0000
0000
0000
0300
,
0000
0001
0100
0000
0001
0100
0000
0010
,
1000
0000
0010
1000
0000
0100
0010
0000
,
0200
0000
0000
0000
,
0000
0000
0000
0000
,
0310
0000
0000
0000
,
1001
0000
1000
0100
0000
0010
0001
0000
,
2000
0000
0000
0000
,
0000
0000
0000
3000
,
0001
0000
0100
0010
0100
0000
0010
0100
,
0000
0001
0010
1000
,
0020
0000
0000
0000
,
0000
0000
0000
0000
0000
0000
0030
0001
,
0100
0000
0000
0100
0010
0000
0000
0010
,
1000
0100
0010
0001
,
2000
0000
0000
0000
,
0000
0000
0000
3000
,
0010
0000
0000
0010
0000
0000
0010
0000
,
0000
1000
0010
0100
,
0002
0000
0000
0000
,
0000
0000
0000
0003
,
1001
0000
0000
0000
0000
0000
1000
0001
,
0000
0000
0000
0000
,
0001
1000
0100
1000
,
0001
0000
1000
0000
0100
0010
0001
0000
,
0100
0000
0000
0100
0010
0000
0000
0010
,
1000
0000
0000
1000
0001
0000
0010
0000
,
0100
0100
1000
0010
,
0100
0100
0001
0010
,
0100
0001
0100
0010
,
0100
1000
0001
0000
,
1000
0000
0010
0000
0100
0001
0000
0001
,
0000
0000
0000
1000
0100
0000
0100
0000
,
0001
0100
1000
0001
,
0010
0000
0100
1000
0001
0000
1000
0000
,
0010
0000
0010
0010
,
1000
1000
0001
0001
,
0000
0100
0001
0000
0000
0001
1000
0000
,
0000
1000
0100
0000
0000
0100
0010
0000
,
0001
0000
1000
0000
0010
0100
0000
0010
,
0100
0001
1000
0100
,
0010
0001
0010
1000
,
0010
0000
0001
0000
1000
0010
0000
0110
,
0000
0000
0000
0000
1000
0100
0000
1000
,
0000
0000
0001
0000
0100
0001
0000
0020
,
0000
0030
0001
0100
,
1000
0100
0001
0100
,
0010
1000
0100
0010
,
0001
0100
0000
0001
0000
0100
0001
0000
,
1000
0010
0001
0010
,
1000
0100
0001
0100
,
1000
0001
0010
0100
,
1000
0001
1000
0000
0010
0000
0100
0000
,
0001
0010
0100
1000
,
0001
0000
0100
0010
0000
0010
0000
0010
,
0100
0000
0001
0000
1000
0100
0000
1000
,
0100
0000
0010
0000
0001
0100
0000
0001
,
0100
0010
0001
0010
,
1000
0010
0001
0010
,
1000
0100
1000
0000
0010
0000
0100
0000
,
0001
0010
0001
0000
0100
0000
0010
0000
,
1000
0000
0001
1000
0000
0000
0000
0000
,
0000
0000
1000
0000
0001
1000
0001
0000
,
0100
0010
1000
0100
,
0001
0000
0100
0000
0010
0001
0010
0000
,
0001
0100
1000
0100
,
0010
0000
1000
0001
1000
0000
0001
0000
,
0010
0000
1000
0000
0010
0001
0000
0001
,
0000
0000
1000
0000
0100
0010
0000
0100
,
0000
0000
1000
0010
,
0100
0001
1000
0000
,
0001
0000
0010
0000
0001
1000
0000
0100
,
0000
1000
0100
0000
1000
0000
0010
0000
,
0100
0001
0010
0100
,
1000
0010
0100
0000
,
0001
0000
0100
0000
0001
1000
0000
0100
,
0000
0000
1000
0000
0010
0100
0000
0010
,
0000
0000
0010
0100
,
0010
0100
0010
0000
,
0110
0000
0000
0000
0001
0000
0000
1000
,
0000
0001
1000
0000
0001
0000
0000
0100
,
0000
0100
0000
0000
0010
0000
1000
0000
,
0001
0100
0001
0000
,
1000
0100
1000
0100
,
0001
0100
0001
0100
,
1000
0000
0001
0000
1000
0001
0000
1001
,
0000
0000
0000
0000
;
#NOTES:
     dance-single:
     :
     Hard:
     15:
     :
0000
0000
0000
0000
,
0000
0000
0000
0000
,
0000
0000
0000
0000
,
0000
0000
0000
0000
,
0000
0000
0000
0000
,
0000
0000
0000
0000
,
0000
0000
0000
0000
,
0000
0000
0000
0000
,
0000
0000
0000
0000
,
0000
0000
0000
0000
,
0001
0000
1000
0000
0100
0000
0000
0010
,
0000
0100
1000
0000
,
0001
0000
0100
0000
0010
0000
0000
0100
,
0000
0000
0000
0100
0000
0000
0000
0000
0000
0000
0000
0000
0001
0000
0000
0000
0010
0000
0000
0000
0100
0000
0000
0000
,
1000
0000
0010
0000
0100
0000
0000
0001
,
0000
0010
0100
0000
,
1000
0001
1000
0001
1000
0001
1000
0001
,
0000
0000
0000
0000
0000
0000
0000
1001
,
0000
0000
0010
0000
1000
0100
1000
0000
,
0100
0000
0010
0000
0001
0010
0001
0000
,
1000
0100
1000
0000
0001
0100
0001
0000
,
1000
0100
1000
0100
0010
0001
0010
0000
,
0001
0000
0100
0000
0010
0100
0010
0000
,
1000
0000
0100
0000
0010
0001
0000
0001
,
0010
0000
0100
0010
0001
0000
0100
0000
,
0010
0000
0100
0010
1000
0000
0100
0010
,
0000
0000
0001
0000
0011
0000
0100
0001
,
0000
0000
0011
0000
0100
1000
0000
0200
,
0000
0000
0300
0000
1000
0000
0010
1000
,
0100
0000
0010
0001
0100
0010
0100
0001
,
0010
0001
0000
0100
0010
0000
1000
0100
,
0010
0000
0100
0010
0001
0000
0100
0000
,
0010
0000
0100
0010
0000
1000
0001
0010
,
0100
0000
0000
1000
0000
0000
0100
0000
0010
0000
0100
0000
,
0010
0001
0010
0000
0001
0000
1000
0100
,
0000
0010
0000
0100
0010
0000
0001
0000
,
1000
0100
0001
0000
0001
0100
1000
0000
,
0001
0100
1000
0000
1000
0100
0001
0000
,
0010
0001
0010
0000
1000
0010
1000
0000
,
0010
0001
0010
0000
0001
0100
0001
0000
,
0100
1000
0100
0001
0100
0000
0001
0010
,
0100
1000
0100
0000
1000
0100
0000
0110
,
0000
0000
0000
1000
0001
1000
0000
1001
,
0000
0001
0010
0000
0001
0100
0001
0000
,
0100
0010
0000
1000
0100
0010
0000
0001
,
0010
0001
0010
0100
1000
0001
1000
0000
,
0010
0100
0000
0001
0100
0000
0001
0010
,
0000
0011
0000
0100
1000
0000
1001
0000
,
0010
0100
0010
0100
0010
0100
0010
0100
,
0000
0000
0000
0000
,
2002
0000
0000
0000
,
0000
0000
0000
0000
,
3003
0000
0000
0000
0010
0100
0000
0100
,
0010
1000
0001
0100
0010
1000
0100
0010
,
0002
0000
0000
0000
0010
0000
0000
0200
,
0000
0000
0000
0000
0303
0000
0010
1000
,
0000
0000
0000
0000
0000
0000
0100
0010
,
0000
0000
0010
0001
0100
0001
0010
0001
,
0200
0000
0000
0000
1000
0000
0000
0002
,
0000
0000
0000
0303
,
0000
0010
1000
0100
0010
0001
0100
0010
,
1000
0100
0010
0001
0100
0010
1000
0100
,
0020
0000
0000
0000
1000
0000
0000
0002
,
0000
0000
0000
0000
0000
0000
0033
0001
,
0010
0000
0000
0000
0000
0000
0000
0001
,
0010
0000
0001
0100
0000
0010
1000
0010
,
2000
0000
0000
0000
0100
0000
0000
0020
,
0000
0000
0000
0000
3030
0000
0000
0100
,
0010
0000
1000
0100
1000
0000
0001
0010
,
0000
0010
0001
1000
0010
0100
0001
1000
,
0020
0000
0000
0000
0001
0000
0000
0200
,
0000
0000
0000
0000
0000
0000
0330
0001
,
0010
0000
0000
1000
0010
0000
0000
0001
,
0000
0100
0000
1000
0100
0000
0001
0000
,
0020
0000
0000
0000
0100
0000
0000
0002
,
0000
0000
0000
0033
,
1000
0000
0000
0001
0000
0000
1000
0001
,
0000
0010
0000
0100
0000
1000
0100
1000
,
0002
0000
0000
0000
0100
0000
0000
0200
,
0000
0000
0000
0303
,
1001
0000
0000
0000
0000
0000
1000
0001
,
0000
0000
0000
0000
0000
0000
0000
0100
,
0010
0000
1000
0010
1000
0000
0001
0100
,
0001
0000
0010
0100
1000
0001
1000
0000
,
0100
0000
0000
1000
0100
0010
0000
0001
,
1000
0100
0000
0010
0100
0000
1000
0000
,
0001
0010
0100
1000
,
0010
0100
0010
0000
1000
0001
1000
0000
,
0001
0010
0000
0001
0100
0001
0000
0100
,
0000
0000
0010
0100
0010
0100
0010
0000
,
1000
0000
1000
0000
0100
0010
0000
0011
,
0000
0000
0000
1000
0100
0000
1000
0000
,
0001
0000
0010
0100
0000
0000
0000
1000
,
0000
0001
0100
0000
0010
1000
0010
0000
,
1001
0000
0200
0301
,
0020
0130
2000
3001
,
0000
0100
0010
0001
0000
0100
0010
1000
,
0000
0100
0010
0001
0000
0100
0010
0000
,
1000
0000
0100
0000
1000
0001
0000
1001
,
0000
0010
0100
0000
0001
1000
0001
0000
,
0100
0000
0001
0000
0010
1000
0010
0001
,
0010
0000
0001
0000
1000
0100
0000
1001
,
0000
0000
0000
0000
0010
0100
0000
1001
,
0000
0000
0110
0000
1000
0001
0000
0220
,
0000
0000
0330
0000
1000
0010
1000
0000
,
0001
0100
0001
0000
0010
0000
0010
0000
,
0100
0000
1000
0000
0100
0000
0001
0100
,
0000
1000
0000
0010
0001
0000
0010
0000
,
1000
0000
0001
0000
0100
0001
0010
0000
,
0100
1000
0010
0000
0100
0001
0010
0000
,
0100
1000
0001
0000
0100
0000
0010
0000
,
0100
0001
1000
0000
0100
0000
0010
0000
,
0001
1000
0100
0000
0010
0001
0010
0000
,
0001
0100
0010
0100
0000
0010
0000
1001
,
0000
0000
1001
0000
0100
0010
0000
1001
,
0000
0010
0100
0000
1000
0001
1000
0000
,
0001
0010
0000
0001
0000
0100
0010
0000
,
1000
0100
1000
0000
0001
0100
0001
0000
,
0010
0100
1000
0100
0010
0100
0001
0100
,
0000
0100
1000
0001
0100
0010
0100
1000
,
0100
0000
0020
0200
0000
0000
0330
0000
,
0000
0000
0001
1000
0001
1000
0001
0000
,
0100
0000
0010
1000
0010
0000
0100
0000
,
0100
0000
0010
0001
0010
0000
0100
0000
,
0100
0000
0000
0001
0100
0000
0100
0010
,
0000
0010
1000
0000
0001
1000
0001
0000
,
0100
0000
0001
0000
0001
1000
0000
0001
,
0000
0001
1000
0000
0100
0010
0000
0100
,
0000
0000
0000
1000
0010
0000
0100
0001
,
0010
0000
0100
1000
0000
0001
0000
0010
,
0001
0000
0100
0000
0010
1000
0000
0010
,
0000
1000
0010
0000
1000
0000
1000
0000
,
0010
0100
0001
0000
0010
0100
1000
0000
,
0001
0100
0010
0000
1000
0100
0010
0000
,
0001
0000
1000
0100
1000
0100
0000
0010
,
0000
0110
0000
0100
1000
0001
0000
1001
,
0000
0000
0001
0000
0100
0001
0100
0000
,
0010
1000
0010
0000
1000
0100
1000
0200
,
0000
0000
0000
0000
0301
0000
0000
0110
,
0000
1000
0001
0000
0110
0000
1000
0001
,
0000
1001
0000
0000
0001
0100
0010
0000
,
1000
0100
0010
0000
0001
0100
0010
0000
,
1000
0010
0100
0010
1000
0001
0010
0100
,
1000
0100
0001
0100
0010
0001
0100
0000
,
0001
1000
0001
1000
0001
1000
0000
1001
,
0000
0000
0000
0000
;
#NOTES:
     dance-double:
     :
     Easy:
     8:
     :
00000000
00000000
00000000
00000000
,
00000000
00000000
00000000
00000000
,
00000000
00000000
00000000
00000000
,
00000000
00000000
00000000
00000000
,
00000000
00000000
00000000
00000000
,
00000000
00000000
00000000
00000000
,
00000000
00000000
00000000
00000000
,
00000000
00000000
00000000
00000000
,
00000000
00000000
00000000
00000000
,
00000000
00000000
00000000
00000000
,
00100000
00000000
10000000
00000000
,
01000000
00000000
00100000
00000000
,
00010000
00000000
00100000
00000000
,
00001000
00010000
00001000
00000000
,
00010000
00000000
00000010
00000000
,
00001000
00000000
00000001
00000000
,
00000100
00000000
00000000
00000000
00000010
00000000
00000000
00000010
,
00000000
00000000
00000000
00000000
,
00000001
00000000
00000100
00000000
,
00000010
00001000
00000010
00000000
,
00001000
00000000
00000100
00000000
,
00010000
00000000
00001000
00000000
,
01000000
00000000
00010000
00000000
,
00100000
01000000
00100000
00000000
,
00010000
00000000
10000000
00000000
,
01000000
00000000
00100000
00000000
,
00010000
00000000
00010000
00000000
,
00100000
00000000
00100000
00000000
,
00001000
00000000
00010000
00000000
,
00001000
00010000
00001000
00000000
,
00010000
00000000
00010000
00000000
,
00000010
00000000
00000010
00000000
,
00000100
00000000
00000100
00000000
,
00000001
00001000
00000001
00000000
,
00000010
00000000
00000100
00000000
,
00001000
00000000
00000100
00000000
,
00010000
00000000
00001000
00000000
,
01000000
00010000
00100000
00000000
,
01000000
00000000
10000000
00000000
,
00100000
00000000
01000000
00000000
,
00100000
00000000
10000000
00000000
,
00010000
01000000
00010000
00000000
,
00100000
00000000
00001000
00000000
,
00010000
00000000
00000010
00000000
,
00001000
00000100
00001000
00000000
,
00000001
00000010
00000001
00000000
,
00000100
00000000
00000010
00000000
,
00001000
00000000
00000010
00000000
,
00010000
00000000
00000000
00000000
00001000
00000000
00000000
00010000
,
00000000
00000000
00000000
00000000
,
00022000
00000000
00000000
00000000
,
00000000
00000000
00000000
00033000
,
00100000
00000000
00100000
00000000
,
00100000
00000000
00000000
00000000
,
20020000
00000000
00000000
00000000
,
00000000
00000000
00000000
30030000
,
01000000
00000000
01000000
00000000
,
01000000
00000000
00000000
00000000
,
02200000
00000000
00000000
00000000
,
00000000
00000000
00000000
03300000
,
00010000
00000000
00001000
00000000
,
00010000
00000000
00000000
00000000
,
00022000
00000000
00000000
00000000
,
00000000
00000000
00000000
00033000
,
00000100
00000000
00000100
00000000
,
00000100
00000000
00000000
00000000
,
00002002
00000000
00000000
00000000
,
00000000
00000000
00000000
00003003
,
00000010
00000000
00000010
00000000
,
00000010
00000000
00000000
00000000
,
00002002
00000000
00000000
00000000
,
00000000
00000000
00000000
00003003
,
00000010
00000000
00000100
00000000
,
00001000
00000000
00000000
00000000
,
00022000
00000000
00000000
00000000
,
00000000
00000000
00000000
00033000
,
01000000
00000000
00010000
00000000
,
00100000
00000000
00000000
00000000
,
02200000
00000000
00000000
00000000
,
00000000
00000000
00000000
03300000
,
01100000
00000000
00000000
10010000
,
00000000
00000000
00000000
00000000
,
10000000
00000000
00010000
00000000
,
00100000
00001000
00100000
00000000
,
00001000
00010000
00001000
00000000
,
00010000
00000010
00010000
00000000
,
00000100
00000000
00001000
00000000
,
00000010
00000100
00000010
00000000
,
00001000
00000100
00001000
00000000
,
00000100
00010000
00000100
00000000
,
00010000
00000000
00001000
00000000
,
01000000
00010000
00100000
00000000
,
01000000
10000000
01000000
10000000
,
00010000
00100000
00010000
00000000
,
01000000
00000000
00001000
00000000
,
00010000
00001000
00010000
00000000
,
00000100
00001000
00000010
00001000
,
00000100
00000000
00001100
00000000
,
00000001
00000000
00000100
00000000
,
00000001
00000100
00000010
00000000
,
00001000
00000100
00010000
00000000
,
00001000
00010000
00001000
00000000
,
00100000
00000000
00110000
00000000
,
00010000
00000000
01010000
00000000
,
00100000
10000000
01000000
00000000
,
00100000
00010000
01000000
00000000
,
00010000
00000000
00100000
00000000
,
00001000
00010000
00001000
00000000
,
00000100
00000010
00000100
00000001
,
00000100
00000000
00000010
00000000
,
00001000
00000000
00000100
00000000
,
00010000
00001000
00010000
00000000
,
01000000
00100000
01000000
00100000
,
01000000
00000000
00000000
01000000
00000000
00000000
00000000
00000000
,
10000000
00100000
10000000
00000000
,
00010000
00000000
00100000
00000000
,
00001000
00010000
00001000
00000000
,
00000010
00000000
00000100
00000000
,
00001000
00000001
00001000
00000000
,
00000001
00001000
00000001
00000000
,
00000110
00000000
00001000
00000000
,
00010000
00000000
00011000
00000000
,
01000000
00010000
00100000
00000000
,
01000000
10000000
01000000
00000000
,
00100000
00010000
00100000
00000000
,
00001000
00010000
00000010
00000000
,
00001000
00000100
00001000
00000100
,
00000010
00000000
00000010
00000000
,
00000001
00000100
00000001
00000100
,
00000010
00000000
00000010
00000000
,
00010000
00000000
00001000
00000000
00010000
00000000
00000000
00010000
,
00000000
00001000
00001000
00000000
,
00100000
00010000
01000000
00000000
,
00100000
10000000
01000000
00000000
,
00100000
00001000
00010000
00000000
,
00000010
00010000
00001000
00000000
,
01000000
00001000
00010000
00000000
,
00000100
00010000
00001000
00000000
,
00000010
00000001
00000010
00000001
,
00000100
00000001
00000100
00000000
,
00000010
00001000
00000010
00001000
,
00000010
00010000
00001000
00000000
,
00100000
00010000
01000000
00000000
,
00100000
10000000
01000000
00000000
,
00010000
00000000
00000000
00000000
00001000
00000000
00000000
00011000
,
00000000
00000000
00000000
00000000
;
#NOTES:
     dance-double:
     :
     Medium:
     12:
     :
00000000
00000000
00000000
00000000
,
00000000
00000000
00000000
00000000
,
00000000
00000000
00000000
00000000
,
00000000
00000000
00000000
00000000
,
00000000
00000000
00000000
00000000
,
00000000
00000000
00000000
00000000
,
00000000
00000000
00000000
00000000
,
00000000
00000000
00000000
00000000
,
00000000
00000000
00000000
00000000
,
00000000
00000000
00000000
00000000
,
10000000
01000000
10000000
01000000
,
10000000
00100000
10000000
00000000
,
00100000
01000000
00100000
01000000
,
00010000
00100000
00001000
00000000
,
00010000
00000100
00001000
00000000
,
00000010
00000100
00000001
00000000
,
00001000
00000000
00000001
00000000
00001000
00000001
00000000
00001000
,
00000000
00000000
00000000
00000000
00000000
00000000
00000000
00000010
,
00000000
00000100
00000001
00000100
,
00001000
00010000
00001000
00000000
,
00100000
00010000
00100000
00000000
01000000
10000000
01000000
00000000
,
10000000
00010000
01000000
00000000
,
00100000
00000000
00000000
01000000
00001000
00000000
00000000
00001000
,
00010000
00000000
00000100
00000000
00001000
00000010
00000000
00000010
,
00000000
00000100
00000001
00000100
,
00000010
00010000
00001000
00000000
,
00100000
00000000
00010000
00000000
00100000
00000000
00000000
01000000
,
00000000
00000000
00010000
00000000
01000000
00000000
00000000
20000000
,
00000000
30000000
00100000
01000000
,
00100000
00010000
00001000
00000000
,
00000000
00010000
00000000
00000010
00000000
00010000
00000000
00000010
,
00000000
00001000
00000000
00000100
00000000
00001000
00000000
00000100
,
00000010
00000000
00000001
00001000
00000000
00000001
00001000
00000000
,
00000010
00000100
00000010
00000000
,
00001000
00000100
00001000
00000100
,
00010000
00000000
00001000
00000000
01000000
00010000
01000000
00000000
,
00010000
00100000
10000000
00100000
,
00010000
10000000
01000000
00000000
,
00100000
00001000
00010000
00000000
00001000
00000000
00010000
00000000
,
00000100
00010000
00001000
00000000
00010000
00000000
00000010
00000000
,
00001000
00000100
00001000
00000000
00000001
00000010
00000001
00000000
,
00000100
00000000
00001000
00000000
00010000
00001000
00000000
00010000
,
00000000
00000000
00000000
00010000
01000000
00000000
10000000
00000000
,
00100000
00010000
00001000
00010000
,
00000010
00001000
00000100
00000001
,
00000100
00001000
00000001
00000000
,
00000100
00000000
00000010
00000000
00010000
00000000
00001000
00010000
,
00000000
00010000
00000000
00010000
00001000
00000000
00010000
00000000
,
01000000
00000000
10000000
00000000
00010000
10000000
00010000
10000000
,
00000000
00000000
00000000
00000000
,
20020000
00000000
00000000
00000000
,
00000000
00000000
00000000
00000000
,
30030000
00000000
00000000
00000000
10000000
01000000
00000000
10000000
,
01000000
00100000
00001000
00010000
,
00002000
00000000
00000000
00000000
,
00000000
00000000
00000000
00000000
00000000
00000000
00000000
00003010
,
00000000
00000000
00000000
00000000
00000000
00000000
00000001
00000010
,
00000000
00000000
00000001
00001000
00000001
00000000
00000100
00000000
,
00000200
00000000
00000000
00000000
,
00000000
00000000
00000000
00000300
,
00000000
00001000
00010000
00000000
00001000
00010000
00000000
00100000
,
01000000
00000000
00100000
01000000
00000000
00010000
00100000
00000000
,
02000000
00000000
00000000
00000000
,
00000000
00000000
00000000
00000000
,
03100000
00000000
00000000
00000000
,
10010000
00000000
01000000
00100000
00000000
00010000
00100000
00000000
,
00002000
00000000
00000000
00000000
,
00000000
00000000
00000000
00003000
,
00010000
00000000
00000100
00001000
00000100
00000000
00000010
00000100
,
00000000
00000010
00000001
00001000
,
00000200
00000000
00000000
00000000
,
00000000
00000000
00000000
00000000
00000000
00000000
00000300
00000010
,
00000100
00000000
00000000
00000100
00010000
00000000
00000000
00010000
,
00001000
01000000
00010000
00100000
,
02000000
00000000
00000000
00000000
,
00000000
00000000
00000000
03000000
,
10000000
00000000
00000000
00010000
00000000
00000000
10000000
00000000
,
00000000
00100000
01000000
00001000
,
00020000
00000000
00000000
00000000
,
00000000
00000000
00000000
00030000
,
00011000
00000000
00000000
00000000
00000000
00000000
00001000
00010000
,
00000000
00000000
00000000
00000000
,
00000010
00001000
00000100
00001000
,
00000010
00000000
00000100
00000000
00000001
00001000
00000001
00000000
,
00000100
00000000
00000000
00000100
00001000
00000000
00000000
00001000
,
00010000
00000000
00000000
00010000
00100000
00000000
01000000
00000000
,
00100000
10000000
01000000
00010000
,
10000000
00100000
00010000
00100000
,
00001000
00010000
00000100
00001000
,
00000010
00000000
00000100
00000010
00000100
00000000
00000000
00000000
,
00000001
00000000
00000001
00000000
00000100
00001000
00000000
00001000
,
00000000
00000000
00000000
00000100
00000010
00000000
00010000
00000000
,
00001000
00010000
01000000
10000000
,
00010000
00000000
00100000
01000000
00100000
00000000
00010000
00000000
,
10000000
00000000
00100000
01000000
,
00010000
00100000
00001000
00010000
,
00000000
00010000
00000010
00000000
00000000
00000010
00001000
00000000
,
00000000
00001000
00000100
00000000
00000000
00000100
00000010
00000000
,
00000001
00000100
00001000
00000100
,
00010000
01000000
00100000
01000000
,
00010000
10000000
01000000
00010000
,
01000000
00000000
00100000
00000000
00001000
00010000
00000000
00011000
,
00000000
00000000
00000000
00000000
00000100
00000010
00000000
00000100
,
00000000
00000000
00000100
00000000
00000010
00000100
00000000
00000020
,
00000000
00000030
00000001
00000100
,
00001000
00010000
00001000
00000000
,
01000000
00010000
01000000
00010000
,
00100000
01000000
00000000
01000000
00000000
01000000
10000000
00000000
,
00100000
01000000
00010000
00100000
,
00001000
00000000
00010000
00000000
00001000
00010000
00000000
00010000
,
00000010
00001000
00000010
00001000
,
00000001
00000100
00000001
00000100
,
00000001
00000010
00001000
00000010
,
00000001
00000000
00000100
00000010
00000000
00000010
00000000
00000010
,
00000100
00000000
00000010
00000000
00001000
00000100
00001000
00000000
,
00000100
00000000
00010000
00000000
00001000
00010000
00001000
00000000
,
01000000
00010000
00100000
01000000
,
00100000
00010000
01000000
00001000
,
00010000
00100000
10000000
00100000
,
00010000
00001000
00010000
01000000
,
10000000
00000000
00010000
10000000
00000000
00000000
00000000
00000000
,
00000000
00000000
10000000
00000000
01000000
00100000
01000000
00000000
,
00010000
00001000
00000010
00000001
,
00001000
00000100
00000010
00000001
,
00000100
00001000
00010000
00000010
,
00000100
00001000
00010000
00100000
,
01000000
00000000
00001000
00000000
00100000
00010000
00000000
00010000
,
00000000
00000000
00100000
00000000
01000000
00100000
00000000
01000000
,
00000000
00000000
10000000
01000000
,
00010000
00000000
00001000
00000000
00010000
00001000
00010000
00000000
,
00000010
00000000
00001000
00000000
00000100
00000010
00000000
00000100
,
00000000
00000010
00000100
00000000
00001000
00000000
00000001
00000000
,
00000010
00001000
00000010
00000001
,
00001000
00000100
00000001
00000100
,
00001000
00000100
00010000
00001000
,
00100000
00010000
01000000
00100000
,
10000000
01000000
00010000
01000000
,
00100000
00000000
00001000
00010000
00001000
00010000
00001000
00000000
,
00010000
00000000
00000100
00000000
00001000
00000000
00000010
00000100
,
00000000
00000010
00000100
00000000
00000001
00000000
00000000
00000100
,
00000000
00000100
00000000
00000000
00001000
00000000
00010000
00000000
,
00100000
00010000
00001000
00010000
,
01000000
10000000
01000000
00010000
,
00001000
00000010
00000001
00000100
,
00001000
00000000
00010000
00000000
00001000
00010000
00000000
00011000
,
00000000
00000000
00000000
00000000
;
#NOTES:
     dance-double:
     :
     Hard:
     15:
     :
00000000
00000000
00000000
00000000
,
00000000
00000000
00000000
00000000
,
00000000
00000000
00000000
00000000
,
00000000
00000000
00000000
00000000
,
00000000
00000000
00000000
00000000
,
00000000
00000000
00000000
00000000
,
00000000
00000000
00000000
00000000
,
00000000
00000000
00000000
00000000
,
00000000
00000000
00000000
00000000
,
00000000
00000000
00000000
00000000
,
10000000
00000000
00100000
00000000
01000000
00000000
00010000
00100000
,
00000000
00010000
00100000
00000000
00001000
00000000
00010000
00000000
,
00000100
00000000
00001000
00000000
00000010
00000000
00000100
00000001
,
00000000
00000000
00000000
00000100
00000000
00000000
00000001
00000000
00000000
00000000
00000000
00000000
00000010
00000000
00000000
00000000
00000100
00000000
00000000
00000000
00001000
00000000
00000000
00000000
,
00000100
00000000
00000010
00000000
00000001
00000000
00000100
00000010
,
00000000
00000100
00000010
00000000
00000100
00000000
00001000
00000000
,
00010000
00001000
00010000
00001000
00010000
00001000
00010000
00001000
,
00000000
00000000
00000000
00000000
00000000
00000000
00000000
00011000
,
00000000
00000000
00001000
00000000
00010000
00100000
10000000
00000000
,
01000000
00001000
01000000
00100000
,
00001000
00010000
00001000
00000000
00010000
00000010
00010000
00000000
,
00000010
00001000
00000010
00000000
00001000
00000100
00001000
00000000
,
00000001
00000100
00000001
00000100
00000010
00000000
00001000
00000000
,
00000100
00010000
00000100
00010000
00001000
01000000
00000000
01000000
,
00100000
00000000
00010000
00100000
10000000
00000000
01000000
00000000
,
00010000
00000000
00001000
00000000
01000000
00000000
00100000
00010000
,
00000000
00000000
00001000
00000000
00011000
00000000
00000100
00000010
,
00000000
00000000
00000011
00000000
00000100
00001000
00000000
00000200
,
00000000
00000000
00000300
00000000
00000001
00000100
00001000
00000000
,
00000001
00000100
00001000
00000000
00010000
00100000
10000000
00000000
,
01000000
00010000
01000000
00010000
01000000
00000000
00100000
00000000
,
00001000
00010000
00001000
01000000
00001000
00000000
00010000
00000000
,
00000100
00000000
00001000
00000010
00000000
00000100
00000001
00000000
,
00000010
00000000
00000000
00000100
00000000
00000000
00001000
00000000
00000001
00000000
00001000
00000000
,
00000001
00000010
00000001
00000000
00001000
00000000
00000100
00010000
,
00000000
00001000
00000000
00000100
00001000
00000000
00010000
00000000
,
00000010
00000100
00001000
00000000
00001000
00010000
00100000
00000000
,
00100000
01000000
10000000
00000000
10000000
01000000
00010000
00000000
,
10000000
00000000
10000000
00100000
01000000
00010000
01000000
00010000
,
00100000
00010000
00100000
00010000
00100000
00001000
00010000
00001000
,
00010000
00000100
00000000
00000100
00001000
00000010
00000000
00000100
,
00000001
00001000
00000001
00001000
00000001
00000100
00000000
00000110
,
00000000
00000000
00000000
00000100
00000001
00000010
00000001
00000100
,
00000000
00000010
00001000
00000010
00000000
00010000
00001000
00000000
,
00010000
00100000
01000000
00000000
00010000
00100000
01000000
00000000
,
00010000
00001000
00010000
00001000
00010000
00100000
00010000
00000000
,
00001000
00010000
00001000
00000000
00010000
01000000
10000000
00000000
,
00100000
01000000
00100000
00000000
00010000
00001000
00010000
00000000
,
00000100
00001000
00000100
00001000
00000100
00000010
00000001
00000010
,
00000000
00000000
00000000
00000000
,
00002002
00000000
00000000
00000000
,
00000000
00000000
00000000
00000000
,
00003003
00000000
00000000
00000000
00000010
00000001
00000000
00000001
,
00000100
00000010
00001000
00000100
00010000
00001000
01000000
00010000
,
00200000
00000000
00000000
00000000
,
00000000
00000000
00000000
00000000
00300000
00000000
00100000
01000000
,
00000000
00000000
00000000
00000000
00000000
00000000
00100000
01000000
,
00000000
00000000
10000000
00100000
01000000
00001000
00010000
00000100
,
00000020
00000000
00000000
00000000
,
00000000
00000000
00000000
00000030
,
00000000
00000010
00000001
00000100
00000010
00001000
00000100
00000010
,
00000001
00000100
00000010
00010000
00001000
01000000
00010000
00100000
,
02000000
00000000
00000000
00000000
,
00000000
00000000
00000000
00000000
00000000
00000000
03000000
10000000
,
00010000
00000000
00000000
00000000
00000000
00000000
00000000
10000000
,
00010000
00000000
00001000
00000100
00001000
00000100
00000010
00000001
,
00000200
00000000
00000000
00000000
,
00000000
00000000
00000000
00000000
00000300
00000000
00000000
00000001
,
00000010
00000000
00001000
00010000
00001000
00000000
00010000
00100000
,
00000000
01000000
00001000
00010000
00100000
01000000
10000000
01000000
,
00020000
00000000
00000000
00000000
,
00000000
00000000
00000000
00000000
00000000
00000000
00030000
10000000
,
00010000
00000000
00000000
00010000
00001000
00000000
00000000
00001000
,
00000000
00000001
00000000
00000001
00001000
00000000
00000100
00000000
,
00000020
00000000
00000000
00000000
,
00000000
00000000
00000000
00000030
,
00000001
00000000
00000000
00000100
00000000
00000000
00000001
00000010
,
00000000
00000100
00000000
00001000
00000000
00010000
00000000
00100000
,
02000000
00000000
00000000
00000000
,
00000000
00000000
00000000
03000000
,
10010000
00000000
00000000
00000000
00000000
00000000
10000000
00010000
,
00000000
00000000
00000000
00000000
,
10000000
00100000
00010000
00001000
,
01000000
00100000
00010000
00000010
,
00001000
00000100
00000001
00000100
,
00001000
00000000
00000010
00000100
00000010
00000100
00000010
00000000
,
00000001
00001000
00000100
00000010
,
00010000
00001000
00100000
01000000
,
00010000
00000000
01000000
00000000
10000000
00100000
00000000
00100000
,
00000000
00000000
10000000
00010000
10000000
00010000
10000000
00000000
,
00100000
00010000
00100000
00000000
00010000
00001000
00010000
00000010
,
00000000
00000000
00001000
00000100
00000010
00000000
00000001
00000000
,
00000100
00000000
00000010
00001000
00000010
00000000
00000100
00000000
,
00000001
00000010
00001000
00000000
00000010
00001000
00010000
00000000
,
00000100
00010000
02000000
03100000
,
00002000
00003010
00000200
00010300
,
00000000
00001000
00010000
00001000
00000000
00010000
00001000
00010000
,
00000000
00001000
00010000
00001000
00010000
00001000
00010000
00001000
,
00010000
00000000
00100000
00000000
01000000
00001000
00000000
00010000
,
00000000
00100000
01000000
00000000
00001000
00010000
00000000
01000000
,
00000000
10000000
00100000
00000000
01000000
00010000
00100000
00000000
,
00001000
00010000
00000100
00000000
00001000
00000010
00000000
00001010
,
00000000
00000000
00000001
00000000
00000100
00000010
00000000
00001001
,
00000000
00000001
00000100
00010000
,
01000000
00000000
10000000
00000000
01000000
00010000
00100000
00000000
,
01000000
10000000
00100000
00000000
00010000
00000000
00000010
00000000
,
00001000
00000000
00010000
00000000
00001000
00000000
00000100
00000001
,
00000000
00000100
00000000
00001000
00000001
00000000
00000100
00000000
,
00001000
00000000
00010000
00000000
01000000
10000000
01000000
00000000
,
10000000
00100000
10000000
00000000
00100000
00010000
00100000
00000000
,
00010000
00001000
00000100
00000001
,
00000010
00001000
00010000
00001000
,
00100000
00001000
00100000
00000000
00010000
01000000
00010000
00000000
,
10000000
00100000
10000000
00100000
00000000
10000000
00000000
10010000
,
00000000
00000000
00100000
01000000
00100000
00000000
10010000
00000000
,
00100000
01000000
10000000
00000000
00100000
01000000
00010000
00000000
,
00100000
00001000
00000000
00010000
00000000
00000100
00001000
00000000
,
00000010
00000100
00000010
00000000
00001000
00000001
00001000
00000000
,
00000001
00000100
00000010
00000100
00001000
00010000
00001000
00010000
,
00000000
00010000
01000000
00100000
01000000
10000000
01000000
00100000
,
00010000
00000000
00200000
00002000
00000000
00000000
00303000
00000000
,
00000000
00000000
00001000
00010000
00001000
00010000
00001000
00000000
,
00010000
00000000
00000010
00001000
00000010
00000100
00000010
00000000
,
00001000
00000000
00000001
00001000
00000100
00010000
00001000
00000000
,
01000000
00010000
01000000
00010000
00100000
00010000
00100000
00000000
,
01000000
10000000
01000000
10000000
00100000
10000000
00100000
00000000
,
01000000
00010000
00100000
00010000
01000000
00010000
00100000
00010000
,
00000000
00010000
00100000
00001000
00010000
00000100
00001000
00000010
,
00000100
00000000
00000100
00000000
00000001
00000100
00000001
00000100
,
00001000
00010000
00001000
00010000
00001000
00000000
00000010
00000000
,
00000100
00010000
00000100
00000000
00000010
00001000
00000000
00010000
,
00000000
01000000
10000000
00000000
00100000
01000000
00100000
00000000
,
10000000
01000000
00100000
00010000
01000000
00100000
00010000
00001000
,
00000100
00000010
00001000
00000100
00000010
00000001
00001000
00000000
,
00000001
00000100
00000001
00000100
00001000
00000100
00000000
00000110
,
00000000
00000010
00010000
00001000
00010000
00100000
00000000
01100000
,
00000000
00000000
00100000
00000000
10000000
00100000
10000000
00000000
,
01000000
00100000
01000000
00100000
00010000
00100000
01000000
00100000
,
00000000
01000000
00010000
00000000
00001000
00000000
00010000
00001000
,
00000000
00001000
00010000
00000000
00010000
00000000
00001000
00010000
,
00000000
00011000
00000000
00000000
00001000
00010000
00000010
00001000
,
00000100
00010000
00001000
00010000
00000010
00001000
00000100
00000000
,
00000010
00000001
00000100
00000010
00001000
00000100
00000010
00001000
,
00010000
00100000
01000000
00001000
00010000
01000000
00100000
00010000
,
10000000
00010000
10000000
00010000
10000000
00010000
00000000
10010000
,
00000000
00000000
00000000
00000000
;
