
//----- song ID: jetg -----//
#TITLE:jet coaster☆girl;
#ARTIST:TOMOSUKE feat. Three Berry Icecream;
#TITLETRANSLIT:jet coaster girl;
#BANNER:jet coaster girl.png;
#BACKGROUND:jet coaster girl-bg.png;
#CDTITLE:./CDTitles/GF 7thMIX & DM 6thMIX.png;
#MUSIC:jet coaster girl.ogg;
#SAMPLESTART:45.934;
#SAMPLELENGTH:15;
#BPMS:0=177;
#NOTES:
     dance-single:
     :
     Beginner:
     3:
     :
0000
0000
0000
0000
,
0000
0000
0000
0000
,
0000
0000
0000
0000
,
0100
0000
0010
0000
,
0100
0000
0001
0000
,
1000
0000
0000
0000
,
1000
0000
0000
0000
,
0001
0000
0100
0000
,
0001
0000
1000
0000
,
0010
0000
0000
0000
,
0010
0000
0000
0000
,
0100
0000
0001
0000
,
1000
0000
0100
0000
,
1000
0000
0000
0000
,
0010
0000
0000
0000
,
1000
0000
0001
0000
,
0100
0000
0010
0000
,
0100
0000
0000
0000
,
0001
0000
0010
0000
,
0100
0000
0010
0000
,
1000
0000
0001
0000
,
1000
0000
0000
0000
,
0010
0000
0100
0000
,
0001
0000
0010
0000
,
0100
0000
1000
0000
,
0100
0000
0000
0000
,
1000
0000
0001
0000
,
0200
0000
0000
0000
,
0000
0000
0300
0000
,
0100
0000
0000
0000
,
1000
0000
0000
0000
,
0020
0000
0000
0000
,
0000
0000
0030
0000
,
0010
0000
0000
0000
,
0110
0000
0000
0000
,
1000
0000
1000
0000
,
0001
0000
0001
0000
,
0100
0000
0100
0000
,
0010
0000
0010
0000
,
0100
0000
0100
0000
,
0001
0000
0001
0000
,
1000
0000
0000
0000
,
0010
0000
0000
0000
,
0110
0000
0000
0000
,
0110
0000
0000
0000
,
1001
0000
0000
0000
,
0000
0000
0000
0000
,
1000
0000
0000
0000
,
0001
0000
0000
0000
,
0010
0000
0000
0000
,
0000
0000
0000
0000
,
0001
0000
0000
0000
,
1000
0000
0000
0000
,
0100
0000
1000
0000
,
0001
0000
0100
0000
,
0001
0000
0010
0000
,
0100
0000
1000
0000
,
0010
0000
1000
0000
,
0001
0000
0100
0000
,
0001
0000
1000
0000
,
0010
0010
0000
0000
,
0100
0000
0100
0000
,
0001
0000
1000
0000
,
0001
0000
0000
0000
,
0100
0000
0010
0000
,
1000
0000
0001
0000
,
0010
0000
0100
0000
,
0010
0000
0000
0000
,
0001
0000
1000
0000
,
0020
0000
0000
0000
,
0000
0000
0000
0000
,
0030
0000
0000
0000
,
0000
0000
0000
0000
;
#NOTES:
     dance-single:
     :
     Easy:
     6:
     :
0000
0000
0000
0000
,
0000
0000
0000
0000
,
0000
0000
0000
0000
,
0001
0100
0010
0000
,
1000
0000
0100
0000
,
0020
0000
0032
0000
,
1003
0010
1000
0010
,
0100
0001
0010
0000
,
0001
0000
1000
0000
,
0020
0000
0230
0000
,
0310
1000
0010
1000
,
0001
0100
0001
0000
,
1000
1000
0100
0010
,
0100
0000
1000
0000
,
0001
0010
0100
1000
,
0010
1000
0010
0000
,
0100
0100
0001
0010
,
0001
0000
1000
0000
,
0001
0100
0010
1000
,
0001
0010
0001
0000
,
1000
1000
0001
0010
,
0001
0000
0100
0000
,
0010
1000
0001
0100
,
0010
1000
0010
0000
,
0100
0100
0001
1000
,
0001
0000
0100
0000
,
1001
0000
0110
0000
,
2000
0000
0000
3100
,
0100
0000
0010
0000
,
0110
0000
0000
0000
,
1001
0000
0000
0000
,
0002
0000
0000
0103
,
0100
0000
0010
0000
,
1000
0000
0001
0000
,
1001
0000
1001
0000
,
1000
0010
1000
0010
,
0100
0001
0100
0001
,
0010
0100
0010
0100
,
1000
0000
0001
0000
,
0100
0010
0100
0010
,
1000
0100
1000
0100
,
0010
0001
0000
0000
,
1001
0000
0110
0000
,
1001
0000
0110
0000
,
0110
0000
1001
0000
,
0100
0100
0000
0000
,
0000
0000
0000
0000
,
0001
0100
0001
0000
,
1000
0100
1000
0000
,
0001
0000
0010
0000
0110
0000
0000
0110
,
0000
0001
0100
0001
,
1000
0000
0010
0000
,
1000
0100
1000
0001
,
0010
0010
0001
0100
,
0010
0010
1000
0001
,
0100
0100
0010
1000
,
0100
0100
0010
0001
,
1000
0100
1000
0100
,
0010
0001
0010
0001
,
1000
0010
0100
0001
,
1000
1001
0000
0000
,
0010
0100
0010
1000
,
0001
0010
0001
1000
,
0020
0000
0230
0000
,
0301
1000
0100
0010
,
0100
1000
0001
0100
,
0010
1000
0010
0100
,
0002
0000
2003
0000
,
3001
0100
0010
0100
,
0220
0000
0000
0000
,
0000
0000
0000
0000
,
0330
0000
0000
0000
,
0000
0000
0000
0000
;
#NOTES:
     dance-single:
     :
     Medium:
     11:
     :
0000
0000
0000
0000
,
0000
0000
0000
0000
,
0000
0000
0000
0000
,
1000
0001
0100
0001
,
0010
0000
0100
0000
1000
0100
1000
0000
,
0002
0000
0023
0000
,
0031
0000
0100
0000
0001
0010
0001
0000
,
0100
0010
1000
0010
,
0100
0000
0001
0000
0010
0001
0010
0000
,
0200
0000
2300
0000
,
3010
0100
0001
1001
,
1000
0000
0010
0000
0100
0010
0000
1000
,
0000
0100
0000
0010
0000
0001
0000
0100
,
0001
0000
0010
0000
0100
0010
0100
0000
,
0010
0001
0100
0010
,
1000
0000
0001
0000
0010
0100
0000
0010
,
0000
0001
0000
1000
0000
0100
0000
0110
,
0000
0000
1001
0000
0001
0100
0001
0000
,
0100
0000
0010
0000
1000
0010
1000
0000
,
0001
0000
0010
0000
0100
0010
0000
0001
,
0000
0100
0000
0010
0000
1000
0000
0100
,
1000
0000
0010
0000
0100
0010
0100
0000
,
0010
1000
0100
0010
,
0001
0000
1000
0000
0010
0100
0000
0010
,
0000
1000
0000
0001
0000
0100
0000
0110
,
0000
0000
1001
0000
1000
0100
1000
0000
,
0100
0000
0010
0000
0001
0010
0001
0000
,
0200
0000
0300
0010
0100
0000
0010
0000
,
1000
0100
0010
0001
,
0100
0010
0100
0000
0010
0000
1000
0000
,
0001
0010
0001
0000
1000
0000
0010
0000
,
2000
0000
3000
0100
1000
0000
0001
0000
,
0010
0100
1000
0010
,
0200
0000
0000
0000
0301
0010
0000
0001
,
0000
0001
0000
1000
0000
1001
0000
0000
,
0001
0000
0100
0000
0010
1000
0010
1000
,
0100
0000
0010
0000
0001
0010
0001
0000
,
0100
0010
1000
0001
,
1000
0100
0010
0000
0001
0100
0010
0000
,
1000
0000
0100
0000
0010
0001
0010
0001
,
0100
0000
0010
0000
1000
0010
1000
0000
,
0100
0000
0110
0000
0001
0000
1000
0010
,
0000
0100
0000
0010
0000
1000
0000
0001
,
0000
0000
0110
0000
0001
1000
0000
0001
,
0000
0010
0000
0100
0000
1000
0000
0000
,
1001
0000
1001
0000
1000
0010
0000
0100
,
0000
0001
0010
0000
0001
0100
0001
0000
,
1000
0000
1000
0000
0010
0100
0000
0001
,
0000
1000
0000
0100
0000
0010
0100
0000
,
0110
0000
1001
0000
1001
0000
0000
0110
,
0000
1000
0010
1000
0010
1000
0010
0000
,
1000
0000
0000
0000
0001
0010
0000
0001
,
0000
0100
0010
0100
0010
0100
0010
0000
,
1000
0000
0100
0010
0100
0010
0001
0000
,
0100
0000
0001
1000
0001
1000
0100
0000
,
0010
0000
0001
0100
0001
0100
0010
0000
,
1000
1000
0100
0010
0100
0010
0100
0000
,
0010
0010
0001
0010
0001
0010
0100
0000
,
1000
1000
0001
0100
0001
0100
0010
0000
,
0100
0100
0010
1000
0010
1000
0001
0000
,
1001
0110
0000
0000
,
0001
0000
0100
0000
0010
1000
0100
1000
,
0000
0001
0000
0010
0000
0100
0000
1000
,
0010
0000
1000
0000
0001
0000
0100
0010
,
0000
0100
0000
0001
0000
1000
0001
0000
,
0010
0000
0100
0000
1000
0100
1000
0001
,
0000
0010
0000
0100
0000
1000
0000
0001
,
0100
0000
0001
0000
0010
0000
0100
1000
,
0000
0001
0000
0100
0000
0010
0100
0000
,
2002
0000
0000
0000
,
0000
0000
0000
0000
,
3003
0000
0000
0000
,
0000
0000
0000
0000
;
#NOTES:
     dance-single:
     :
     Hard:
     13:
     :
0000
0000
0000
0000
,
0000
0000
0000
0000
,
0000
0000
0000
0000
,
0001
0000
1000
0000
0010
1000
0100
0010
,
0000
0011
0000
1001
0000
1100
0000
0100
,
2000
0000
0010
0000
3001
0010
0100
1000
,
0000
0010
0100
0010
0000
1000
0100
0010
,
0001
0000
1000
0000
0100
0010
0001
0100
,
0000
1100
0000
1001
0000
0011
0000
0010
,
0002
0000
0100
0000
1003
0010
0100
0001
,
0000
1000
0000
0010
0100
0010
1000
0001
,
0100
0000
0001
0010
0100
1000
0000
1001
,
0000
0011
0000
1010
0000
1001
0000
0110
,
0000
0000
0000
1000
0001
0010
0000
0110
,
0000
1100
0000
1001
0000
0011
0000
1000
,
0010
0000
1000
0100
0010
0001
0000
1001
,
0000
1100
0000
0101
0000
1001
0000
0110
,
0000
0001
0010
0000
0100
1000
0100
0010
,
0000
0001
0100
0000
0010
1000
0100
0000
,
0010
0000
0001
0010
0001
0100
0000
0110
,
0000
1010
0000
1001
0000
0101
0000
0110
,
0000
0000
0000
1000
0010
0100
0000
0101
,
0000
1001
0000
1010
0000
0100
0010
0000
,
1000
0000
0001
0010
0100
1000
0000
0110
,
0000
0101
0000
0011
0000
1001
0000
1010
,
0000
1000
0100
0000
0010
0001
0010
0100
,
0000
1100
0000
0101
0000
1000
0010
0000
,
2000
0000
3100
0010
0100
0000
1000
0000
,
0001
0010
0000
0001
0000
0100
0000
0010
,
0000
0100
0010
1000
0010
0000
1000
0000
,
0100
0000
0010
0000
0001
0000
0010
0000
0001
0000
0100
0010
0100
0000
0001
0000
,
2000
0000
3100
0010
0100
0000
1000
0010
,
0100
0001
0000
1000
0000
0100
0000
0000
,
0020
0000
0000
0031
0100
0001
0000
1001
,
0000
1010
0000
0110
0000
1000
0001
1000
,
0010
0100
0001
0100
0010
0100
0001
0100
,
0010
0100
0001
0100
0010
0100
0001
0100
,
0010
1000
0010
0100
0010
1000
0010
0100
,
0001
1000
0100
1000
0001
1000
0100
1000
,
0001
0100
0010
0100
0001
1000
0100
1000
,
0010
1000
0100
0010
0001
1000
0010
0100
,
0001
0000
1001
0000
0010
1000
0100
0110
,
0000
0011
0000
1100
0000
1001
0000
0110
,
0000
0001
0010
0000
1000
0010
0000
1000
,
0000
0100
0000
0010
0000
0001
0000
0000
,
0101
0000
1010
0000
1000
0100
0000
0010
,
0000
0001
0100
0001
0100
0001
0100
0000
,
0010
0000
0010
0000
1000
0010
1000
0100
,
0000
0110
0000
0011
0000
1000
0010
0000
,
1100
0000
0011
0000
1000
0100
0001
1000
,
0010
0001
0100
0010
0100
0010
0100
0000
,
0002
0000
1000
0000
0103
0001
0100
0010
,
0000
1000
0100
1000
0100
0010
0001
0000
,
0101
0101
0000
1000
0000
0010
0100
0010
,
1010
1010
0000
1000
0000
0001
0100
0010
,
0110
0110
0000
0001
0000
0010
0100
1000
,
1001
1001
0000
0001
0000
0100
0000
0010
,
1000
1000
0100
0010
0001
0001
0100
0010
,
0100
0100
0001
1000
0010
0010
0100
0001
,
0010
0010
0001
1000
0100
0100
0010
0001
,
1001
0110
0000
0000
,
0001
0000
0000
0000
1000
0000
0000
0001
0010
0000
0100
0000
1000
0000
0001
0000
,
0000
0101
0000
1010
0000
1000
0100
0010
,
0001
0000
0000
0000
1001
0000
0000
1000
0010
0000
0100
0000
0010
0000
1000
0000
,
0001
0100
0001
0000
1000
0000
0100
0010
0100
0000
1000
0000
0001
0000
0100
0000
,
0010
0000
0000
0000
1000
0000
0000
0100
0010
0000
0001
0000
1000
0000
0010
0000
,
0000
0110
0000
0101
0000
1000
0010
0100
,
0001
0000
0000
0000
0011
0000
0000
1000
0100
0000
0010
0000
0001
0000
1000
0000
,
0010
0100
0010
0001
0010
1000
0010
0100
,
0002
0000
0000
0000
,
0000
0000
0000
0000
,
0003
0000
0000
0000
,
0000
0000
0000
0000
;
#NOTES:
     dance-double:
     :
     Easy:
     6:
     :
00000000
00000000
00000000
00000000
,
00000000
00000000
00000000
00000000
,
00000000
00000000
00000000
00000000
,
00000010
00010000
00001000
00000000
,
00010000
00000000
00000100
00000000
,
00002000
00000000
00003002
00000000
,
00000103
00000010
00000100
00000001
,
00001000
00000100
00010000
00000000
,
00001000
00000000
00100000
00000000
,
00020000
00000000
20030000
00000000
,
30100000
01000000
00100000
10000000
,
00010000
00000000
00010000
00000000
,
00100000
00001000
00100000
00000000
,
00001000
00000000
00010000
00000000
,
00000100
00010000
00000100
00001000
,
00000001
00000000
00000001
00000000
,
00001000
00000010
00001000
00000000
,
00000100
00000000
00010000
00000000
,
00001000
00100000
00010000
01000000
,
00100000
00000000
00100000
00000000
,
10000000
01000000
00010000
00001000
,
00010000
00000000
00001000
00000000
,
00010000
00000100
00001000
00000001
,
00000010
00000000
00000010
00000000
,
00000001
00000100
00001000
00010000
,
00001000
00000000
00010000
00000000
,
00001000
00000000
00100000
00000000
,
00020000
00000000
00000000
10030000
,
10000000
00000000
00100000
00000000
,
01100000
00000000
00000000
00000000
,
00011000
00000000
00000000
00000000
,
00020000
00000000
00000000
00030010
,
00000010
00000000
00001000
00000000
,
00000001
00000000
00000100
00000000
,
00000110
00000000
00000000
00000000
,
00010000
00001000
00010000
00001000
,
00100000
00010000
00100000
00010000
,
01000000
00100000
01000000
00100000
,
10000000
00000000
01000000
00000000
,
00100000
00010000
00100000
00010000
,
00100000
00001000
00100000
00001000
,
00010000
00001000
00000000
00000000
,
00000101
00000000
00001100
00000000
,
00011000
00000000
00110000
00000000
,
10100000
00000000
10010000
00000000
,
00100000
00100000
00000000
00000000
,
00000000
00000000
00000000
00000000
,
00001000
00010000
00001000
00000000
,
00010000
00000010
00001000
00000000
,
00000001
00000100
00000001
00000000
,
00001000
00000000
00000100
00000000
,
00010000
00000000
00010000
00000000
,
00001000
00010000
00001000
00000000
,
00100000
00010000
00100000
00010000
,
10000000
01000000
10000000
01000000
,
00100000
00010000
00100000
00010000
,
00100000
00001000
00010000
00000100
,
00001000
00000010
00001000
00000010
,
00000100
00000001
00000100
00000001
,
00001000
00000010
00001000
00000010
,
00010000
00011000
00000000
00000000
,
00001000
00100000
00001000
00000000
,
00100000
00010000
01000000
00100000
,
20000000
00000000
30020000
00000000
,
01030000
00001000
00010000
00000000
,
00000100
00010000
00000100
00000000
,
00001000
00000001
00000010
00000100
,
00002000
00000000
00003002
00000000
,
00000103
00000010
00010000
00001000
,
00022000
00000000
00000000
00000000
,
00000000
00000000
00000000
00000000
,
00033000
00000000
00000000
00000000
,
00000000
00000000
00000000
00000000
;
#NOTES:
     dance-double:
     :
     Medium:
     10:
     :
00000000
00000000
00000000
00000000
,
00000000
00000000
00000000
00000000
,
00000000
00000000
00000000
00000000
,
00000001
00000100
00000010
00001000
,
00000100
00000000
00010000
00000000
00001000
00010000
00001000
00000000
,
00200000
00000000
00320000
00000000
,
10030000
00000000
00010000
00000000
01000000
00100000
01000000
00000000
,
00010000
10000000
01000000
00100000
,
00010000
00000000
00100000
00000000
00001000
00010000
00001000
00000000
,
00020000
00000000
00030200
00000000
,
00001300
00000001
00000100
00000110
,
00001000
00000000
00000001
00000000
00000100
00001000
00000000
00010000
,
00000000
00100000
00000000
10000000
00000000
00010000
00000000
10000000
,
00100000
00000000
01000000
00000000
00010000
00100000
00010000
00000000
,
10000000
00100000
01000000
00010000
,
10000000
00000000
01000000
00000000
00010000
00001000
00000000
00000100
,
00000000
00000001
00000000
00001000
00000000
00000010
00000000
00000100
,
00000000
00000101
00001000
00000100
,
00010000
00000000
00001000
00000000
00010000
00001000
00010000
00000000
,
00001000
00000000
01000000
00000000
00010000
00100000
00000000
00010000
,
00000000
10000000
00000000
00100000
00000000
00010000
00000000
00001000
,
00010000
00000000
00000100
00000000
00001000
00000010
00001000
00000000
,
00000001
00000100
00001000
00010000
,
00100000
00000000
10000000
00000000
01000000
00100000
00000000
00010000
,
00000000
00100000
00000000
00001000
00000000
00010000
00000000
00000100
,
00000000
00001010
00000001
00000100
,
00000001
00000010
00001000
00010000
,
00002000
00000000
00003000
00010000
00100000
00000000
01000000
00000000
,
00010000
10000000
01000000
00010000
,
00001000
00000010
00000001
00000100
,
00000010
00001000
00000010
00000000
00010000
00000000
00001000
00000000
,
02000000
00000000
03000000
00010000
00100000
00000000
01000000
00000000
,
10000000
00100000
00010000
00001000
,
00020000
00000000
00000000
00000000
00031000
00000010
00000000
00000100
,
00000000
00000100
00000000
00001000
00000000
00001001
00000000
00000000
,
00000001
00000100
00001000
00000100
,
00000010
00000000
00001000
00000000
00000100
00010000
00000100
00000000
,
00010000
00001000
00100000
00010000
,
10000000
00000000
00100000
00000000
01000000
00100000
01000000
00000000
,
00010000
10000000
01000000
00010000
,
01000000
00000000
00100000
00000000
00010000
01000000
00010000
00000000
,
00100000
00000000
00011000
00000000
00001000
00000000
00010000
00000010
,
00000000
00001000
00000000
00000100
00000000
00000010
00000000
00000001
,
00000000
00000000
00000101
00000000
00000010
00001000
00000000
00000100
,
00000000
00010000
00000000
00001000
00000000
01000000
00000000
00000000
,
01010000
00000000
10100000
00000000
00010000
00100000
00000000
00001000
,
00000000
00010000
00001000
00000000
00010000
00000100
00010000
00000000
,
00000010
00000000
00000010
00000000
00001000
00000100
00000000
00000010
,
00000000
00000001
00000000
00001000
00000000
00000100
00001000
00000000
,
00011000
00000000
00110000
00000000
01100000
00000000
00000000
10010000
,
00000000
00100000
00001000
00100000
00001000
00010000
00001000
00000000
,
00010000
00000000
00000000
00000000
00000010
00001000
00000000
00000001
,
00000000
00001000
00000100
00001000
00000100
00010000
00001000
00000000
,
00010000
00000000
00001000
00000000
00100000
00010000
00100000
00000000
,
00010000
00000000
10000000
00000000
00100000
01000000
00100000
00000000
,
01000000
00000000
00010000
00000000
00100000
00001000
00100000
00000000
,
00001000
00000000
00010000
00000000
00000100
00010000
00000100
00000000
,
00001000
00000000
00000001
00000000
00000100
00000010
00000100
00000000
,
00000010
00000000
00001000
00000000
00000100
00010000
00000100
00000000
,
00010000
00000000
00001000
00000000
00100000
00001000
00100000
00000000
,
00110000
11000000
00000000
00000000
,
10000000
00000000
00100000
00000000
01000000
00010000
00100000
00010000
,
00000000
10000000
00000000
01000000
00000000
00010000
00000000
00001000
,
00010000
00000000
00001000
00000000
00000100
00000000
00000001
00000010
,
00000000
00000001
00000000
00001000
00000000
00000010
00000100
00000000
,
00000001
00000000
00001000
00000000
00000100
00000010
00000100
00001000
,
00000000
00000001
00000000
00000100
00000000
00001000
00000000
00010000
,
00001000
00000000
00010000
00000000
01000000
00000000
10000000
00100000
,
00000000
01000000
00000000
00010000
00000000
00100000
00001000
00000000
,
00022000
00000000
00000000
00000000
,
00000000
00000000
00000000
00000000
,
00033000
00000000
00000000
00000000
,
00000000
00000000
00000000
00000000
;
#NOTES:
     dance-double:
     :
     Hard:
     13:
     :
00000000
00000000
00000000
00000000
,
00000000
00000000
00000000
00000000
,
00000000
00000000
00000000
00000000
,
00001000
00000000
00010000
00000000
00001000
00010000
00100000
10000000
,
00000000
11000000
00000000
00110000
00000000
00011000
00000000
00010000
,
00000020
00000000
00001000
00000000
00000130
00000010
00000100
00000001
,
00000000
00001000
00000010
00001000
00000000
00000001
00000010
00000100
,
00001000
00000000
00000100
00000000
00010000
00001000
00100000
00010000
,
00000000
01010000
00000000
11000000
00000000
00110000
00000000
00001000
,
00020000
00000000
00000010
00000000
00030100
00001000
00000100
00000010
,
00000000
00000001
00000000
00000100
00000010
00000100
00000001
00001000
,
00000100
00000000
00001000
00000001
00000100
00001000
00000000
00011000
,
00000000
01010000
00000000
11000000
00000000
10100000
00000000
00110000
,
00000000
00000000
00000000
10000000
01000000
00010000
00000000
00011000
,
00000000
00001100
00000000
00000101
00000000
00000011
00000000
00001000
,
00000010
00000000
00010000
00001000
01000000
00010000
00000000
10100000
,
00000000
01010000
00000000
00011000
00000000
00001100
00000000
00000011
,
00000000
00000001
00001000
00000000
00000010
00000100
00000010
00001000
,
00000000
00000100
00010000
00000000
00001000
00100000
00010000
00000000
,
10000000
00000000
00010000
10000000
01000000
00010000
00000000
00011000
,
00000000
00001010
00000000
00000011
00000000
00000101
00000000
00001100
,
00000000
00000000
00000000
00000001
00000010
00001000
00000000
00011000
,
00000000
00110000
00000000
10100000
00000000
11000000
00000000
00010000
,
01000000
00000000
00001000
00010000
00000010
00001000
00000000
00000101
,
00000000
00001010
00000000
00011000
00000000
00110000
00000000
11000000
,
00000000
10000000
00010000
00000000
01000000
00100000
01000000
00010000
,
00000000
00110000
00000000
00011000
00000000
00000100
00001000
00000000
,
00000002
00000000
00000013
00000100
00000010
00000000
00000001
00000000
,
00000100
00001000
00000000
00010000
00000000
00100000
00000000
10000000
,
00000000
00010000
01000000
00010000
00100000
00000000
00001000
00000000
,
00010000
00000100
00001000
00000100
00001000
00000010
00000100
00000001
,
00002000
00000000
00003100
00010000
00000100
00000000
00010000
00001000
,
00100000
00010000
00000000
10000000
00000000
00100000
00000000
00000000
,
02000000
00000000
00000000
03001000
00010000
00001000
00000000
00011000
,
00000000
00001100
00000000
00000110
00000000
00000001
00000010
00000001
,
00000100
00000010
00001000
00000010
00000100
00000010
00001000
00000010
,
00010000
00001000
00100000
00001000
00010000
00001000
00100000
00001000
,
01000000
00010000
10000000
00010000
01000000
00010000
10000000
00100000
,
10000000
01000000
00010000
00001000
00000010
00000001
00001000
00000001
,
00000100
00000010
00001000
00000100
00010000
00001000
01000000
00010000
,
00100000
01000000
10000000
00100000
01000000
00010000
00100000
00001000
,
00010000
00000000
00011000
00000000
00001000
00000100
00000010
00000110
,
00000000
00000101
00000000
00001010
00000000
00011000
00000000
01010000
,
00000000
10000000
01000000
00000000
00100000
00010000
00000000
10000000
,
00000000
00100000
00000000
00010000
00000000
00001000
00000000
00000000
,
00011000
00000000
00000110
00000000
00000001
00000010
00000000
00000100
,
00000000
00001000
00000010
00001000
00000010
00010000
00001000
00000000
,
00010000
00000000
00010000
00000000
00001000
00010000
00100000
10000000
,
00000000
11000000
00000000
00110000
00000000
00001000
00010000
00000000
,
00001100
00000000
00000101
00000000
00000001
00000100
00001000
00010000
,
00100000
10000000
00100000
01000000
00010000
01000000
00010000
00000000
,
00200000
00000000
00010000
00000000
00301000
00010000
00001000
00000100
,
00000000
00000001
00000010
00000001
00001000
00000100
00001000
00000000
,
00000001
00000001
00000000
00000100
00000000
00001000
00010000
00001000
,
00010000
00010000
00000000
01000000
00000000
10000000
00100000
01000000
,
00010000
00010000
00000000
10000000
00000000
00100000
00010000
00001000
,
00010000
00010000
00000000
00001000
00000000
00000010
00000000
00000001
,
00001000
00001000
00000100
00010000
00001000
00001000
01000000
00010000
,
10000000
10000000
00100000
01000000
00010000
00010000
00100000
00001000
,
00010000
00010000
00000010
00001000
00000100
00000100
00000010
00000001
,
00001001
00011000
00000000
00000000
,
10000000
00000000
00010000
00000000
10000000
01000000
00010000
00001000
,
00000000
00011000
00000000
00001100
00000000
00000001
00000010
00000100
,
00001000
00000000
00011000
00000000
00010000
00001000
00010000
01000000
,
00100000
00010000
10000000
00100000
01000000
00010000
00100000
00001000
,
00010000
00000000
00000100
00000000
00001000
00000001
00000010
00001000
,
00000000
00011000
00000000
00110000
00000000
10000000
01000000
00100000
,
00010000
00000000
00011000
00000000
00001000
00010000
00001000
00000010
,
00000001
00000100
00001000
00010000
00100000
01000000
00010000
10000000
,
02000000
00000000
00000000
00000000
,
00000000
00000000
00000000
00000000
,
03000000
00000000
00000000
00000000
,
00000000
00000000
00000000
00000000
;
